当前位置: 首页 >> 欧美电影 >> 心碎[中文字幕].Torn.Hearts.2022.1080p.AMZN.WEBRip.DDP5.1.x264-GNOME 5.83GB >> 正文

心碎[中文字幕].Torn.Hearts.2022.1080p.AMZN.WEBRip.DDP5.1.x264-GNOME 5.83GB

2022年07月26日 09:37:01     电影发布:来源于网络     电影分类:欧美电影     评论(0)    

心碎[中文字幕].Torn.Hearts.2022.1080p.AMZN.WEBRip.DDP5.1.x264 GNOME 5.83GB  欧美电影  第1张

心碎[中文字幕].Torn.Hearts.2022.1080p.AMZN.WEBRip.DDP5.1.x264 GNOME 5.83GB  欧美电影  第2张

◎译 名 心碎 / Tattered Hearts

◎片 名 Torn Hearts

◎年 代 2022

◎产 地 美国

◎类 别 惊悚 / 恐怖

◎上映日期 2022-05-20(美国)

◎IMDb链接 https://www.imdb.com/title/tt15053518/

◎豆瓣链接 https://movie.douban.com/subject/35729437/

◎导 演 布瑞亚·格兰特 Brea Grant (id:1027389)

◎演 员 凯特蕾·萨加尔 Katey Sagal (id:1013801)

希罗·弗南德兹 Shiloh Fernandez (id:1032013)

艾比·奎因 Abby Quinn (id:1386474)

◎简 介

Follows a country music duo who seek out the private mansion of their idol and end up in a twisted series of horrors that force them to confront the limits they'd go for their dreams.

  1. Video

  2. ID : 1

  3. Format : AVC

  4. Format/Info : Advanced Video Codec

  5. Format profile : [email protected]

  6. Format settings : CABAC / 4 Ref Frames

  7. Format settings, CABAC : Yes

  8. Format settings, Reference frames : 4 frames

  9. Codec ID : V_MPEG4/ISO/AVC

  10. Duration : 1 h 37 min

  11. Bit rate mode : Constant

  12. Bit rate : 7 935 kb/s

  13. Nominal bit rate : 10 000 kb/s

  14. Width : 1 920 pixels

  15. Height : 1 080 pixels

  16. Display aspect ratio : 16:9

  17. Frame rate mode : Constant

  18. Frame rate : 23.976 (24000/1001/53354) FPS

  19. Color space : YUV

  20. Chroma subsampling : 4:2:0

  21. Bit depth : 8 bits

  22. Scan type : Progressive

  23. Bits/(Pixel*Frame) : 0.160

  24. Stream size : 5.39 GiB (92%)

  25. Language : English

  26. Default : Yes

  27. Forced : No

  28. Color range : Limited

  29. Color primaries : BT.709

  30. Transfer characteristics : BT.709

  31. Matrix coefficients : BT.709


  32. Audio

  33. ID : 2

  34. Format : E-AC-3

  35. Format/Info : Enhanced AC-3

  36. Commercial name : Dolby Digital Plus

  37. Codec ID : A_EAC3

  38. Duration : 1 h 37 min

  39. Bit rate mode : Constant

  40. Bit rate : 640 kb/s

  41. Channel(s) : 6 channels

  42. Channel layout : L R C LFE Ls Rs

  43. Sampling rate : 48.0 kHz

  44. Frame rate : 31.250 FPS (1536 SPF)

  45. Compression mode : Lossy

  46. Stream size : 445 MiB (7%)

  47. Title : Dolby Digital Plus / 5.1 / 48 kHz / 640 kbps

  48. Language : English

  49. Service kind : Complete Main

  50. Default : Yes

  51. Forced : No


  52. Text #1

  53. ID : 3

  54. Format : UTF-8

  55. Codec ID : S_TEXT/UTF8

  56. Codec ID/Info : UTF-8 Plain Text

  57. Duration : 1 h 36 min

  58. Bit rate : 68 b/s

  59. Frame rate : 0.307 FPS

  60. Count of elements : 1780

  61. Stream size : 48.7 KiB (0%)

  62. Language : English

  63. Default : No

  64. Forced : No


  65. Text #2

  66. ID : 4

  67. Format : UTF-8

  68. Codec ID : S_TEXT/UTF8

  69. Codec ID/Info : UTF-8 Plain Text

  70. Duration : 1 h 36 min

  71. Bit rate : 78 b/s

  72. Frame rate : 0.349 FPS

  73. Count of elements : 2022

  74. Stream size : 55.6 KiB (0%)

  75. Title : SDH

  76. Language : English

  77. Default : No

  78. Forced : No


  79. Text #3

  80. ID : 5

  81. Format : UTF-8

  82. Codec ID : S_TEXT/UTF8

  83. Codec ID/Info : UTF-8 Plain Text

  84. Duration : 1 h 36 min

  85. Bit rate : 96 b/s

  86. Frame rate : 0.238 FPS

  87. Count of elements : 1379

  88. Stream size : 68.6 KiB (0%)

  89. Language : Arabic

  90. Default : No

  91. Forced : No


  92. Text #4

  93. ID : 6

  94. Format : UTF-8

  95. Codec ID : S_TEXT/UTF8

  96. Codec ID/Info : UTF-8 Plain Text

  97. Duration : 1 h 36 min

  98. Bit rate : 84 b/s

  99. Frame rate : 0.235 FPS

  100. Count of elements : 1362

  101. Stream size : 60.1 KiB (0%)

  102. Language : Bulgarian

  103. Default : No

  104. Forced : No


  105. Text #5

  106. ID : 7

  107. Format : UTF-8

  108. Codec ID : S_TEXT/UTF8

  109. Codec ID/Info : UTF-8 Plain Text

  110. Duration : 1 h 36 min

  111. Bit rate : 54 b/s

  112. Frame rate : 0.238 FPS

  113. Count of elements : 1377

  114. Stream size : 38.4 KiB (0%)

  115. Language : Czech

  116. Default : No

  117. Forced : No


  118. Text #6

  119. ID : 8

  120. Format : UTF-8

  121. Codec ID : S_TEXT/UTF8

  122. Codec ID/Info : UTF-8 Plain Text

  123. Duration : 1 h 36 min

  124. Bit rate : 56 b/s

  125. Frame rate : 0.238 FPS

  126. Count of elements : 1377

  127. Stream size : 39.9 KiB (0%)

  128. Language : Danish

  129. Default : No

  130. Forced : No


  131. Text #7

  132. ID : 9

  133. Format : UTF-8

  134. Codec ID : S_TEXT/UTF8

  135. Codec ID/Info : UTF-8 Plain Text

  136. Duration : 1 h 36 min

  137. Bit rate : 55 b/s

  138. Frame rate : 0.236 FPS

  139. Count of elements : 1367

  140. Stream size : 39.5 KiB (0%)

  141. Language : Estonian

  142. Default : No

  143. Forced : No


  144. Text #8

  145. ID : 10

  146. Format : UTF-8

  147. Codec ID : S_TEXT/UTF8

  148. Codec ID/Info : UTF-8 Plain Text

  149. Duration : 1 h 36 min

  150. Bit rate : 52 b/s

  151. Frame rate : 0.238 FPS

  152. Count of elements : 1377

  153. Stream size : 36.9 KiB (0%)

  154. Language : Finnish

  155. Default : No

  156. Forced : No


  157. Text #9

  158. ID : 11

  159. Format : UTF-8

  160. Codec ID : S_TEXT/UTF8

  161. Codec ID/Info : UTF-8 Plain Text

  162. Duration : 1 h 36 min

  163. Bit rate : 60 b/s

  164. Frame rate : 0.230 FPS

  165. Count of elements : 1331

  166. Stream size : 43.1 KiB (0%)

  167. Language : French

  168. Default : No

  169. Forced : No


  170. Text #10

  171. ID : 12

  172. Format : UTF-8

  173. Codec ID : S_TEXT/UTF8

  174. Codec ID/Info : UTF-8 Plain Text

  175. Duration : 1 h 36 min

  176. Bit rate : 93 b/s

  177. Frame rate : 0.237 FPS

  178. Count of elements : 1376

  179. Stream size : 66.3 KiB (0%)

  180. Language : Greek

  181. Default : No

  182. Forced : No


  183. Text #11

  184. ID : 13

  185. Format : UTF-8

  186. Codec ID : S_TEXT/UTF8

  187. Codec ID/Info : UTF-8 Plain Text

  188. Duration : 1 h 36 min

  189. Bit rate : 82 b/s

  190. Frame rate : 0.238 FPS

  191. Count of elements : 1380

  192. Stream size : 58.6 KiB (0%)

  193. Language : Hebrew

  194. Default : No

  195. Forced : No


  196. Text #12

  197. ID : 14

  198. Format : UTF-8

  199. Codec ID : S_TEXT/UTF8

  200. Codec ID/Info : UTF-8 Plain Text

  201. Duration : 1 h 36 min

  202. Bit rate : 139 b/s

  203. Frame rate : 0.238 FPS

  204. Count of elements : 1381

  205. Stream size : 98.4 KiB (0%)

  206. Language : Hindi

  207. Default : No

  208. Forced : No


  209. Text #13

  210. ID : 15

  211. Format : UTF-8

  212. Codec ID : S_TEXT/UTF8

  213. Codec ID/Info : UTF-8 Plain Text

  214. Duration : 1 h 36 min

  215. Bit rate : 62 b/s

  216. Frame rate : 0.238 FPS

  217. Count of elements : 1379

  218. Stream size : 44.0 KiB (0%)

  219. Language : Hungarian

  220. Default : No

  221. Forced : No


  222. Text #14

  223. ID : 16

  224. Format : UTF-8

  225. Codec ID : S_TEXT/UTF8

  226. Codec ID/Info : UTF-8 Plain Text

  227. Duration : 1 h 36 min

  228. Bit rate : 60 b/s

  229. Frame rate : 0.238 FPS

  230. Count of elements : 1377

  231. Stream size : 42.6 KiB (0%)

  232. Language : Indonesian

  233. Default : No

  234. Forced : No


  235. Text #15

  236. ID : 17

  237. Format : UTF-8

  238. Codec ID : S_TEXT/UTF8

  239. Codec ID/Info : UTF-8 Plain Text

  240. Duration : 1 h 36 min

  241. Bit rate : 46 b/s

  242. Frame rate : 0.220 FPS

  243. Count of elements : 1275

  244. Stream size : 32.9 KiB (0%)

  245. Language : Japanese

  246. Default : No

  247. Forced : No


  248. Text #16

  249. ID : 18

  250. Format : UTF-8

  251. Codec ID : S_TEXT/UTF8

  252. Codec ID/Info : UTF-8 Plain Text

  253. Duration : 1 h 36 min

  254. Bit rate : 62 b/s

  255. Frame rate : 0.238 FPS

  256. Count of elements : 1380

  257. Stream size : 44.1 KiB (0%)

  258. Language : Korean

  259. Default : No

  260. Forced : No


  261. Text #17

  262. ID : 19

  263. Format : UTF-8

  264. Codec ID : S_TEXT/UTF8

  265. Codec ID/Info : UTF-8 Plain Text

  266. Duration : 1 h 36 min

  267. Bit rate : 57 b/s

  268. Frame rate : 0.238 FPS

  269. Count of elements : 1380

  270. Stream size : 40.9 KiB (0%)

  271. Language : Latvian

  272. Default : No

  273. Forced : No


  274. Text #18

  275. ID : 20

  276. Format : UTF-8

  277. Codec ID : S_TEXT/UTF8

  278. Codec ID/Info : UTF-8 Plain Text

  279. Duration : 1 h 36 min

  280. Bit rate : 51 b/s

  281. Frame rate : 0.238 FPS

  282. Count of elements : 1379

  283. Stream size : 36.2 KiB (0%)

  284. Language : Lithuanian

  285. Default : No

  286. Forced : No


  287. Text #19

  288. ID : 21

  289. Format : UTF-8

  290. Codec ID : S_TEXT/UTF8

  291. Codec ID/Info : UTF-8 Plain Text

  292. Duration : 1 h 36 min

  293. Bit rate : 61 b/s

  294. Frame rate : 0.238 FPS

  295. Count of elements : 1377

  296. Stream size : 43.5 KiB (0%)

  297. Language : Malay

  298. Default : No

  299. Forced : No


  300. Text #20

  301. ID : 22

  302. Format : UTF-8

  303. Codec ID : S_TEXT/UTF8

  304. Codec ID/Info : UTF-8 Plain Text

  305. Duration : 1 h 36 min

  306. Bit rate : 57 b/s

  307. Frame rate : 0.238 FPS

  308. Count of elements : 1378

  309. Stream size : 40.9 KiB (0%)

  310. Language : Norwegian

  311. Default : No

  312. Forced : No


  313. Text #21

  314. ID : 23

  315. Format : UTF-8

  316. Codec ID : S_TEXT/UTF8

  317. Codec ID/Info : UTF-8 Plain Text

  318. Duration : 1 h 36 min

  319. Bit rate : 64 b/s

  320. Frame rate : 0.238 FPS

  321. Count of elements : 1379

  322. Stream size : 45.9 KiB (0%)

  323. Language : Polish

  324. Default : No

  325. Forced : No


  326. Text #22

  327. ID : 24

  328. Format : UTF-8

  329. Codec ID : S_TEXT/UTF8

  330. Codec ID/Info : UTF-8 Plain Text

  331. Duration : 1 h 36 min

  332. Bit rate : 60 b/s

  333. Frame rate : 0.237 FPS

  334. Count of elements : 1374

  335. Stream size : 42.5 KiB (0%)

  336. Title : Brazilian

  337. Language : Portuguese

  338. Default : No

  339. Forced : No


  340. Text #23

  341. ID : 25

  342. Format : UTF-8

  343. Codec ID : S_TEXT/UTF8

  344. Codec ID/Info : UTF-8 Plain Text

  345. Duration : 1 h 36 min

  346. Bit rate : 56 b/s

  347. Frame rate : 0.237 FPS

  348. Count of elements : 1374

  349. Stream size : 39.9 KiB (0%)

  350. Language : Portuguese

  351. Default : No

  352. Forced : No


  353. Text #24

  354. ID : 26

  355. Format : UTF-8

  356. Codec ID : S_TEXT/UTF8

  357. Codec ID/Info : UTF-8 Plain Text

  358. Duration : 1 h 36 min

  359. Bit rate : 53 b/s

  360. Frame rate : 0.237 FPS

  361. Count of elements : 1374

  362. Stream size : 37.6 KiB (0%)

  363. Language : Slovak

  364. Default : No

  365. Forced : No


  366. Text #25

  367. ID : 27

  368. Format : UTF-8

  369. Codec ID : S_TEXT/UTF8

  370. Codec ID/Info : UTF-8 Plain Text

  371. Duration : 1 h 36 min

  372. Bit rate : 53 b/s

  373. Frame rate : 0.238 FPS

  374. Count of elements : 1379

  375. Stream size : 37.8 KiB (0%)

  376. Language : Slovenian

  377. Default : No

  378. Forced : No


  379. Text #26

  380. ID : 28

  381. Format : UTF-8

  382. Codec ID : S_TEXT/UTF8

  383. Codec ID/Info : UTF-8 Plain Text

  384. Duration : 1 h 36 min

  385. Bit rate : 61 b/s

  386. Frame rate : 0.239 FPS

  387. Count of elements : 1382

  388. Stream size : 43.2 KiB (0%)

  389. Title : Latin American

  390. Language : Spanish

  391. Default : No

  392. Forced : No


  393. Text #27

  394. ID : 29

  395. Format : UTF-8

  396. Codec ID : S_TEXT/UTF8

  397. Codec ID/Info : UTF-8 Plain Text

  398. Duration : 1 h 36 min

  399. Bit rate : 55 b/s

  400. Frame rate : 0.237 FPS

  401. Count of elements : 1376

  402. Stream size : 39.1 KiB (0%)

  403. Title : European

  404. Language : Spanish

  405. Default : No

  406. Forced : No


  407. Text #28

  408. ID : 30

  409. Format : UTF-8

  410. Codec ID : S_TEXT/UTF8

  411. Codec ID/Info : UTF-8 Plain Text

  412. Duration : 1 h 36 min

  413. Bit rate : 60 b/s

  414. Frame rate : 0.223 FPS

  415. Count of elements : 1293

  416. Stream size : 42.4 KiB (0%)

  417. Language : Swedish

  418. Default : No

  419. Forced : No


  420. Text #29

  421. ID : 31

  422. Format : UTF-8

  423. Codec ID : S_TEXT/UTF8

  424. Codec ID/Info : UTF-8 Plain Text

  425. Duration : 1 h 36 min

  426. Bit rate : 147 b/s

  427. Frame rate : 0.238 FPS

  428. Count of elements : 1380

  429. Stream size : 104 KiB (0%)

  430. Language : Thai

  431. Default : No

  432. Forced : No


  433. Text #30

  434. ID : 32

  435. Format : UTF-8

  436. Codec ID : S_TEXT/UTF8

  437. Codec ID/Info : UTF-8 Plain Text

  438. Duration : 1 h 36 min

  439. Bit rate : 56 b/s

  440. Frame rate : 0.236 FPS

  441. Count of elements : 1369

  442. Stream size : 39.9 KiB (0%)

  443. Language : Turkish

  444. Default : No

  445. Forced : No


  446. Text #31

  447. ID : 33

  448. Format : UTF-8

  449. Codec ID : S_TEXT/UTF8

  450. Codec ID/Info : UTF-8 Plain Text

  451. Duration : 1 h 36 min

  452. Bit rate : 90 b/s

  453. Frame rate : 0.238 FPS

  454. Count of elements : 1378

  455. Stream size : 64.0 KiB (0%)

  456. Language : Ukrainian

  457. Default : No

  458. Forced : No


  459. Text #32

  460. ID : 34

  461. Format : UTF-8

  462. Codec ID : S_TEXT/UTF8

  463. Codec ID/Info : UTF-8 Plain Text

  464. Duration : 1 h 36 min

  465. Bit rate : 70 b/s

  466. Frame rate : 0.237 FPS

  467. Count of elements : 1374

  468. Stream size : 49.8 KiB (0%)

  469. Language : Vietnamese

  470. Default : No

  471. Forced : No


  472. Text #33

  473. ID : 35

  474. Format : UTF-8

  475. Codec ID : S_TEXT/UTF8

  476. Codec ID/Info : UTF-8 Plain Text

  477. Duration : 1 h 36 min

  478. Bit rate : 55 b/s

  479. Frame rate : 0.238 FPS

  480. Count of elements : 1380

  481. Stream size : 39.5 KiB (0%)

  482. Title : Simplified

  483. Language : Chinese

  484. Default : No

  485. Forced : No


  486. Text #34

  487. ID : 36

  488. Format : UTF-8

  489. Codec ID : S_TEXT/UTF8

  490. Codec ID/Info : UTF-8 Plain Text

  491. Duration : 1 h 36 min

  492. Bit rate : 57 b/s

  493. Frame rate : 0.238 FPS

  494. Count of elements : 1380

  495. Stream size : 40.5 KiB (0%)

  496. Title : Traditional

  497. Language : Chinese

  498. Default : No

  499. Forced : No


  500. Text #35

  501. ID : 37

  502. Format : UTF-8

  503. Codec ID : S_TEXT/UTF8

  504. Codec ID/Info : UTF-8 Plain Text

  505. Duration : 1 h 36 min

  506. Bit rate : 53 b/s

  507. Frame rate : 0.238 FPS

  508. Count of elements : 1379

  509. Stream size : 38.1 KiB (0%)

  510. Title : Yue / Traditional

  511. Language : Chinese

  512. Default : No

  513. Forced : No

复制代码

心碎[中文字幕].Torn.Hearts.2022.1080p.AMZN.WEBRip.DDP5.1.x264 GNOME 5.83GB  欧美电影  第3张 心碎[中文字幕].Torn.Hearts.2022.1080p.AMZN.WEBRip.DDP5.1.x264 GNOME 5.83GB  欧美电影  第4张 心碎[中文字幕].Torn.Hearts.2022.1080p.AMZN.WEBRip.DDP5.1.x264 GNOME 5.83GB  欧美电影  第5张



文件下载


除非特别注明,本文『心碎[中文字幕].Torn.Hearts.2022.1080p.AMZN.WEBRip.DDP5.1.x264-GNOME 5.83GB』来源于互联网机器人自动抓取,非本站原创。 浮游电影网不对本文拥有版权,如有侵犯,请联系邮箱:fuyouu#yandex.com[#换成@]投诉。我们会在15个工作日内删除。 但烦请转载时请标明出处:“本文转载于『浮游电影网』,原文地址:https://www.fuyouu.com/22707.html

评论吧骚年!

发表你的见解   

昵称*

E-mail*(建议输入,以便收到博主回复的提示邮件)

验证码*

您可以使用eMule或eMule Mod(Windows)、aMule(Win、Linux、Mac)等软件下载eD2k链接。。
eMule收藏集(.emulecollection)文件是您选中的所有链接的列表文件。eMule可以直接下载它们。
按住SHIFT键选择可以选中多个选择框。
可用文件名和大小选择器来选择文件。
文件名选择器帮您根据文件名称或后缀来选择文件。不分大小写。
符号使用:
和:空格( )、+
不包含:-
或:|
转义:一对英文引号("");
匹配开头:^
匹配结尾:$
例如:
选中所有名称中包含有“eMule”或“0.49c”字眼,但不包含有“exe”字眼的:emule|0.49c -exe
选中所有名称的开头是“eMule”,结尾是“0.49c”的:^emule 0.49c$
选中所有名称中带有“eMule 0.49c”的(必须是“eMule 0.49c”,中间没有别的字符,不能是“eMule fake 0.49c”),需要转义:"emule 0.49c"
大小选择器帮您根据文件大小选择文件。