当前位置: 首页 >> 日韩电影 >> 魔女2[简繁英双语特效字幕].The.Witch.Part.2.The.Other.One.2022.V2.WEB-DL.1080p.H264.AAC5.1-CHD 7.91GB >> 正文

魔女2[简繁英双语特效字幕].The.Witch.Part.2.The.Other.One.2022.V2.WEB-DL.1080p.H264.AAC5.1-CHD 7.91GB

2022年07月26日 09:35:09     电影发布:来源于网络     电影分类:日韩电影     评论(0)    

魔女2[简繁英双语特效字幕].The.Witch.Part.2.The.Other.One.2022.V2.WEB-DL.1080p.H264.AAC5.1-CHD 7.91GB

◎标 题 魔女2

◎译 名 魔女二部曲:另一个她(台) / The Witch: Part 2 / The Witch: Part 2. The Other One

◎片 名 마녀 Part2. The Other One

◎年 代 2022

◎产 地 韩国

◎类 别 动作 / 悬疑

◎语 言 韩语

◎上映日期 2022-06-15(韩国)

◎IMDb评分 6.5/10 (295人评价)

◎IMDb链接 https://www.imdb.com/title/tt13721828/

◎豆瓣链接 https://movie.douban.com/subject/34832354/

◎片 长 137分钟

◎导 演 朴勋政 Hoon-jung Park

◎编 剧 朴勋政 Hoon-jung Park

◎演 员 申诗雅 Shin Si-ah

李钟硕 Jong-suk Lee

赵敏修 Min-su Jo

金多美 Da-mi Kim

朴恩斌 Eun-Bin Park

徐恩秀 Eun-su Seo

晋久 Goo Jin

成侑彬 Yoo-bin Sung

朴勋政 Hoon-jung Park

◎简 介

影片讲述了一名少女在某个巨型秘密实验室里醒来,她逃出实验室,偶然遇到努力从犯罪组织那里守护自己的家的庆熙。闯入庆熙家里的犯罪组织和少女冲突后,少女以压倒性的实力打败了他们。这期间,秘密实验室一直在追踪少女,这名神秘的少女到底是谁?

  1. ##### MediaInfo ######

  2. General

  3. Unique ID : 25928136584134389698195527440971005299 (0x138193D4BE46D9DE642C9B4324B2FD73)

  4. Complete name : 魔女2.The.Witch.Part.2.The.Other.One.2022.V2.WEB-DL.1080p.H264.AAC5.1-CHD.mkv

  5. Format : Matroska

  6. Format version : Version 4

  7. File size : 7.91 GiB

  8. Duration : 2 h 17 min

  9. Overall bit rate : 8 239 kb/s

  10. Encoded date : UTC 2022-07-18 11:12:54

  11. Writing application : mkvmerge v69.0.0 ('Day And Age') 64-bit

  12. Writing library : libebml v1.4.2 + libmatroska v1.6.4

  13. Video

  14. ID : 1

  15. Format : AVC

  16. Format/Info : Advanced Video Codec

  17. Format profile : [email protected]

  18. Format settings : CABAC / 2 Ref Frames

  19. Format settings, CABAC : Yes

  20. Format settings, Reference frames : 2 frames

  21. Format settings, GOP : M=1, N=30

  22. Codec ID : V_MPEG4/ISO/AVC

  23. Duration : 2 h 17 min

  24. Bit rate mode : Constant

  25. Bit rate : 8 000 kb/s

  26. Width : 1 920 pixels

  27. Height : 1 080 pixels

  28. Display aspect ratio : 16:9

  29. Frame rate mode : Constant

  30. Frame rate : 23.976 (24000/1001/53354) FPS

  31. Color space : YUV

  32. Chroma subsampling : 4:2:0

  33. Bit depth : 8 bits

  34. Scan type : Progressive

  35. Bits/(Pixel*Frame) : 0.161

  36. Stream size : 7.68 GiB (97%)

  37. Language : Korean

  38. Default : Yes

  39. Forced : No

  40. Audio

  41. ID : 2

  42. Format : AAC LC SBR

  43. Format/Info : Advanced Audio Codec Low Complexity with Spectral Band Replication

  44. Commercial name : HE-AAC

  45. Format settings : Implicit

  46. Codec ID : A_AAC-2

  47. Duration : 2 h 17 min

  48. Bit rate : 192 kb/s

  49. Channel(s) : 6 channels

  50. Channel layout : C L R Ls Rs LFE

  51. Sampling rate : 48.0 kHz

  52. Frame rate : 23.438 FPS (2048 SPF)

  53. Compression mode : Lossy

  54. Stream size : 189 MiB (2%)

  55. Language : Korean

  56. Default : Yes

  57. Forced : No

  58. Text #1

  59. ID : 3

  60. Format : PGS

  61. Muxing mode : zlib

  62. Codec ID : S_HDMV/PGS

  63. Codec ID/Info : Picture based subtitle format used on BDs/HD-DVDs

  64. Duration : 2 h 17 min

  65. Bit rate : 18.9 kb/s

  66. Count of elements : 2845

  67. Stream size : 18.6 MiB (0%)

  68. Title : 中英特效[email protected]

  69. Language : Chinese

  70. Default : Yes

  71. Forced : No

  72. Text #2

  73. ID : 4

  74. Format : PGS

  75. Muxing mode : zlib

  76. Codec ID : S_HDMV/PGS

  77. Codec ID/Info : Picture based subtitle format used on BDs/HD-DVDs

  78. Duration : 2 h 17 min

  79. Bit rate : 19.1 kb/s

  80. Count of elements : 2845

  81. Stream size : 18.8 MiB (0%)

  82. Title : 繁英特效[email protected]仅为学习,严禁转载

  83. Language : Chinese

  84. Default : No

  85. Forced : No

  86. Text #3

  87. ID : 5

  88. Format : PGS

  89. Muxing mode : zlib

  90. Codec ID : S_HDMV/PGS

  91. Codec ID/Info : Picture based subtitle format used on BDs/HD-DVDs

  92. Duration : 2 h 17 min

  93. Bit rate : 19.2 kb/s

  94. Count of elements : 2844

  95. Stream size : 18.9 MiB (0%)

  96. Title : 简中特效[email protected]违者举报,提供线索

  97. Language : Chinese

  98. Default : No

  99. Forced : No

  100. Text #4

  101. ID : 6

  102. Format : PGS

  103. Muxing mode : zlib

  104. Codec ID : S_HDMV/PGS

  105. Codec ID/Info : Picture based subtitle format used on BDs/HD-DVDs

  106. Duration : 2 h 17 min

  107. Bit rate : 19.6 kb/s

  108. Count of elements : 2844

  109. Stream size : 19.3 MiB (0%)

  110. Title : 繁中特效[email protected]奖励黄星,不胜感激

  111. Language : Chinese

  112. Default : No

  113. Forced : No


复制代码



文件下载


除非特别注明,本文『魔女2[简繁英双语特效字幕].The.Witch.Part.2.The.Other.One.2022.V2.WEB-DL.1080p.H264.AAC5.1-CHD 7.91GB』来源于互联网机器人自动抓取,非本站原创。 浮游电影网不对本文拥有版权,如有侵犯,请联系邮箱:fuyouu#yandex.com[#换成@]投诉。我们会在15个工作日内删除。 但烦请转载时请标明出处:“本文转载于『浮游电影网』,原文地址:https://www.fuyouu.com/22706.html

评论吧骚年!

发表你的见解   

昵称*

E-mail*(建议输入,以便收到博主回复的提示邮件)

验证码*

您可以使用eMule或eMule Mod(Windows)、aMule(Win、Linux、Mac)等软件下载eD2k链接。。
eMule收藏集(.emulecollection)文件是您选中的所有链接的列表文件。eMule可以直接下载它们。
按住SHIFT键选择可以选中多个选择框。
可用文件名和大小选择器来选择文件。
文件名选择器帮您根据文件名称或后缀来选择文件。不分大小写。
符号使用:
和:空格( )、+
不包含:-
或:|
转义:一对英文引号("");
匹配开头:^
匹配结尾:$
例如:
选中所有名称中包含有“eMule”或“0.49c”字眼,但不包含有“exe”字眼的:emule|0.49c -exe
选中所有名称的开头是“eMule”,结尾是“0.49c”的:^emule 0.49c$
选中所有名称中带有“eMule 0.49c”的(必须是“eMule 0.49c”,中间没有别的字符,不能是“eMule fake 0.49c”),需要转义:"emule 0.49c"
大小选择器帮您根据文件大小选择文件。