当前位置: 首页 >> 港台电影 >> 大卫爱登堡野外探索60年[共3部合集][简繁英字幕].BBC.Attenborough.60.Years.in.the.Wild.2012.EP01-EP03.BluRay.1080p.DTS-HD. >> 正文

大卫爱登堡野外探索60年[共3部合集][简繁英字幕].BBC.Attenborough.60.Years.in.the.Wild.2012.EP01-EP03.BluRay.1080p.DTS-HD.

2022年07月26日 09:33:50     电影发布:来源于网络     电影分类:港台电影     评论(0)    

大卫爱登堡野外探索60年[共3部合集][简繁英字幕].BBC.Attenborough.60.Years.in.the.Wild.2012.EP01-EP03.BluRay.1080p.DTS-HD.MA.2.0.x265.10bit-ALT 19.97GB

◎标 题 大卫爱登堡野外探索60年

◎译 名 BBC生態60年 / 大卫·爱登堡——野外探索60年

◎片 名 Attenborough: 60 Years in the Wild

◎年 代 2012

◎产 地 英国

◎类 别 纪录片

◎语 言 英语

◎上映日期 2012-11-16

◎IMDb评分 8.4/10 (563人评价)

◎IMDb链接 https://www.imdb.com/title/tt3040442/

◎豆瓣评分 9.6/10 (735人评价)

◎豆瓣链接 https://movie.douban.com/subject/20388455/

◎片 长 60min

◎导 演 艾雷斯泰·法瑟吉尔 Alastair Fothergill

◎演 员 大卫·爱登堡 David Attenborough

◎简 介

为纪念大卫.爱登堡爵士(Sir David Attenborough)从事野外生物考察和献身生态电视片创作60周年,BBC公司推出《大卫爱登堡野外探索60年》系列。

作为一位世界知名的自然史学、生物学家和生态纪录片制作人,大卫.爱登堡创作了一系列具有热烈反响的电视片。特别是2001年那部纵览海洋世界的《蓝色星球》,更是在世界各地广受欢迎。在进行拍摄的50年间,大卫.爱登堡和他的同事们以勇敢的冒险精神,和对科学探索孜孜不倦的热情,深入全球每个角落,为获取最广泛,详尽的资料,拍摄了许多令人惊叹的珍贵镜头。这些花费大量时间,资金和精力制作的纪录片,内容涉及科学,历史,文化和环保各个领域,以揭示物种起源,探索生物进化,研究人与环境的协调发展为目的,具有严肃的科学,教育意义。同时,利用令人难以相信的拍摄技巧和唯美的艺术手段所创作出的精彩画面,又不失大众观赏的娱...

  1. 合集文件列表:

  2. 1.BBC.Attenborough.60.Years.in.the.Wild.2012.EP01.BluRay.1080p.DTS-HD.MA.2.0.x265.10bit-ALT.mkv 6.25GB

  3. 2.BBC.Attenborough.60.Years.in.the.Wild.2012.EP02.BluRay.1080p.DTS-HD.MA.2.0.x265.10bit-ALT.mkv 7.01GB

  4. 3.BBC.Attenborough.60.Years.in.the.Wild.2012.EP03.BluRay.1080p.DTS-HD.MA.2.0.x265.10bit-ALT.mkv 6.71GB


复制代码

  1. ##### MediaInfo ######

  2. General

  3. Unique ID : 281041003405589790997833635110770166108 (0xD36E87459CB14CD99C17CAFE88F3C95C)

  4. Complete name : BBC.Attenborough.60.Years.in.the.Wild.2012.EP01.BluRay.1080p.DTS-HD.MA.2.0.x265.10bit-ALT.mkv

  5. Format : Matroska

  6. Format version : Version 4

  7. File size : 6.25 GiB

  8. Duration : 58 min 28 s

  9. Overall bit rate mode : Variable

  10. Overall bit rate : 15.3 Mb/s

  11. Encoded date : UTC 2020-10-05 08:22:13

  12. Writing application : mkvmerge v49.0.0 ('Sick Of Losing Soulmates') 64-bit

  13. Writing library : libebml v1.4.0 + libmatroska v1.6.1

  14. Video

  15. ID : 1

  16. Format : HEVC

  17. Format/Info : High Efficiency Video Coding

  18. Format profile : Main [email protected]@High

  19. Codec ID : V_MPEGH/ISO/HEVC

  20. Duration : 58 min 28 s

  21. Bit rate : 13.4 Mb/s

  22. Width : 1 920 pixels

  23. Height : 1 080 pixels

  24. Display aspect ratio : 16:9

  25. Frame rate mode : Constant

  26. Frame rate : 25.000 FPS

  27. Color space : YUV

  28. Chroma subsampling : 4:2:0

  29. Bit depth : 10 bits

  30. Bits/(Pixel*Frame) : 0.259

  31. Stream size : 5.48 GiB (88%)

  32. Title : HEVC, [email protected]@High, 25 fps @ 13405 kbps

  33. Writing library : x265 3.3+1-g396395b2b:[Windows][GCC 9.2.0][64 bit] 10bit

  34. Encoding settings : cpuid=533541111039 / frame-threads=3 / numa-pools=8 / wpp / pmode / pme / no-psnr / no-ssim / log-level=2 / input-csp=1 / input-res=1920x1080 / interlace=0 / total-frames=87714 / level-idc=51 / high-tier=1 / uhd-bd=0 / ref=5 / no-allow-non-conformance / no-repeat-headers / annexb / no-aud / no-hrd / info / hash=0 / no-temporal-layers / open-gop / min-keyint=24 / keyint=240 / gop-lookahead=0 / bframes=6 / b-adapt=2 / b-pyramid / bframe-bias=0 / rc-lookahead=40 / lookahead-slices=0 / NTMzNTQ=uuDQuD2mJt9fsCf / scenecut=40 / hist-scenecut=0 / radl=0 / no-splice / no-intra-refresh / ctu=32 / min-cu-size=8 / no-rect / no-amp / max-tu-size=32 / tu-inter-depth=3 / tu-intra-depth=3 / limit-tu=4 / rdoq-level=2 / dynamic-rd=0.00 / no-ssim-rd / signhide / no-tskip / nr-intra=0 / nr-inter=0 / no-constrained-intra / no-strong-intra-smoothing / max-merge=4 / limit-refs=1 / limit-modes / me=3 / subme=4 / merange=25 / temporal-mvp / no-frame-dup / no-hme / weightp / weightb / no-analyze-src-pics / deblock=-3:-3 / no-sao / no-sao-non-deblock / rd=6 / selective-sao=0 / no-early-skip / rskip / no-fast-intra / no-tskip-fast / no-cu-lossless / b-intra / no-splitrd-skip / rdpenalty=0 / psy-rd=2.00 / psy-rdoq=1.00 / no-rd-refine / no-lossless / cbqpoffs=0 / crqpoffs=0 / rc=crf / crf=18.5 / qcomp=0.65 / qpstep=4 / stats-write=0 / stats-read=0 / vbv-maxrate=80000 / vbv-bufsize=80000 / vbv-init=0.9 / crf-max=0.0 / crf-min=0.0 / ipratio=1.40 / pbratio=1.30 / aq-mode=2 / aq-strength=0.85 / cutree / zone-count=0 / no-strict-cbr / qg-size=32 / no-rc-grain / qpmax=69 / qpmin=0 / no-const-vbv / sar=1 / overscan=0 / videoformat=5 / range=0 / colorprim=1 / transfer=1 / colormatrix=1 / chromaloc=0 / display-window=0 / cll=0,0 / min-luma=0 / max-luma=1023 / log2-max-poc-lsb=8 / vui-timing-info / vui-hrd-info / slices=1 / no-opt-qp-pps / no-opt-ref-list-length-pps / no-multi-pass-opt-rps / scenecut-bias=0.05 / hist-threshold=0.01 / no-opt-cu-delta-qp / no-aq-motion / no-hdr10 / no-hdr10-opt / no-dhdr10-opt / no-idr-recovery-sei / analysis-reuse-level=0 / analysis-save-reuse-level=0 / analysis-load-reuse-level=0 / scale-factor=0 / refine-intra=0 / refine-inter=0 / refine-mv=1 / refine-ctu-distortion=0 / no-limit-sao / ctu-info=0 / no-lowpass-dct / refine-analysis-type=0 / copy-pic=1 / max-ausize-factor=1.0 / no-dynamic-refine / no-single-sei / no-hevc-aq / no-svt / no-field / qp-adaptation-range=1.00 / no-scenecut-aware-qpconformance-window-offsets / right=0 / bottom=0 / NTMzNTQ=

  35. Language : English

  36. Default : Yes

  37. Forced : No

  38. Color range : Limited

  39. Color primaries : BT.709

  40. Transfer characteristics : BT.709

  41. Matrix coefficients : BT.709

  42. Audio

  43. ID : 2

  44. Format : DTS XLL

  45. Format/Info : Digital Theater Systems

  46. Commercial name : DTS-HD Master Audio

  47. Codec ID : A_DTS

  48. Duration : 58 min 28 s

  49. Bit rate mode : Variable

  50. Bit rate : 1 748 kb/s

  51. Channel(s) : 2 channels

  52. Channel layout : L R

  53. Sampling rate : 48.0 kHz

  54. Frame rate : 93.750 FPS (512 SPF)

  55. Bit depth : 16 bits

  56. Compression mode : Lossless

  57. Stream size : 731 MiB (11%)

  58. Title : English DTS-HD Master Audio 2.0 @ 1748 kbps

  59. Language : English

  60. Default : Yes

  61. Forced : No

  62. Text #1

  63. ID : 3

  64. Format : PGS

  65. Codec ID : S_HDMV/PGS

  66. Codec ID/Info : Picture based subtitle format used on BDs/HD-DVDs

  67. Duration : 57 min 23 s

  68. Bit rate : 55.7 kb/s

  69. Count of elements : 1566

  70. Stream size : 22.8 MiB (0%)

  71. Title : Eng/SUP

  72. Language : English

  73. Default : No

  74. Forced : No

  75. Text #2

  76. ID : 4

  77. Format : PGS

  78. Codec ID : S_HDMV/PGS

  79. Codec ID/Info : Picture based subtitle format used on BDs/HD-DVDs

  80. Duration : 57 min 29 s

  81. Bit rate : 40.9 kb/s

  82. Count of elements : 1426

  83. Stream size : 16.8 MiB (0%)

  84. Title : Chs/SUP 简体

  85. Language : Chinese

  86. Default : Yes

  87. Forced : No

  88. Text #3

  89. ID : 5

  90. Format : PGS

  91. Codec ID : S_HDMV/PGS

  92. Codec ID/Info : Picture based subtitle format used on BDs/HD-DVDs

  93. Duration : 57 min 29 s

  94. Bit rate : 43.0 kb/s

  95. Count of elements : 1424

  96. Stream size : 17.7 MiB (0%)

  97. Title : Cht/SUP 繁体

  98. Language : Chinese

  99. Default : No

  100. Forced : No

  101. Menu

  102. 00:00:00.000 : :第 01 章

  103. 00:09:19.560 : :第 02 章

  104. 00:21:13.200 : :第 03 章

  105. 00:35:11.520 : :第 04 章

  106. 00:45:46.320 : :第 05 章

  107. 00:58:28.320 : :第 06 章


复制代码



文件下载


除非特别注明,本文『大卫爱登堡野外探索60年[共3部合集][简繁英字幕].BBC.Attenborough.60.Years.in.the.Wild.2012.EP01-EP03.BluRay.1080p.DTS-HD.』来源于互联网机器人自动抓取,非本站原创。 浮游电影网不对本文拥有版权,如有侵犯,请联系邮箱:fuyouu#yandex.com[#换成@]投诉。我们会在15个工作日内删除。 但烦请转载时请标明出处:“本文转载于『浮游电影网』,原文地址:https://www.fuyouu.com/22705.html

评论吧骚年!

发表你的见解   

昵称*

E-mail*(建议输入,以便收到博主回复的提示邮件)

验证码*

您可以使用eMule或eMule Mod(Windows)、aMule(Win、Linux、Mac)等软件下载eD2k链接。。
eMule收藏集(.emulecollection)文件是您选中的所有链接的列表文件。eMule可以直接下载它们。
按住SHIFT键选择可以选中多个选择框。
可用文件名和大小选择器来选择文件。
文件名选择器帮您根据文件名称或后缀来选择文件。不分大小写。
符号使用:
和:空格( )、+
不包含:-
或:|
转义:一对英文引号("");
匹配开头:^
匹配结尾:$
例如:
选中所有名称中包含有“eMule”或“0.49c”字眼,但不包含有“exe”字眼的:emule|0.49c -exe
选中所有名称的开头是“eMule”,结尾是“0.49c”的:^emule 0.49c$
选中所有名称中带有“eMule 0.49c”的(必须是“eMule 0.49c”,中间没有别的字符,不能是“eMule fake 0.49c”),需要转义:"emule 0.49c"
大小选择器帮您根据文件大小选择文件。