当前位置: 首页 >> 日韩电影 >> 掮客[简繁特效字幕].Broker.2022.WEB-DL.1080p.H264.AAC2.0-CHD 7.56GB >> 正文

掮客[简繁特效字幕].Broker.2022.WEB-DL.1080p.H264.AAC2.0-CHD 7.56GB

2022年07月25日 10:36:49     电影发布:来源于网络     电影分类:日韩电影     评论(0)    

◎标 题 掮客

◎译 名 代理人 / 孩子转运站(港) / 婴儿转运站(台) / 经手人 / 经纪人 / 中间人 / 中介人 / 摇篮 / 요람 / ベイビー・ブローカー / ブローカー / Baby Broker / Baby / Box / Broker / Broker

◎片 名 브로커

◎年 代 2022

◎产 地 韩国

◎类 别 剧情

◎语 言 韩语

◎上映日期 2022-05-26(戛纳电影节) / 2022-06-08(韩国)

◎IMDb链接 https://www.imdb.com/title/tt13056052/

◎豆瓣链接 https://movie.douban.com/subject/35192111/

◎片 长 126分钟

◎导 演 是枝裕和 Hirokazu Koreeda

◎编 剧 是枝裕和 Hirokazu Koreeda

◎演 员 宋康昊 Kang-ho Song

姜栋元 Dong-won Kang

裴斗娜 Doona Bae

李知恩 IU

李珠英 Joo-young Lee

白贤镇 Hyeon-jin Baek

金艺恩 Ye-eun Kim

宋清晨 Sae-byeok Song

李美敬 Miky Lee

郑在日 Jae-il Jung

洪坰杓 Kyung-Pyo Hong

是枝裕和 Hirokazu Koreeda

◎简 介

尚贤(宋康昊 饰)经营洗衣店,可惜生意淡静更负债累累。好兄弟东洙(姜栋元 饰)本身是孤儿,为“婴儿暂存箱”机构工作。在一个雨夜,他们竟秘密带走其中一个箱里的男婴。翌日,年轻的母亲素英(李知恩 饰)却找上门要求领回自己的孩子雨盛!本想报警揭发,但素英最终竟同意让两个“中间人”为儿子寻觅更好的父母,并决定跟随两人同行。另一边厢,刑警秀珍(裴斗娜 饰)联同后辈李刑警(李珠英 饰)原来一直跟踪着他们,暗中收集证据,决心拉人定案!剧情由暂存箱里的婴儿引发,牵连周遭5个关键人物,展开一段意想不到的独特旅程,触动最微妙的世故人情。

  1. ##### MediaInfo ######

  2. General

  3. Unique ID : 106976924494175995199188351952399892836 (0x507B0197E8637D6E2E64CF0975280164)

  4. Complete name : 掮客.Broker.2022.WEB-DL.1080p.H264.AAC2.0-CHD.mkv

  5. Format : Matroska

  6. Format version : Version 4

  7. File size : 7.56 GiB

  8. Duration : 2 h 9 min

  9. Overall bit rate : 8 373 kb/s

  10. Encoded date : UTC 2022-07-19 14:45:44

  11. Writing application : mkvmerge v69.0.0 ('Day And Age') 64-bit

  12. Writing library : libebml v1.4.2 + libmatroska v1.6.4

  13. Video

  14. ID : 1

  15. Format : AVC

  16. Format/Info : Advanced Video Codec

  17. Format profile : [email protected]

  18. Format settings : CABAC / 2 Ref Frames

  19. Format settings, CABAC : Yes

  20. Format settings, Reference frames : 2 frames

  21. Format settings, GOP : M=1, N=30

  22. Codec ID : V_MPEG4/ISO/AVC

  23. Duration : 2 h 9 min

  24. Bit rate mode : Constant

  25. Bit rate : 8 000 kb/s

  26. Width : 1 920 pixels

  27. Height : 1 080 pixels

  28. Display aspect ratio : 16:9

  29. Frame rate mode : Constant

  30. Frame rate : 23.976 (24000/1001/53354) FPS

  31. Color space : YUV

  32. Chroma subsampling : 4:2:0

  33. Bit depth : 8 bits

  34. Scan type : Progressive

  35. Bits/(Pixel*Frame) : 0.161

  36. Stream size : 7.22 GiB (96%)

  37. Default : Yes

  38. Forced : No

  39. Audio

  40. ID : 2

  41. Format : AAC LC

  42. Format/Info : Advanced Audio Codec Low Complexity

  43. Codec ID : A_AAC-2

  44. Duration : 2 h 9 min

  45. Bit rate : 320 kb/s

  46. Channel(s) : 2 channels

  47. Channel layout : L R

  48. Sampling rate : 48.0 kHz

  49. Frame rate : 46.875 FPS (1024 SPF)

  50. Compression mode : Lossy

  51. Delay relative to video : 500 ms

  52. Stream size : 296 MiB (4%)

  53. Language : Korean

  54. Default : Yes

  55. Forced : No

  56. Text #1

  57. ID : 3

  58. Format : PGS

  59. Muxing mode : zlib

  60. Codec ID : S_HDMV/PGS

  61. Codec ID/Info : Picture based subtitle format used on BDs/HD-DVDs

  62. Duration : 2 h 2 min

  63. Bit rate : 31.2 kb/s

  64. Count of elements : 3279

  65. Stream size : 27.3 MiB (0%)

  66. Title : 中韩特效[email protected]天空 HDSky.me

  67. Language : Chinese

  68. Default : Yes

  69. Forced : Yes

  70. Text #2

  71. ID : 4

  72. Format : PGS

  73. Muxing mode : zlib

  74. Codec ID : S_HDMV/PGS

  75. Codec ID/Info : Picture based subtitle format used on BDs/HD-DVDs

  76. Duration : 2 h 2 min

  77. Bit rate : 31.5 kb/s

  78. Count of elements : 3279

  79. Stream size : 27.6 MiB (0%)

  80. Title : 繁韩特效[email protected]宽带测试,用毕立删

  81. Language : Chinese

  82. Default : No

  83. Forced : No

  84. Text #3

  85. ID : 5

  86. Format : PGS

  87. Muxing mode : zlib

  88. Codec ID : S_HDMV/PGS

  89. Codec ID/Info : Picture based subtitle format used on BDs/HD-DVDs

  90. Duration : 2 h 2 min

  91. Bit rate : 20.4 kb/s

  92. Count of elements : 3279

  93. Stream size : 17.9 MiB (0%)

  94. Title : 简中特效[email protected]违规转载,举报有奖

  95. Language : Chinese

  96. Default : No

  97. Forced : No

  98. Text #4

  99. ID : 6

  100. Format : PGS

  101. Muxing mode : zlib

  102. Codec ID : S_HDMV/PGS

  103. Codec ID/Info : Picture based subtitle format used on BDs/HD-DVDs

  104. Duration : 2 h 2 min

  105. Bit rate : 20.8 kb/s

  106. Count of elements : 3279

  107. Stream size : 18.2 MiB (0%)

  108. Title : 繁中特效[email protected]感谢弯弯字幕组

  109. Language : Chinese

  110. Default : No

  111. Forced : No

  112. Text #5

  113. ID : 7

  114. Format : UTF-8

  115. Codec ID : S_TEXT/UTF8

  116. Codec ID/Info : UTF-8 Plain Text

  117. Duration : 2 h 0 min

  118. Bit rate : 59 b/s

  119. Count of elements : 1615

  120. Stream size : 52.4 KiB (0%)

  121. Language : Korean

  122. Default : No

  123. Forced : No


复制代码




文件下载


除非特别注明,本文『掮客[简繁特效字幕].Broker.2022.WEB-DL.1080p.H264.AAC2.0-CHD 7.56GB』来源于互联网机器人自动抓取,非本站原创。 浮游电影网不对本文拥有版权,如有侵犯,请联系邮箱:fuyouu#yandex.com[#换成@]投诉。我们会在15个工作日内删除。 但烦请转载时请标明出处:“本文转载于『浮游电影网』,原文地址:https://www.fuyouu.com/22702.html

评论吧骚年!

发表你的见解   

昵称*

E-mail*(建议输入,以便收到博主回复的提示邮件)

验证码*

您可以使用eMule或eMule Mod(Windows)、aMule(Win、Linux、Mac)等软件下载eD2k链接。。
eMule收藏集(.emulecollection)文件是您选中的所有链接的列表文件。eMule可以直接下载它们。
按住SHIFT键选择可以选中多个选择框。
可用文件名和大小选择器来选择文件。
文件名选择器帮您根据文件名称或后缀来选择文件。不分大小写。
符号使用:
和:空格( )、+
不包含:-
或:|
转义:一对英文引号("");
匹配开头:^
匹配结尾:$
例如:
选中所有名称中包含有“eMule”或“0.49c”字眼,但不包含有“exe”字眼的:emule|0.49c -exe
选中所有名称的开头是“eMule”,结尾是“0.49c”的:^emule 0.49c$
选中所有名称中带有“eMule 0.49c”的(必须是“eMule 0.49c”,中间没有别的字符,不能是“eMule fake 0.49c”),需要转义:"emule 0.49c"
大小选择器帮您根据文件大小选择文件。