当前位置: 首页 >> 动画电影 >> 最终幻想7:圣子降临[简繁英字幕].Final.Fantasy.VII.Advent.Children.2005.UHD.BluRay.2160p.TrueHD.Atmos.7.1.x265.10bi >> 正文

最终幻想7:圣子降临[简繁英字幕].Final.Fantasy.VII.Advent.Children.2005.UHD.BluRay.2160p.TrueHD.Atmos.7.1.x265.10bi

2022年07月22日 22:08:58     电影发布:来源于网络     电影分类:动画电影     评论(0)    

最终幻想7:圣子降临[简繁英字幕].Final.Fantasy.VII.Advent.Children.2005.UHD.BluRay.2160p.TrueHD.Atmos.7.1.x265.10bit.HDR-ALT 17.16GB

◎标 题 最终幻想7:圣子降临

◎译 名 最终幻想7:归来之子 / 最终幻想7:降临之子 / 最终幻想7:圣童降临 / Final Fantasy VII: Advent Children / FFVII ACC

◎片 名 ファイナルファンタジーⅦ アドベントチルドレン

◎年 代 2005

◎产 地 日本

◎类 别 动作 / 科幻 / 动画 / 惊悚

◎语 言 日语 / 英语

◎上映日期 2005-09-14(日本)

◎IMDb评分 7.2/10 (55953人评价)

◎IMDb链接 https://www.imdb.com/title/tt0385700/

◎豆瓣链接 https://movie.douban.com/subject/1422063/

◎片 长 101 分钟 / 126 分钟(导演剪辑版)

◎标 签 ANIME / 最终幻想 / 动画 / 日本 / CG / 科幻 / 日本动画 / 动漫

◎简 介

赛菲罗斯的事件已经过去2年了,人类从巨大陨石的灾难之下逃脱。曾经繁荣的都市虽然满目疮痍,但人们已经开始投入重建家园的工作之中。而拯救世界的英雄克劳德,却过着与世隔绝的生活。

但是,神秘的疾病“星痕症候群”在世界蔓延。蒂法•洛克哈特决定找寻克劳德。但当她找到克劳德之时,眼前这个人,只是一个为艾利斯之死郁郁寡欢的落魄男子。

以继承赛菲罗斯的遗志而组成的白发三人组出现在人们眼前,文森特不得不再次挥动双枪,保护大家。而世界的英雄,克劳德,能否再次振作,守护这个世界呢?

  1. ##### MediaInfo ######

  2. General

  3. Unique ID : 330890728049774717554320564134820874242 (0xF8EF3C742329F28228F83301CA428802)

  4. Complete name : Final.Fantasy.VII.Advent.Children.2005.UHD.BluRay.2160p.TrueHD.Atmos.7.1.x265.10bit.HDR-ALT.mkv

  5. Format : Matroska

  6. Format version : Version 4

  7. File size : 17.2 GiB

  8. Duration : 2 h 6 min

  9. Overall bit rate mode : Variable

  10. Overall bit rate : 19.4 Mb/s

  11. Encoded date : UTC 2021-07-24 03:03:49

  12. Writing application : mkvmerge v49.0.0 ('Sick Of Losing Soulmates') 64-bit

  13. Writing library : libebml v1.4.0 + libmatroska v1.6.1

  14. Video

  15. ID : 1

  16. Format : HEVC

  17. Format/Info : High Efficiency Video Coding

  18. Format profile : Main [email protected]@High

  19. HDR format : SMPTE ST 2086, HDR10 compatible

  20. Codec ID : V_MPEGH/ISO/HEVC

  21. Duration : 2 h 6 min

  22. Bit rate : 13.3 Mb/s

  23. Width : 3 840 pixels

  24. Height : 2 160 pixels

  25. Display aspect ratio : 16:9

  26. Frame rate mode : Constant

  27. Frame rate : 23.976 (24000/1001/53354) FPS

  28. Color space : YUV

  29. Chroma subsampling : 4:2:0 (Type 2)

  30. Bit depth : 10 bits

  31. Bits/(Pixel*Frame) : 0.067

  32. Stream size : 11.8 GiB (69%)

  33. Title : HEVC, [email protected]@High, 24/1.001 fps @ 15749 kbps

  34. Writing library : x265 3.4+14-gd419c7152:[Windows][GCC 10.2.0][64 bit] 10bit

  35. Encoding settings : cpuid=533541111039 / frame-threads=4 / numa-pools=20 / wpp / pmode / pme / no-psnr / no-ssim / log-level=2 / input-csp=1 / input-res=3840x2160 / interlace=0 / total-frames=182064 / level-idc=51 / high-tier=1 / uhd-bd=0 / ref=4 / no-allow-non-conformance / repeat-headers / annexb / no-aud / hrd / info / hash=0 / no-temporal-layers / no-open-gop / min-keyint=24 / keyint=240 / gop-lookahead=0 / bframes=8 / b-adapt=2 / b-pyramid / bframe-bias=0 / rc-lookahead=25 / lookahead-slices=0 / NTMzNTQ=uuDQuD2mJt9fsCf / scenecut=40 / hist-scenecut=0 / radl=0 / no-splice / no-intra-refresh / ctu=64 / min-cu-size=8 / no-rect / no-amp / max-tu-size=32 / tu-inter-depth=3 / tu-intra-depth=3 / limit-tu=4 / rdoq-level=2 / dynamic-rd=0.00 / no-ssim-rd / signhide / no-tskip / nr-intra=0 / nr-inter=0 / no-constrained-intra / no-strong-intra-smoothing / max-merge=4 / limit-refs=1 / limit-modes / me=3 / subme=4 / merange=25 / temporal-mvp / no-frame-dup / no-hme / weightp / weightb / no-analyze-src-pics / deblock=-3:-3 / no-sao / no-sao-non-deblock / rd=6 / selective-sao=0 / no-early-skip / rskip / no-fast-intra / no-tskip-fast / no-cu-lossless / b-intra / no-splitrd-skip / rdpenalty=0 / psy-rd=2.00 / psy-rdoq=1.00 / no-rd-refine / no-lossless / cbqpoffs=0 / crqpoffs=0 / rc=crf / crf=17.0 / qcomp=0.65 / qpstep=4 / stats-write=0 / stats-read=0 / vbv-maxrate=160000 / vbv-bufsize=160000 / vbv-init=0.9 / crf-max=0.0 / crf-min=0.0 / ipratio=1.30 / pbratio=1.20 / aq-mode=3 / aq-strength=0.85 / cutree / zone-count=0 / no-strict-cbr / qg-size=32 / no-rc-grain / qpmax=69 / qpmin=0 / no-const-vbv / sar=1 / overscan=0 / videoformat=5 / range=0 / colorprim=9 / transfer=16 / colormatrix=9 / chromaloc=1 / chromaloc-top=2 / chromaloc-bottom=2 / display-window=0 / master-display=G(13250,34500)B(7500,3000)R(34000,16000)WP(15635,16450)L(40000000,50) / cll=889,492 / min-luma=0 / max-luma=1023 / log2-max-poc-lsb=8 / vui-timing-info / vui-hrd-info / slices=1 / no-opt-qp-pps / no-opt-ref-list-length-pps / no-multi-pass-opt-rps / scenecut-bias=0.05 / hist-threshold=0.03 / no-opt-cu-delta-qp / no-aq-motion / hdr10 / hdr10-opt / no-dhdr10-opt / no-idr-recovery-sei / analysis-reuse-level=0 / analysis-save-reuse-level=0 / analysis-load-reuse-level=0 / scale-factor=0 / refine-intra=0 / refine-inter=0 / refine-mv=1 / refine-ctu-distortion=0 / no-limit-sao / ctu-info=0 / no-lowpass-dct / refine-analysis-type=0 / copy-pic=1 / max-ausize-factor=1.0 / no-dynamic-refine / no-single-sei / no-hevc-aq / no-svt / no-field / qp-adaptation-range=1.00 / no-scenecut-aware-qpconformance-window-offsets / right=0 / bottom=0 / NTMzNTQ= / decoder-max-rate=0

  36. Language : English

  37. Default : Yes

  38. Forced : No

  39. Color range : Limited

  40. Color primaries : BT.2020

  41. Transfer characteristics : PQ

  42. Matrix coefficients : BT.2020 non-constant

  43. Mastering display color primaries : Display P3

  44. Mastering display luminance : min: 0.0050 cd/m2, max: 4000 cd/m2

  45. Maximum Content Light Level : 889 cd/m2

  46. Maximum Frame-Average Light Level : 492 cd/m2

  47. Audio #1

  48. ID : 2

  49. Format : MLP FBA 16-ch

  50. Format/Info : Meridian Lossless Packing FBA with 16-channel presentation

  51. Commercial name : Dolby TrueHD with Dolby Atmos

  52. Codec ID : A_TRUEHD

  53. Duration : 2 h 6 min

  54. Bit rate mode : Variable

  55. Bit rate : 5 294 kb/s

  56. Maximum bit rate : 8 253 kb/s

  57. Channel(s) : 8 channels

  58. Channel layout : L R C LFE Ls Rs Lb Rb

  59. Sampling rate : 48.0 kHz

  60. Frame rate : 1 200.000 FPS (40 SPF)

  61. Compression mode : Lossless

  62. Stream size : 4.68 GiB (27%)

  63. Title : Japanese Dolby TrueHD 7.1 (Atmos) @ 5294 kbps

  64. Language : Japanese

  65. Default : Yes

  66. Forced : No

  67. Number of dynamic objects : 11

  68. Bed channel count : 1 channel

  69. Bed channel configuration : LFE

  70. Audio #2

  71. ID : 3

  72. Format : AC-3

  73. Format/Info : Audio Coding 3

  74. Commercial name : Dolby Digital

  75. Codec ID : A_AC3

  76. Duration : 2 h 6 min

  77. Bit rate mode : Constant

  78. Bit rate : 640 kb/s

  79. Channel(s) : 6 channels

  80. Channel layout : L R C LFE Ls Rs

  81. Sampling rate : 48.0 kHz

  82. Frame rate : 31.250 FPS (1536 SPF)

  83. Compression mode : Lossy

  84. Stream size : 579 MiB (3%)

  85. Title : Japanese AC3 5.1-EX @ 640 kbps

  86. Language : Japanese

  87. Service kind : Complete Main

  88. Default : No

  89. Forced : No

  90. Text #1

  91. ID : 4

  92. Format : PGS

  93. Codec ID : S_HDMV/PGS

  94. Codec ID/Info : Picture based subtitle format used on BDs/HD-DVDs

  95. Duration : 2 h 6 min

  96. Bit rate : 17.7 kb/s

  97. Count of elements : 2044

  98. Stream size : 16.0 MiB (0%)

  99. Title : Eng/SUP SDH

  100. Language : English

  101. Default : No

  102. Forced : No

  103. Text #2

  104. ID : 5

  105. Format : PGS

  106. Codec ID : S_HDMV/PGS

  107. Codec ID/Info : Picture based subtitle format used on BDs/HD-DVDs

  108. Duration : 2 h 6 min

  109. Bit rate : 14.3 kb/s

  110. Count of elements : 1486

  111. Stream size : 12.9 MiB (0%)

  112. Title : Eng/SUP

  113. Language : English

  114. Default : No

  115. Forced : No

  116. Text #3

  117. ID : 6

  118. Format : PGS

  119. Codec ID : S_HDMV/PGS

  120. Codec ID/Info : Picture based subtitle format used on BDs/HD-DVDs

  121. Duration : 2 h 6 min

  122. Bit rate : 14.5 kb/s

  123. Count of elements : 1504

  124. Stream size : 13.1 MiB (0%)

  125. Title : Chs/SUP 原盘简体

  126. Language : Chinese

  127. Default : Yes

  128. Forced : No

  129. Text #4

  130. ID : 7

  131. Format : PGS

  132. Codec ID : S_HDMV/PGS

  133. Codec ID/Info : Picture based subtitle format used on BDs/HD-DVDs

  134. Duration : 2 h 6 min

  135. Bit rate : 14.2 kb/s

  136. Count of elements : 1502

  137. Stream size : 12.8 MiB (0%)

  138. Title : Cht/SUP 原盘繁体

  139. Language : Chinese

  140. Default : No

  141. Forced : No

  142. Menu

  143. 00:00:00.000 : en:第 01 章

  144. 00:11:37.572 : en:第 02 章

  145. 00:21:31.582 : en:第 03 章

  146. 00:34:00.872 : en:第 04 章

  147. 00:43:27.104 : en:第 05 章

  148. 00:53:38.048 : en:第 06 章

  149. 00:59:24.644 : en:第 07 章

  150. 01:08:53.004 : en:第 08 章

  151. 01:16:24.705 : en:第 09 章

  152. 01:19:41.735 : en:第 10 章

  153. 01:28:15.499 : en:第 11 章

  154. 01:35:29.307 : en:第 12 章

  155. 01:37:42.356 : en:第 13 章

  156. 01:43:26.575 : en:第 14 章

  157. 01:46:20.457 : en:第 15 章

  158. 01:50:20.155 : en:第 16 章


复制代码



文件下载


除非特别注明,本文『最终幻想7:圣子降临[简繁英字幕].Final.Fantasy.VII.Advent.Children.2005.UHD.BluRay.2160p.TrueHD.Atmos.7.1.x265.10bi』来源于互联网机器人自动抓取,非本站原创。 浮游电影网不对本文拥有版权,如有侵犯,请联系邮箱:fuyouu#yandex.com[#换成@]投诉。我们会在15个工作日内删除。 但烦请转载时请标明出处:“本文转载于『浮游电影网』,原文地址:https://www.fuyouu.com/22700.html

评论吧骚年!

发表你的见解   

昵称*

E-mail*(建议输入,以便收到博主回复的提示邮件)

验证码*

您可以使用eMule或eMule Mod(Windows)、aMule(Win、Linux、Mac)等软件下载eD2k链接。。
eMule收藏集(.emulecollection)文件是您选中的所有链接的列表文件。eMule可以直接下载它们。
按住SHIFT键选择可以选中多个选择框。
可用文件名和大小选择器来选择文件。
文件名选择器帮您根据文件名称或后缀来选择文件。不分大小写。
符号使用:
和:空格( )、+
不包含:-
或:|
转义:一对英文引号("");
匹配开头:^
匹配结尾:$
例如:
选中所有名称中包含有“eMule”或“0.49c”字眼,但不包含有“exe”字眼的:emule|0.49c -exe
选中所有名称的开头是“eMule”,结尾是“0.49c”的:^emule 0.49c$
选中所有名称中带有“eMule 0.49c”的(必须是“eMule 0.49c”,中间没有别的字符,不能是“eMule fake 0.49c”),需要转义:"emule 0.49c"
大小选择器帮您根据文件大小选择文件。