当前位置: 首页 >> 欧美电影 >> 无限爱可能[中文字幕].Anythings.Possible.2022.2160p.AMZN.WEB-DL.x265.8bit.SDR.DDP5.1-AKi 8.58GB >> 正文

无限爱可能[中文字幕].Anythings.Possible.2022.2160p.AMZN.WEB-DL.x265.8bit.SDR.DDP5.1-AKi 8.58GB

2022年07月22日 22:07:52     电影发布:来源于网络     电影分类:欧美电影     评论(0)    

无限爱可能[中文字幕].Anythings.Possible.2022.2160p.AMZN.WEB DL.x265.8bit.SDR.DDP5.1 AKi 8.58GB  欧美电影  第1张

无限爱可能[中文字幕].Anythings.Possible.2022.2160p.AMZN.WEB DL.x265.8bit.SDR.DDP5.1 AKi 8.58GB  欧美电影  第2张

◎译 名 无限爱可能 / What If?

◎片 名 Anything's Possible

◎年 代 2022

◎产 地 美国

◎类 别 喜剧 / 爱情 / 同性

◎语 言 英语

◎上映日期 2022-07-22(美国)

◎IMDb链接 https://www.imdb.com/title/tt11464446/

◎豆瓣链接 https://movie.douban.com/subject/35288407/

◎导 演 比利·波特 Billy Porter (id:1050593)

◎演 员 芮妮·戈兹贝里 Renee Goldsberry (id:1096089)

◎简 介

An unassertive seventeen year old turns his high school on its head when he asks out his crush, a transgender classmate.

  1. Video

  2. ID : 1

  3. Format : HEVC

  4. Format/Info : High Efficiency Video Coding

  5. Format profile : [email protected]@Main

  6. Codec ID : V_MPEGH/ISO/HEVC

  7. Duration : 1 h 27 min

  8. Bit rate : 13.4 Mb/s

  9. Width : 3 840 pixels

  10. Height : 2 080 pixels

  11. Display aspect ratio : 1.85:1

  12. Frame rate mode : Constant

  13. Frame rate : 23.976 (24000/1001/53354) FPS

  14. Standard : NTSC

  15. Color space : YUV

  16. Chroma subsampling : 4:2:0

  17. Bit depth : 8 bits

  18. Bits/(Pixel*Frame) : 0.070

  19. Stream size : 8.14 GiB (95%)

  20. Writing library : x265 2.9_elemental+1-9e0607aa5b6f:[Linux][GCC 4.8.5][64 bit] 8bit+10bit+12bit

  21. Encoding settings : cpuid=533541111039 / frame-threads=2 / wpp / no-pmode / no-pme / psnr / ssim / log-level=2 / csv / csv-log-level=2 / input-csp=1 / input-res=3840x2080 / interlace=0 / total-frames=0 / level-idc=50 / high-tier=1 / uhd-bd=0 / ref=5 / no-allow-non-conformance / no-repeat-headers / annexb / no-aud / no-hrd / info / hash=0 / no-temporal-layers / no-open-gop / min-keyint=61 / keyint=120 / gop-lookahead=0 / bframes=8 / b-adapt=2 / b-pyramid / bframe-bias=0 / rc-lookahead=120 / lookahead-slices=4 / scenecut=0 / radl=0 / no-intra-refresh / ctu=64 / min-cu-size=8 / rect / amp / max-tu-size=32 / tu-inter-depth=4 / tu-intra-depth=4 / limit-tu=4 / rdoq-level=2 / dynamic-rd=0.00 / no-ssim-rd / signhide / tskip / nr-intra=100 / nr-inter=600 / no-constrained-intra / strong-intra-smoothing / max-merge=3 / limit-refs=3 / limit-modes / me=3 / subme=3 / merange=57 / temporal-mvp / weightp / weightb / no-analyze-src-pics / deblock=0:0 / no-sao / no-sao-non-deblock / rd=4 / no-early-skip / no-rskip / no-fast-intra / tskip-fast / no-cu-lossless / b-intra / no-splitrd-skip / rdpenalty=0 / psy-rd=4.00 / psy-rdoq=10.00 / no-rd-refine / no-lossless / cbqpoffs=0 / crqpoffs=0 / rc=crf / crf=25.0 / qcomp=0.60 / qpstep=1 / stats-write=0 / stats-read=0 / vbv-maxrate=15000 / vbv-bufsize=20000 / vbv-init=0.9 / crf-max=0.0 / crf-min=0.0 / ipratio=1.10 / pbratio=1.00 / aq-mode=0 / aq-strength=1.50 / no-cutree / zone-count=0 / no-strict-cbr / qg-size=32 / rc-grain / qpmax=69 / qpmin=0 / const-vbv / sar=255 / sar-width / : / sar-height=481:480 / overscan=0 / videoformat=2 / range=0 / colorprim=1 / transfer=1 / colormatrix=1 / chromaloc=0 / display-window=0 / max-cll=0,0 / min-luma=0 / max-luma=255 / log2-max-poc-lsb=8 / vui-timing-info / vui-hrd-info / slices=1 / opt-qp-pps / no-opt-ref-list-length-pps / no-multi-pass-opt-rps / scenecut-bias=0.05 / no-opt-cu-delta-qp / no-aq-motion / no-hdr / no-hdr-opt / no-dhdr10-opt / no-idr-recovery-sei / analysis-reuse-level=5 / scale-factor=0 / refine-intra=0 / refine-inter=0 / refine-mv=0 / no-limit-sao / ctu-info=0 / no-lowpass-dct / refine-mv-type=0 / copy-pic=1 / max-ausize-factor=1.0 / no-dynamic-refine / no-single-sei

  22. Default : Yes

  23. Forced : No

  24. Color range : Limited

  25. Color primaries : BT.709

  26. Transfer characteristics : BT.709

  27. Matrix coefficients : BT.709


  28. Audio

  29. ID : 2

  30. Format : E-AC-3

  31. Format/Info : Enhanced AC-3

  32. Commercial name : Dolby Digital Plus

  33. Codec ID : A_EAC3

  34. Duration : 1 h 38 min

  35. Bit rate mode : Constant

  36. Bit rate : 640 kb/s

  37. Channel(s) : 6 channels

  38. Channel layout : L R C LFE Ls Rs

  39. Sampling rate : 48.0 kHz

  40. Frame rate : 31.250 FPS (1536 SPF)

  41. Compression mode : Lossy

  42. Stream size : 450 MiB (5%)

  43. Title : English

  44. Language : English

  45. Service kind : Complete Main

  46. Default : No

  47. Forced : No


  48. Text #1

  49. ID : 3

  50. Format : UTF-8

  51. Codec ID : S_TEXT/UTF8

  52. Codec ID/Info : UTF-8 Plain Text

  53. Duration : 1 h 34 min

  54. Bit rate : 63 b/s

  55. Frame rate : 0.269 FPS

  56. Count of elements : 1531

  57. Stream size : 44.0 KiB (0%)

  58. Title : Dutch

  59. Language : Dutch

  60. Default : No

  61. Forced : No


  62. Text #2

  63. ID : 4

  64. Format : UTF-8

  65. Codec ID : S_TEXT/UTF8

  66. Codec ID/Info : UTF-8 Plain Text

  67. Duration : 1 h 34 min

  68. Bit rate : 66 b/s

  69. Frame rate : 0.281 FPS

  70. Count of elements : 1598

  71. Stream size : 45.9 KiB (0%)

  72. Title : Czech

  73. Language : Czech

  74. Default : No

  75. Forced : No


  76. Text #3

  77. ID : 5

  78. Format : UTF-8

  79. Codec ID : S_TEXT/UTF8

  80. Codec ID/Info : UTF-8 Plain Text

  81. Duration : 1 h 30 min

  82. Bit rate : 65 b/s

  83. Frame rate : 0.314 FPS

  84. Count of elements : 1704

  85. Stream size : 43.7 KiB (0%)

  86. Title : Spanish

  87. Language : Spanish

  88. Default : No

  89. Forced : No


  90. Text #4

  91. ID : 6

  92. Format : UTF-8

  93. Codec ID : S_TEXT/UTF8

  94. Codec ID/Info : UTF-8 Plain Text

  95. Duration : 1 h 34 min

  96. Bit rate : 63 b/s

  97. Frame rate : 0.281 FPS

  98. Count of elements : 1601

  99. Stream size : 44.0 KiB (0%)

  100. Title : Indonesian

  101. Language : Indonesian

  102. Default : No

  103. Forced : No


  104. Text #5

  105. ID : 7

  106. Format : UTF-8

  107. Codec ID : S_TEXT/UTF8

  108. Codec ID/Info : UTF-8 Plain Text

  109. Duration : 1 h 34 min

  110. Bit rate : 65 b/s

  111. Frame rate : 0.280 FPS

  112. Count of elements : 1596

  113. Stream size : 45.8 KiB (0%)

  114. Title : Hungarian

  115. Language : Hungarian

  116. Default : No

  117. Forced : No


  118. Text #6

  119. ID : 8

  120. Format : UTF-8

  121. Codec ID : S_TEXT/UTF8

  122. Codec ID/Info : UTF-8 Plain Text

  123. Duration : 1 h 34 min

  124. Bit rate : 104 b/s

  125. Frame rate : 0.282 FPS

  126. Count of elements : 1605

  127. Stream size : 72.6 KiB (0%)

  128. Title : Ukrainian

  129. Language : Ukrainian

  130. Default : No

  131. Forced : No


  132. Text #7

  133. ID : 9

  134. Format : UTF-8

  135. Codec ID : S_TEXT/UTF8

  136. Codec ID/Info : UTF-8 Plain Text

  137. Duration : 1 h 34 min

  138. Bit rate : 116 b/s

  139. Frame rate : 0.280 FPS

  140. Count of elements : 1597

  141. Stream size : 81.4 KiB (0%)

  142. Title : Hebrew

  143. Language : Hebrew

  144. Default : No

  145. Forced : No


  146. Text #8

  147. ID : 10

  148. Format : UTF-8

  149. Codec ID : S_TEXT/UTF8

  150. Codec ID/Info : UTF-8 Plain Text

  151. Duration : 1 h 34 min

  152. Bit rate : 106 b/s

  153. Frame rate : 0.282 FPS

  154. Count of elements : 1603

  155. Stream size : 74.3 KiB (0%)

  156. Title : Russian

  157. Language : Russian

  158. Default : No

  159. Forced : No


  160. Text #9

  161. ID : 11

  162. Format : UTF-8

  163. Codec ID : S_TEXT/UTF8

  164. Codec ID/Info : UTF-8 Plain Text

  165. Duration : 1 h 34 min

  166. Bit rate : 63 b/s

  167. Frame rate : 0.282 FPS

  168. Count of elements : 1603

  169. Stream size : 44.5 KiB (0%)

  170. Title : Chinese (Simplified)

  171. Language : Chinese

  172. Default : No

  173. Forced : No


  174. Text #10

  175. ID : 12

  176. Format : UTF-8

  177. Codec ID : S_TEXT/UTF8

  178. Codec ID/Info : UTF-8 Plain Text

  179. Duration : 1 h 34 min

  180. Bit rate : 64 b/s

  181. Frame rate : 0.281 FPS

  182. Count of elements : 1599

  183. Stream size : 44.9 KiB (0%)

  184. Title : Swedish

  185. Language : Swedish

  186. Default : No

  187. Forced : No


  188. Text #11

  189. ID : 13

  190. Format : UTF-8

  191. Codec ID : S_TEXT/UTF8

  192. Codec ID/Info : UTF-8 Plain Text

  193. Duration : 1 h 34 min

  194. Bit rate : 69 b/s

  195. Frame rate : 0.271 FPS

  196. Count of elements : 1542

  197. Stream size : 48.1 KiB (0%)

  198. Title : Filipino

  199. Language : fil

  200. Default : No

  201. Forced : No


  202. Text #12

  203. ID : 14

  204. Format : UTF-8

  205. Codec ID : S_TEXT/UTF8

  206. Codec ID/Info : UTF-8 Plain Text

  207. Duration : 1 h 34 min

  208. Bit rate : 64 b/s

  209. Frame rate : 0.277 FPS

  210. Count of elements : 1580

  211. Stream size : 44.6 KiB (0%)

  212. Title : French

  213. Language : French

  214. Default : No

  215. Forced : No


  216. Text #13

  217. ID : 15

  218. Format : UTF-8

  219. Codec ID : S_TEXT/UTF8

  220. Codec ID/Info : UTF-8 Plain Text

  221. Duration : 1 h 34 min

  222. Bit rate : 62 b/s

  223. Frame rate : 0.280 FPS

  224. Count of elements : 1597

  225. Stream size : 43.1 KiB (0%)

  226. Title : Norwegian (Bokm?l)

  227. Language : Norwegian Bokmal

  228. Default : No

  229. Forced : No


  230. Text #14

  231. ID : 16

  232. Format : UTF-8

  233. Codec ID : S_TEXT/UTF8

  234. Codec ID/Info : UTF-8 Plain Text

  235. Duration : 1 h 34 min

  236. Bit rate : 58 b/s

  237. Frame rate : 0.270 FPS

  238. Count of elements : 1537

  239. Stream size : 40.7 KiB (0%)

  240. Title : Polish

  241. Language : Polish

  242. Default : No

  243. Forced : No


  244. Text #15

  245. ID : 17

  246. Format : UTF-8

  247. Codec ID : S_TEXT/UTF8

  248. Codec ID/Info : UTF-8 Plain Text

  249. Duration : 1 h 34 min

  250. Bit rate : 161 b/s

  251. Frame rate : 0.282 FPS

  252. Count of elements : 1605

  253. Stream size : 113 KiB (0%)

  254. Title : Malayalam

  255. Language : Malayalam

  256. Default : No

  257. Forced : No


  258. Text #16

  259. ID : 18

  260. Format : UTF-8

  261. Codec ID : S_TEXT/UTF8

  262. Codec ID/Info : UTF-8 Plain Text

  263. Duration : 1 h 34 min

  264. Bit rate : 64 b/s

  265. Frame rate : 0.281 FPS

  266. Count of elements : 1600

  267. Stream size : 45.1 KiB (0%)

  268. Title : Turkish

  269. Language : Turkish

  270. Default : No

  271. Forced : No


  272. Text #17

  273. ID : 19

  274. Format : UTF-8

  275. Codec ID : S_TEXT/UTF8

  276. Codec ID/Info : UTF-8 Plain Text

  277. Duration : 1 h 29 min

  278. Bit rate : 65 b/s

  279. Frame rate : 0.317 FPS

  280. Count of elements : 1696

  281. Stream size : 42.7 KiB (0%)

  282. Title : French (Canada)

  283. Language : French

  284. Default : No

  285. Forced : No


  286. Text #18

  287. ID : 20

  288. Format : UTF-8

  289. Codec ID : S_TEXT/UTF8

  290. Codec ID/Info : UTF-8 Plain Text

  291. Duration : 1 h 34 min

  292. Bit rate : 162 b/s

  293. Frame rate : 0.282 FPS

  294. Count of elements : 1604

  295. Stream size : 113 KiB (0%)

  296. Title : Telugu

  297. Language : Telugu

  298. Default : No

  299. Forced : No


  300. Text #19

  301. ID : 21

  302. Format : UTF-8

  303. Codec ID : S_TEXT/UTF8

  304. Codec ID/Info : UTF-8 Plain Text

  305. Duration : 1 h 29 min

  306. Bit rate : 77 b/s

  307. Frame rate : 0.340 FPS

  308. Count of elements : 1815

  309. Stream size : 50.5 KiB (0%)

  310. Title : English

  311. Language : English

  312. Default : No

  313. Forced : No


  314. Text #20

  315. ID : 22

  316. Format : UTF-8

  317. Codec ID : S_TEXT/UTF8

  318. Codec ID/Info : UTF-8 Plain Text

  319. Duration : 1 h 34 min

  320. Bit rate : 62 b/s

  321. Frame rate : 0.281 FPS

  322. Count of elements : 1600

  323. Stream size : 43.1 KiB (0%)

  324. Title : Finnish

  325. Language : Finnish

  326. Default : No

  327. Forced : No


  328. Text #21

  329. ID : 23

  330. Format : UTF-8

  331. Codec ID : S_TEXT/UTF8

  332. Codec ID/Info : UTF-8 Plain Text

  333. Duration : 1 h 34 min

  334. Bit rate : 167 b/s

  335. Frame rate : 0.281 FPS

  336. Count of elements : 1603

  337. Stream size : 116 KiB (0%)

  338. Title : Tamil

  339. Language : Tamil

  340. Default : No

  341. Forced : No


  342. Text #22

  343. ID : 24

  344. Format : UTF-8

  345. Codec ID : S_TEXT/UTF8

  346. Codec ID/Info : UTF-8 Plain Text

  347. Duration : 1 h 34 min

  348. Bit rate : 63 b/s

  349. Frame rate : 0.282 FPS

  350. Count of elements : 1608

  351. Stream size : 44.5 KiB (0%)

  352. Title : Japanese

  353. Language : Japanese

  354. Default : No

  355. Forced : No


  356. Text #23

  357. ID : 25

  358. Format : UTF-8

  359. Codec ID : S_TEXT/UTF8

  360. Codec ID/Info : UTF-8 Plain Text

  361. Duration : 1 h 34 min

  362. Bit rate : 160 b/s

  363. Frame rate : 0.281 FPS

  364. Count of elements : 1603

  365. Stream size : 111 KiB (0%)

  366. Title : Hindi

  367. Language : Hindi

  368. Default : No

  369. Forced : No


  370. Text #24

  371. ID : 26

  372. Format : UTF-8

  373. Codec ID : S_TEXT/UTF8

  374. Codec ID/Info : UTF-8 Plain Text

  375. Duration : 1 h 34 min

  376. Bit rate : 162 b/s

  377. Frame rate : 0.281 FPS

  378. Count of elements : 1600

  379. Stream size : 113 KiB (0%)

  380. Title : Thai

  381. Language : Thai

  382. Default : No

  383. Forced : No


  384. Text #25

  385. ID : 27

  386. Format : UTF-8

  387. Codec ID : S_TEXT/UTF8

  388. Codec ID/Info : UTF-8 Plain Text

  389. Duration : 1 h 34 min

  390. Bit rate : 58 b/s

  391. Frame rate : 0.281 FPS

  392. Count of elements : 1598

  393. Stream size : 40.6 KiB (0%)

  394. Title : Basque

  395. Language : Basque

  396. Default : No

  397. Forced : No


  398. Text #26

  399. ID : 28

  400. Format : UTF-8

  401. Codec ID : S_TEXT/UTF8

  402. Codec ID/Info : UTF-8 Plain Text

  403. Duration : 1 h 34 min

  404. Bit rate : 118 b/s

  405. Frame rate : 0.281 FPS

  406. Count of elements : 1603

  407. Stream size : 82.5 KiB (0%)

  408. Title : Arabic

  409. Language : Arabic

  410. Default : No

  411. Forced : No


  412. Text #27

  413. ID : 29

  414. Format : UTF-8

  415. Codec ID : S_TEXT/UTF8

  416. Codec ID/Info : UTF-8 Plain Text

  417. Duration : 1 h 34 min

  418. Bit rate : 59 b/s

  419. Frame rate : 0.281 FPS

  420. Count of elements : 1598

  421. Stream size : 41.2 KiB (0%)

  422. Title : Malay

  423. Language : Malay

  424. Default : No

  425. Forced : No


  426. Text #28

  427. ID : 30

  428. Format : UTF-8

  429. Codec ID : S_TEXT/UTF8

  430. Codec ID/Info : UTF-8 Plain Text

  431. Duration : 1 h 34 min

  432. Bit rate : 60 b/s

  433. Frame rate : 0.279 FPS

  434. Count of elements : 1588

  435. Stream size : 42.1 KiB (0%)

  436. Title : Castilian

  437. Language : Spanish

  438. Default : No

  439. Forced : No


  440. Text #29

  441. ID : 31

  442. Format : UTF-8

  443. Codec ID : S_TEXT/UTF8

  444. Codec ID/Info : UTF-8 Plain Text

  445. Duration : 1 h 34 min

  446. Bit rate : 62 b/s

  447. Frame rate : 0.281 FPS

  448. Count of elements : 1598

  449. Stream size : 43.5 KiB (0%)

  450. Title : Brazilian Portuguese

  451. Language : Portuguese

  452. Default : No

  453. Forced : No


  454. Text #30

  455. ID : 32

  456. Format : UTF-8

  457. Codec ID : S_TEXT/UTF8

  458. Codec ID/Info : UTF-8 Plain Text

  459. Duration : 1 h 34 min

  460. Bit rate : 72 b/s

  461. Frame rate : 0.281 FPS

  462. Count of elements : 1600

  463. Stream size : 50.1 KiB (0%)

  464. Title : Korean

  465. Language : Korean

  466. Default : No

  467. Forced : No


  468. Text #31

  469. ID : 33

  470. Format : UTF-8

  471. Codec ID : S_TEXT/UTF8

  472. Codec ID/Info : UTF-8 Plain Text

  473. Duration : 1 h 34 min

  474. Bit rate : 82 b/s

  475. Frame rate : 0.281 FPS

  476. Count of elements : 1600

  477. Stream size : 57.5 KiB (0%)

  478. Title : Vietnamese

  479. Language : Vietnamese

  480. Default : No

  481. Forced : No


  482. Text #32

  483. ID : 34

  484. Format : UTF-8

  485. Codec ID : S_TEXT/UTF8

  486. Codec ID/Info : UTF-8 Plain Text

  487. Duration : 1 h 34 min

  488. Bit rate : 64 b/s

  489. Frame rate : 0.282 FPS

  490. Count of elements : 1605

  491. Stream size : 44.8 KiB (0%)

  492. Title : Chinese (Traditional)

  493. Language : Chinese

  494. Default : No

  495. Forced : No


  496. Text #33

  497. ID : 35

  498. Format : UTF-8

  499. Codec ID : S_TEXT/UTF8

  500. Codec ID/Info : UTF-8 Plain Text

  501. Duration : 1 h 34 min

  502. Bit rate : 162 b/s

  503. Frame rate : 0.280 FPS

  504. Count of elements : 1597

  505. Stream size : 113 KiB (0%)

  506. Title : Kannada (India)

  507. Language : Kannada

  508. Default : No

  509. Forced : No


  510. Text #34

  511. ID : 36

  512. Format : UTF-8

  513. Codec ID : S_TEXT/UTF8

  514. Codec ID/Info : UTF-8 Plain Text

  515. Duration : 1 h 30 min

  516. Bit rate : 61 b/s

  517. Frame rate : 0.295 FPS

  518. Count of elements : 1601

  519. Stream size : 40.4 KiB (0%)

  520. Title : Galician

  521. Language : Galician

  522. Default : No

  523. Forced : No


  524. Text #35

  525. ID : 37

  526. Format : UTF-8

  527. Codec ID : S_TEXT/UTF8

  528. Codec ID/Info : UTF-8 Plain Text

  529. Duration : 1 h 31 min

  530. Bit rate : 82 b/s

  531. Frame rate : 0.366 FPS

  532. Count of elements : 2004

  533. Stream size : 55.4 KiB (0%)

  534. Title : English [SDH]

  535. Language : English

  536. Default : No

  537. Forced : No


  538. Text #36

  539. ID : 38

  540. Format : UTF-8

  541. Codec ID : S_TEXT/UTF8

  542. Codec ID/Info : UTF-8 Plain Text

  543. Duration : 1 h 34 min

  544. Bit rate : 61 b/s

  545. Frame rate : 0.276 FPS

  546. Count of elements : 1574

  547. Stream size : 42.8 KiB (0%)

  548. Title : Danish

  549. Language : Danish

  550. Default : No

  551. Forced : No


  552. Text #37

  553. ID : 39

  554. Format : UTF-8

  555. Codec ID : S_TEXT/UTF8

  556. Codec ID/Info : UTF-8 Plain Text

  557. Duration : 1 h 34 min

  558. Bit rate : 63 b/s

  559. Frame rate : 0.280 FPS

  560. Count of elements : 1594

  561. Stream size : 44.1 KiB (0%)

  562. Title : German

  563. Language : German

  564. Default : No

  565. Forced : No


  566. Text #38

  567. ID : 40

  568. Format : UTF-8

  569. Codec ID : S_TEXT/UTF8

  570. Codec ID/Info : UTF-8 Plain Text

  571. Duration : 1 h 34 min

  572. Bit rate : 62 b/s

  573. Frame rate : 0.281 FPS

  574. Count of elements : 1599

  575. Stream size : 43.5 KiB (0%)

  576. Title : Italian

  577. Language : Italian

  578. Default : No

  579. Forced : No


  580. Text #39

  581. ID : 41

  582. Format : UTF-8

  583. Codec ID : S_TEXT/UTF8

  584. Codec ID/Info : UTF-8 Plain Text

  585. Duration : 1 h 34 min

  586. Bit rate : 69 b/s

  587. Frame rate : 0.279 FPS

  588. Count of elements : 1587

  589. Stream size : 48.5 KiB (0%)

  590. Title : Romanian

  591. Language : Romanian

  592. Default : No

  593. Forced : No


  594. Text #40

  595. ID : 42

  596. Format : UTF-8

  597. Codec ID : S_TEXT/UTF8

  598. Codec ID/Info : UTF-8 Plain Text

  599. Duration : 1 h 34 min

  600. Bit rate : 60 b/s

  601. Frame rate : 0.282 FPS

  602. Count of elements : 1604

  603. Stream size : 41.8 KiB (0%)

  604. Title : Catalan

  605. Language : Catalan

  606. Default : No

  607. Forced : No


  608. Text #41

  609. ID : 43

  610. Format : UTF-8

  611. Codec ID : S_TEXT/UTF8

  612. Codec ID/Info : UTF-8 Plain Text

  613. Duration : 1 h 34 min

  614. Bit rate : 61 b/s

  615. Frame rate : 0.280 FPS

  616. Count of elements : 1594

  617. Stream size : 42.4 KiB (0%)

  618. Title : Portuguese

  619. Language : Portuguese

  620. Default : No

  621. Forced : No


  622. Menu

  623. 00:00:00.000 : Amazon Original

  624. 00:00:07.000 : Studio Logo

  625. 00:00:27.000 : Scene 3

  626. 00:04:19.000 : Title Sequence

  627. 00:04:27.000 : Scene 5

  628. 00:08:09.000 : Scene 6

  629. 00:10:04.000 : Scene 7

  630. 00:12:36.000 : Scene 8

  631. 00:14:03.000 : Scene 9

  632. 00:16:56.000 : Scene 10

  633. 00:19:17.000 : Scene 11

  634. 00:23:22.000 : Scene 12

  635. 00:24:37.000 : Scene 13

  636. 00:26:16.000 : Scene 14

  637. 00:28:02.000 : Scene 15

  638. 00:29:30.000 : Scene 16

  639. 00:30:59.000 : Scene 17

  640. 00:35:31.000 : Scene 18

  641. 00:36:47.000 : Scene 19

  642. 00:45:29.000 : Scene 20

  643. 00:47:17.000 : Scene 21

  644. 00:48:16.000 : Scene 22

  645. 00:49:44.000 : Scene 23

  646. 00:50:47.000 : Scene 24

  647. 00:52:06.000 : Scene 25

  648. 00:55:02.000 : Scene 26

  649. 00:57:37.000 : Scene 27

  650. 00:59:21.000 : Scene 28

  651. 01:02:41.000 : Scene 29

  652. 01:06:05.000 : Scene 30

  653. 01:09:43.000 : Scene 31

  654. 01:12:40.000 : Scene 32

  655. 01:15:08.000 : Scene 33

  656. 01:18:04.000 : Scene 34

  657. 01:20:09.000 : Scene 35

  658. 01:21:20.000 : Scene 36

  659. 01:23:16.000 : Scene 37

  660. 01:29:48.000 : End Credits

复制代码

无限爱可能[中文字幕].Anythings.Possible.2022.2160p.AMZN.WEB DL.x265.8bit.SDR.DDP5.1 AKi 8.58GB  欧美电影  第3张 无限爱可能[中文字幕].Anythings.Possible.2022.2160p.AMZN.WEB DL.x265.8bit.SDR.DDP5.1 AKi 8.58GB  欧美电影  第4张 无限爱可能[中文字幕].Anythings.Possible.2022.2160p.AMZN.WEB DL.x265.8bit.SDR.DDP5.1 AKi 8.58GB  欧美电影  第5张



文件下载


除非特别注明,本文『无限爱可能[中文字幕].Anythings.Possible.2022.2160p.AMZN.WEB-DL.x265.8bit.SDR.DDP5.1-AKi 8.58GB』来源于互联网机器人自动抓取,非本站原创。 浮游电影网不对本文拥有版权,如有侵犯,请联系邮箱:fuyouu#yandex.com[#换成@]投诉。我们会在15个工作日内删除。 但烦请转载时请标明出处:“本文转载于『浮游电影网』,原文地址:https://www.fuyouu.com/22699.html

评论吧骚年!

发表你的见解   

昵称*

E-mail*(建议输入,以便收到博主回复的提示邮件)

验证码*

您可以使用eMule或eMule Mod(Windows)、aMule(Win、Linux、Mac)等软件下载eD2k链接。。
eMule收藏集(.emulecollection)文件是您选中的所有链接的列表文件。eMule可以直接下载它们。
按住SHIFT键选择可以选中多个选择框。
可用文件名和大小选择器来选择文件。
文件名选择器帮您根据文件名称或后缀来选择文件。不分大小写。
符号使用:
和:空格( )、+
不包含:-
或:|
转义:一对英文引号("");
匹配开头:^
匹配结尾:$
例如:
选中所有名称中包含有“eMule”或“0.49c”字眼,但不包含有“exe”字眼的:emule|0.49c -exe
选中所有名称的开头是“eMule”,结尾是“0.49c”的:^emule 0.49c$
选中所有名称中带有“eMule 0.49c”的(必须是“eMule 0.49c”,中间没有别的字符,不能是“eMule fake 0.49c”),需要转义:"emule 0.49c"
大小选择器帮您根据文件大小选择文件。