当前位置: 首页 >> 欧美电影 >> 迷失之城[简体字幕].The.Lost.City.2022.1080p.BluRay.x265.10bit-CHD 6.47GB >> 正文

迷失之城[简体字幕].The.Lost.City.2022.1080p.BluRay.x265.10bit-CHD 6.47GB

2022年07月17日 23:13:50     电影发布:来源于网络     电影分类:欧美电影     评论(0)    

◎标 题 迷失之城

◎译 名 迷失D城 / Lost City of D / 失惊无神闯谜城(港) / 失落谜城(台)

◎片 名 The Lost City

◎年 代 2022

◎产 地 美国

◎类 别 喜剧 / 动作 / 冒险

◎语 言 英语

◎上映日期 2022-06(中国大陆) / 2022-03-25(美国)

◎IMDb评分 6.1/10 (78671人评价)

◎IMDb链接 https://www.imdb.com/title/tt13320622/

◎豆瓣评分 5.3/10 (11185人评价)

◎豆瓣链接 https://movie.douban.com/subject/35303842/

◎片 长 112分钟

◎导 演 艾伦·尼 Aaron Nee

亚当·尼 Adam Nee

◎编 剧 奥伦·尤济尔 Oren Uziel

达纳·福克斯 Dana Fox

亚当·尼 Adam Nee

艾伦·尼 Aaron Nee

赛斯·戈登 Seth Gordon

◎演 员 桑德拉·布洛克 Sandra Bullock

查宁·塔图姆 Channing Tatum

丹尼尔·雷德克里夫 Daniel Radcliffe

达明·乔伊·伦道夫 Da'Vine Joy Randolph

布拉德·皮特 Brad Pitt

奥斯卡·努内斯 Oscar Nuñez

帕蒂·哈里森 Patti Harrison

杨伯文 Bowen Yang

乔安·普林格尔 Joan Pringle

赫克托·阿尼巴尔 Héctor Aníbal

托马斯·福布斯·约翰逊 Thomas Forbes-Johnson

斯莱·刘易斯 Sli Lewis

亚当·尼 Adam Nee

雷蒙德·李 Raymond Lee

安东尼·阿尔瓦雷斯 Anthony Alvarez

马西·哈罗 Marcy Jarreau

瑞恩·贾德 Ryan Judd

莉莎·蔡辛 Liza Chasin

桑德拉·布洛克 Sandra Bullock

赛斯·戈登 Seth Gordon

玛琳·斯图尔特 Marlene Stewart

◎简 介

洛蕾塔·塞琪(桑德拉·布洛克 饰)是一位才华横溢但与世隔绝的作家。在她的畅销爱情冒险小说里,总会出现许多奇异的地方。而作为本书的封面模特,艾伦(查宁·塔图姆 饰)一生都在致力于展现书中英雄角色“达什”的个人魅力。 ” 在与艾伦一起宣传新书时,洛雷塔被一位古怪的亿万富翁(丹尼尔·雷德克里夫 饰)绑架。这位亿万富翁坚信,洛蕾塔的新书能带领他找到失落古城中的宝藏。 与此同时,艾伦为了证明自己可以成为现实中的英雄,而不仅仅是洛蕾塔虚构的人物,决定前去营救她。这对极不对付的搭档需要共同努力,才能在险恶的丛林中生存下来,并在亿万富翁赶到前找到古老的宝藏。

  1. ##### MediaInfo ######

  2. General

  3. Unique ID : 220256780525171774391255198084030869090 (0xA5B3E9B442295D6DA9DB970F3E812E62)

  4. Complete name : The.Lost.City.2022.1080p.BluRay.x265.10bit-CHD.mkv

  5. Format : Matroska

  6. Format version : Version 1

  7. File size : 6.47 GiB

  8. Duration : 1 h 51 min

  9. Overall bit rate : 8 293 kb/s

  10. Encoded date : UTC 2022-07-17 08:44:20

  11. Writing application : mkvmerge v2.2.0 ('Turn It On Again') built on Mar 4 2008 13:20:25

  12. Writing library : libebml v0.7.7 + libmatroska v0.8.1

  13. Attachments : MSYH.TTF / MSYH_chscht.ttf / MSYHBD.TTF / tahoma.ttf

  14. Video

  15. ID : 1

  16. Format : HEVC

  17. Format/Info : High Efficiency Video Coding

  18. Format profile : Main [email protected]@Main

  19. Codec ID : V_MPEGH/ISO/HEVC

  20. Duration : 1 h 51 min

  21. Bit rate : 7 488 kb/s

  22. Width : 1 920 pixels

  23. Height : 804 pixels

  24. Display aspect ratio : 2.40:1

  25. Frame rate mode : Constant

  26. Frame rate : 23.976 (24000/1001/53354) FPS

  27. Color space : YUV

  28. Chroma subsampling : 4:2:0

  29. Bit depth : 10 bits

  30. Bits/(Pixel*Frame) : 0.202

  31. Stream size : 5.84 GiB (90%)

  32. Default : Yes

  33. Forced : No

  34. Audio

  35. ID : 2

  36. Format : AC-3

  37. Format/Info : Audio Coding 3

  38. Commercial name : Dolby Digital

  39. Codec ID : A_AC3

  40. Duration : 1 h 51 min

  41. Bit rate mode : Constant

  42. Bit rate : 640 kb/s

  43. Channel(s) : 6 channels

  44. Channel layout : L R C LFE Ls Rs

  45. Sampling rate : 48.0 kHz

  46. Frame rate : 31.250 FPS (1536 SPF)

  47. Compression mode : Lossy

  48. Stream size : 512 MiB (8%)

  49. Title : 英语

  50. Language : English

  51. Service kind : Complete Main

  52. Default : Yes

  53. Forced : No

  54. Statistics Tags Issue : mkvmerge v67.0.0 ('Under Stars') 64-bit 2022-07-15 01:32:03 / mkvmerge v2.2.0 ('Turn It On Again') built on Mar 4 2008 13:20:25 2022-07-17 08:44:20

  55. FromStats_BitRate : 640000

  56. FromStats_Duration : 01:51:45.056000000

  57. FromStats_FrameCount : 209533

  58. FromStats_StreamSize : 536404480

  59. Text

  60. ID : 3

  61. Format : ASS

  62. Codec ID : S_TEXT/ASS

  63. Codec ID/Info : Advanced Sub Station Alpha

  64. Compression mode : Lossless

  65. Title : chs

  66. Language : Chinese

  67. Default : Yes

  68. Forced : No


复制代码



文件下载


除非特别注明,本文『迷失之城[简体字幕].The.Lost.City.2022.1080p.BluRay.x265.10bit-CHD 6.47GB』来源于互联网机器人自动抓取,非本站原创。 浮游电影网不对本文拥有版权,如有侵犯,请联系邮箱:fuyouu#yandex.com[#换成@]投诉。我们会在15个工作日内删除。 但烦请转载时请标明出处:“本文转载于『浮游电影网』,原文地址:https://www.fuyouu.com/22693.html

评论吧骚年!

发表你的见解   

昵称*

E-mail*(建议输入,以便收到博主回复的提示邮件)

验证码*

您可以使用eMule或eMule Mod(Windows)、aMule(Win、Linux、Mac)等软件下载eD2k链接。。
eMule收藏集(.emulecollection)文件是您选中的所有链接的列表文件。eMule可以直接下载它们。
按住SHIFT键选择可以选中多个选择框。
可用文件名和大小选择器来选择文件。
文件名选择器帮您根据文件名称或后缀来选择文件。不分大小写。
符号使用:
和:空格( )、+
不包含:-
或:|
转义:一对英文引号("");
匹配开头:^
匹配结尾:$
例如:
选中所有名称中包含有“eMule”或“0.49c”字眼,但不包含有“exe”字眼的:emule|0.49c -exe
选中所有名称的开头是“eMule”,结尾是“0.49c”的:^emule 0.49c$
选中所有名称中带有“eMule 0.49c”的(必须是“eMule 0.49c”,中间没有别的字符,不能是“eMule fake 0.49c”),需要转义:"emule 0.49c"
大小选择器帮您根据文件大小选择文件。