当前位置: 首页 >> 欧美电影 >> 僵尸高校3[中文字幕].Zombies.3.2022.2160p.WEB-DL.x265.8bit.SDR.DDP5.1.Atmos-NOGRP 12.79GB >> 正文

僵尸高校3[中文字幕].Zombies.3.2022.2160p.WEB-DL.x265.8bit.SDR.DDP5.1.Atmos-NOGRP 12.79GB

2022年07月15日 21:41:41     电影发布:来源于网络     电影分类:欧美电影     评论(0)    

僵尸高校3[中文字幕].Zombies.3.2022.2160p.WEB DL.x265.8bit.SDR.DDP5.1.Atmos NOGRP 12.79GB  欧美电影  第1张

僵尸高校3[中文字幕].Zombies.3.2022.2160p.WEB DL.x265.8bit.SDR.DDP5.1.Atmos NOGRP 12.79GB  欧美电影  第2张

◎译 名 僵尸高校3 / 僵尸高校生3(港) / Zombies 3

◎片 名 Z-O-M-B-I-E-S 3

◎年 代 2022

◎产 地 美国

◎类 别 爱情 / 歌舞 / 家庭

◎语 言 英语

◎上映日期 2022-07-15(美国网络)

◎IMDb链接 https://www.imdb.com/title/tt14301252/

◎豆瓣链接 https://movie.douban.com/subject/35910429/

◎导 演 保罗·霍恩 Paul Hoen (id:1286746)

◎编 剧 戴维·莱特 David Light (id:1393681)

约瑟夫·拉索 Joseph Raso (id:1393682)

◎演 员 梅格·唐纳利 Meg Donnelly (id:1362100)

鲁保罗 RuPaul (id:1145339)

麦洛·曼海姆 Milo Manheim (id:1393698)

钱德勒·金尼 Chandler Kinney (id:1473455)

马特· 科耐特 Matt Cornett (id:1426148)

凯利·拉塞尔 Kylee Russell (id:1235044)

特雷弗·托德曼 Trevor Tordjman (id:1393697)

艾米利亚·麦卡锡 Emilia McCarthy (id:1328299)

阿芮尔·马丁 Ariel Martin (id:1455676)

托尼·纳波 Tony Nappo (id:1327982)

布雷蒂·瓦德 Marie Ward (id:1393692)

金斯顿·福斯特 Kingston Foster (id:1393695)

拉莫娜·米拉诺 Ramona Milano (id:1123815)

詹姆斯·戈弗雷 James Godfrey (id:1393696)

奈奥米·斯尼克斯 Naomi Snieckus (id:1371763)

保罗·霍普金斯 Paul Hopkins (id:1096428)

卡拉·杰弗瑞 Carla Jeffery (id:1257377)

袁罗素 Russell Yuen (id:1054816)

杰丝敏·芮妮·托马斯 Jasmine Renée Thomas (id:1393691)

胡因梦 Terry Hu (id:1047380)

梅甘·沃德 Megan Ward (id:1165685)

◎简 介

泽德期待着获得体育奖学金,而艾迪生正在为西布鲁克的国际助威比赛做准备。然后,突然,外星生物出现在西布鲁克周围,这不仅仅是友好的竞争。

  1. Video

  2. ID : 1

  3. Format : HEVC

  4. Format/Info : High Efficiency Video Coding

  5. Format profile : [email protected]@High

  6. Codec ID : V_MPEGH/ISO/HEVC

  7. Duration : 1 h 28 min

  8. Bit rate : 19.9 Mb/s

  9. Width : 3 840 pixels

  10. Height : 2 160 pixels

  11. Display aspect ratio : 16:9

  12. Frame rate mode : Constant

  13. Frame rate : 23.976 (24000/1001/53354) FPS

  14. Color space : YUV

  15. Chroma subsampling : 4:2:0

  16. Bit depth : 8 bits

  17. Bits/(Pixel*Frame) : 0.100

  18. Stream size : 12.3 GiB (96%)

  19. Writing library : x265 3.5:[Linux][GCC 9.4.0][64 bit] 8bit+10bit+12bit

  20. Encoding settings : cpuid=533541111039 / frame-threads=1 / numa-pools=16 / wpp / no-pmode / no-pme / no-psnr / no-ssim / log-level=2 / input-csp=1 / input-res=3840x2160 / interlace=0 / total-frames=0 / level-idc=50 / high-tier=1 / uhd-bd=0 / ref=2 / no-allow-non-conformance / repeat-headers / annexb / no-aud / no-hrd / info / hash=0 / no-temporal-layers / no-open-gop / min-keyint=48 / keyint=48 / gop-lookahead=0 / bframes=4 / b-adapt=0 / b-pyramid / bframe-bias=0 / rc-lookahead=48 / lookahead-slices=8 / scenecut=0 / hist-scenecut=0 / radl=0 / no-splice / no-intra-refresh / ctu=32 / min-cu-size=8 / no-rect / no-amp / max-tu-size=16 / tu-inter-depth=2 / tu-intra-depth=2 / limit-tu=0 / rdoq-level=1 / dynamic-rd=0.00 / no-ssim-rd / signhide / no-tskip / nr-intra=0 / nr-inter=0 / no-constrained-intra / no-strong-intra-smoothing / max-merge=3 / limit-refs=1 / no-limit-modes / me=1 / subme=2 / merange=44 / temporal-mvp / no-frame-dup / no-hme / weightp / no-weightb / no-analyze-src-pics / deblock=0:0 / no-sao / no-sao-non-deblock / rd=4 / selective-sao=0 / early-skip / rskip / no-fast-intra / no-tskip-fast / no-cu-lossless / b-intra / no-splitrd-skip / rdpenalty=1 / psy-rd=1.60 / psy-rdoq=5.00 / no-rd-refine / no-lossless / cbqpoffs=0 / crqpoffs=0 / rc=abr / bitrate=20000 / qcomp=0.75 / qpstep=4 / stats-write=0 / stats-read=0 / vbv-maxrate=24000 / vbv-bufsize=40000 / vbv-init=0.9 / ipratio=1.40 / pbratio=1.30 / aq-mode=3 / aq-strength=1.00 / no-cutree / zone-count=0 / no-strict-cbr / qg-size=32 / no-rc-grain / qpmax=69 / qpmin=0 / no-const-vbv / sar=1 / overscan=0 / videoformat=5 / range=0 / colorprim=1 / transfer=1 / colormatrix=1 / chromaloc=0 / display-window=0 / cll=0,0 / min-luma=0 / max-luma=255 / log2-max-poc-lsb=8 / vui-timing-info / vui-hrd-info / slices=1 / no-opt-qp-pps / no-opt-ref-list-length-pps / no-multi-pass-opt-rps / scenecut-bias=0.00 / hist-threshold=0.01 / no-opt-cu-delta-qp / no-aq-motion / no-hdr10 / no-hdr10-opt / no-dhdr10-opt / no-idr-recovery-sei / analysis-reuse-level=0 / analysis-save-reuse-level=0 / analysis-load-reuse-level=0 / scale-factor=0 / refine-intra=0 / refine-inter=0 / refine-mv=1 / refine-ctu-distortion=0 / no-limit-sao / ctu-info=0 / no-lowpass-dct / refine-analysis-type=0 / copy-pic=1 / max-ausize-factor=1.0 / no-dynamic-refine / no-single-sei / no-hevc-aq / no-svt / no-field / qp-adaptation-range=1.00 / no-scenecut-aware-qpconformance-window-offsets / right=0 / bottom=0 / NTMzNTQ=

  21. Default : Yes

  22. Forced : No

  23. Color range : Limited

  24. Color primaries : BT.709

  25. Transfer characteristics : BT.709

  26. Matrix coefficients : BT.709


  27. Audio

  28. ID : 2

  29. Format : E-AC-3 JOC

  30. Format/Info : Enhanced AC-3 with Joint Object Coding

  31. Commercial name : Dolby Digital Plus with Dolby Atmos

  32. Codec ID : A_EAC3

  33. Duration : 1 h 28 min

  34. Bit rate mode : Constant

  35. Bit rate : 768 kb/s

  36. Channel(s) : 6 channels

  37. Channel layout : L R C LFE Ls Rs

  38. Sampling rate : 48.0 kHz

  39. Frame rate : 31.250 FPS (1536 SPF)

  40. Compression mode : Lossy

  41. Delay relative to video : 2 s 2 ms

  42. Stream size : 485 MiB (4%)

  43. Language : English

  44. Service kind : Complete Main

  45. Default : Yes

  46. Forced : No

  47. Complexity index : 16

  48. Number of dynamic objects : 15

  49. Bed channel count : 1 channel

  50. Bed channel configuration : LFE


  51. Text #1

  52. ID : 3

  53. Format : UTF-8

  54. Codec ID : S_TEXT/UTF8

  55. Codec ID/Info : UTF-8 Plain Text

  56. Duration : 1 h 28 min

  57. Bit rate : 82 b/s

  58. Frame rate : 0.271 FPS

  59. Count of elements : 1438

  60. Stream size : 53.2 KiB (0%)

  61. Language : English

  62. Default : Yes

  63. Forced : No


  64. Text #2

  65. ID : 4

  66. Format : UTF-8

  67. Codec ID : S_TEXT/UTF8

  68. Codec ID/Info : UTF-8 Plain Text

  69. Duration : 1 h 28 min

  70. Bit rate : 91 b/s

  71. Frame rate : 0.315 FPS

  72. Count of elements : 1671

  73. Stream size : 58.9 KiB (0%)

  74. Title : SDH

  75. Language : English

  76. Default : No

  77. Forced : No


  78. Text #3

  79. ID : 5

  80. Format : UTF-8

  81. Codec ID : S_TEXT/UTF8

  82. Codec ID/Info : UTF-8 Plain Text

  83. Duration : 1 h 28 min

  84. Bit rate : 72 b/s

  85. Frame rate : 0.250 FPS

  86. Count of elements : 1325

  87. Stream size : 47.1 KiB (0%)

  88. Language : Czech

  89. Default : No

  90. Forced : No


  91. Text #4

  92. ID : 6

  93. Format : UTF-8

  94. Codec ID : S_TEXT/UTF8

  95. Codec ID/Info : UTF-8 Plain Text

  96. Duration : 1 h 28 min

  97. Bit rate : 77 b/s

  98. Frame rate : 0.263 FPS

  99. Count of elements : 1393

  100. Stream size : 50.0 KiB (0%)

  101. Language : Danish

  102. Default : No

  103. Forced : No


  104. Text #5

  105. ID : 7

  106. Format : UTF-8

  107. Codec ID : S_TEXT/UTF8

  108. Codec ID/Info : UTF-8 Plain Text

  109. Duration : 1 h 28 min

  110. Bit rate : 78 b/s

  111. Frame rate : 0.252 FPS

  112. Count of elements : 1334

  113. Stream size : 50.5 KiB (0%)

  114. Language : German

  115. Default : No

  116. Forced : No


  117. Text #6

  118. ID : 8

  119. Format : UTF-8

  120. Codec ID : S_TEXT/UTF8

  121. Codec ID/Info : UTF-8 Plain Text

  122. Duration : 1 h 28 min

  123. Bit rate : 128 b/s

  124. Frame rate : 0.255 FPS

  125. Count of elements : 1349

  126. Stream size : 82.9 KiB (0%)

  127. Language : Greek

  128. Default : No

  129. Forced : No


  130. Text #7

  131. ID : 9

  132. Format : UTF-8

  133. Codec ID : S_TEXT/UTF8

  134. Codec ID/Info : UTF-8 Plain Text

  135. Duration : 1 h 28 min

  136. Bit rate : 74 b/s

  137. Frame rate : 0.256 FPS

  138. Count of elements : 1354

  139. Stream size : 47.9 KiB (0%)

  140. Language : Spanish

  141. Default : No

  142. Forced : No


  143. Text #8

  144. ID : 10

  145. Format : UTF-8

  146. Codec ID : S_TEXT/UTF8

  147. Codec ID/Info : UTF-8 Plain Text

  148. Duration : 1 h 28 min

  149. Bit rate : 72 b/s

  150. Frame rate : 0.243 FPS

  151. Count of elements : 1288

  152. Stream size : 46.8 KiB (0%)

  153. Title : Latin American

  154. Language : Spanish

  155. Default : No

  156. Forced : No


  157. Text #9

  158. ID : 11

  159. Format : UTF-8

  160. Codec ID : S_TEXT/UTF8

  161. Codec ID/Info : UTF-8 Plain Text

  162. Duration : 1 h 28 min

  163. Bit rate : 74 b/s

  164. Frame rate : 0.258 FPS

  165. Count of elements : 1367

  166. Stream size : 48.4 KiB (0%)

  167. Language : Finnish

  168. Default : No

  169. Forced : No


  170. Text #10

  171. ID : 12

  172. Format : UTF-8

  173. Codec ID : S_TEXT/UTF8

  174. Codec ID/Info : UTF-8 Plain Text

  175. Duration : 1 h 28 min

  176. Bit rate : 80 b/s

  177. Frame rate : 0.261 FPS

  178. Count of elements : 1382

  179. Stream size : 52.1 KiB (0%)

  180. Language : French

  181. Default : No

  182. Forced : No


  183. Text #11

  184. ID : 13

  185. Format : UTF-8

  186. Codec ID : S_TEXT/UTF8

  187. Codec ID/Info : UTF-8 Plain Text

  188. Duration : 1 h 28 min

  189. Bit rate : 74 b/s

  190. Frame rate : 0.255 FPS

  191. Count of elements : 1350

  192. Stream size : 48.1 KiB (0%)

  193. Language : Hungarian

  194. Default : No

  195. Forced : No


  196. Text #12

  197. ID : 14

  198. Format : UTF-8

  199. Codec ID : S_TEXT/UTF8

  200. Codec ID/Info : UTF-8 Plain Text

  201. Duration : 1 h 28 min

  202. Bit rate : 75 b/s

  203. Frame rate : 0.262 FPS

  204. Count of elements : 1387

  205. Stream size : 48.9 KiB (0%)

  206. Language : Italian

  207. Default : No

  208. Forced : No


  209. Text #13

  210. ID : 15

  211. Format : UTF-8

  212. Codec ID : S_TEXT/UTF8

  213. Codec ID/Info : UTF-8 Plain Text

  214. Duration : 1 h 28 min

  215. Bit rate : 61 b/s

  216. Frame rate : 0.243 FPS

  217. Count of elements : 1290

  218. Stream size : 39.8 KiB (0%)

  219. Language : Japanese

  220. Default : No

  221. Forced : No


  222. Text #14

  223. ID : 16

  224. Format : UTF-8

  225. Codec ID : S_TEXT/UTF8

  226. Codec ID/Info : UTF-8 Plain Text

  227. Duration : 1 h 28 min

  228. Bit rate : 80 b/s

  229. Frame rate : 0.259 FPS

  230. Count of elements : 1371

  231. Stream size : 52.1 KiB (0%)

  232. Language : Korean

  233. Default : No

  234. Forced : No


  235. Text #15

  236. ID : 17

  237. Format : UTF-8

  238. Codec ID : S_TEXT/UTF8

  239. Codec ID/Info : UTF-8 Plain Text

  240. Duration : 1 h 28 min

  241. Bit rate : 72 b/s

  242. Frame rate : 0.224 FPS

  243. Count of elements : 1189

  244. Stream size : 47.0 KiB (0%)

  245. Language : Dutch

  246. Default : No

  247. Forced : No


  248. Text #16

  249. ID : 18

  250. Format : UTF-8

  251. Codec ID : S_TEXT/UTF8

  252. Codec ID/Info : UTF-8 Plain Text

  253. Duration : 1 h 28 min

  254. Bit rate : 71 b/s

  255. Frame rate : 0.250 FPS

  256. Count of elements : 1326

  257. Stream size : 46.5 KiB (0%)

  258. Language : Norwegian

  259. Default : No

  260. Forced : No


  261. Text #17

  262. ID : 19

  263. Format : UTF-8

  264. Codec ID : S_TEXT/UTF8

  265. Codec ID/Info : UTF-8 Plain Text

  266. Duration : 1 h 28 min

  267. Bit rate : 70 b/s

  268. Frame rate : 0.257 FPS

  269. Count of elements : 1362

  270. Stream size : 45.5 KiB (0%)

  271. Language : Polish

  272. Default : No

  273. Forced : No


  274. Text #18

  275. ID : 20

  276. Format : UTF-8

  277. Codec ID : S_TEXT/UTF8

  278. Codec ID/Info : UTF-8 Plain Text

  279. Duration : 1 h 28 min

  280. Bit rate : 73 b/s

  281. Frame rate : 0.261 FPS

  282. Count of elements : 1380

  283. Stream size : 47.8 KiB (0%)

  284. Language : Portuguese

  285. Default : No

  286. Forced : No


  287. Text #19

  288. ID : 21

  289. Format : UTF-8

  290. Codec ID : S_TEXT/UTF8

  291. Codec ID/Info : UTF-8 Plain Text

  292. Duration : 1 h 28 min

  293. Bit rate : 73 b/s

  294. Frame rate : 0.253 FPS

  295. Count of elements : 1338

  296. Stream size : 47.7 KiB (0%)

  297. Title : Brazilian

  298. Language : Portuguese

  299. Default : No

  300. Forced : No


  301. Text #20

  302. ID : 22

  303. Format : UTF-8

  304. Codec ID : S_TEXT/UTF8

  305. Codec ID/Info : UTF-8 Plain Text

  306. Duration : 1 h 28 min

  307. Bit rate : 71 b/s

  308. Frame rate : 0.223 FPS

  309. Count of elements : 1182

  310. Stream size : 46.0 KiB (0%)

  311. Language : Romanian

  312. Default : No

  313. Forced : No


  314. Text #21

  315. ID : 23

  316. Format : UTF-8

  317. Codec ID : S_TEXT/UTF8

  318. Codec ID/Info : UTF-8 Plain Text

  319. Duration : 1 h 28 min

  320. Bit rate : 75 b/s

  321. Frame rate : 0.262 FPS

  322. Count of elements : 1389

  323. Stream size : 48.9 KiB (0%)

  324. Language : Slovak

  325. Default : No

  326. Forced : No


  327. Text #22

  328. ID : 24

  329. Format : UTF-8

  330. Codec ID : S_TEXT/UTF8

  331. Codec ID/Info : UTF-8 Plain Text

  332. Duration : 1 h 28 min

  333. Bit rate : 74 b/s

  334. Frame rate : 0.257 FPS

  335. Count of elements : 1361

  336. Stream size : 48.3 KiB (0%)

  337. Language : Swedish

  338. Default : No

  339. Forced : No


  340. Text #23

  341. ID : 25

  342. Format : UTF-8

  343. Codec ID : S_TEXT/UTF8

  344. Codec ID/Info : UTF-8 Plain Text

  345. Duration : 1 h 28 min

  346. Bit rate : 80 b/s

  347. Frame rate : 0.263 FPS

  348. Count of elements : 1392

  349. Stream size : 52.3 KiB (0%)

  350. Language : Turkish

  351. Default : No

  352. Forced : No


  353. Text #24

  354. ID : 26

  355. Format : UTF-8

  356. Codec ID : S_TEXT/UTF8

  357. Codec ID/Info : UTF-8 Plain Text

  358. Duration : 1 h 28 min

  359. Bit rate : 65 b/s

  360. Frame rate : 0.263 FPS

  361. Count of elements : 1394

  362. Stream size : 42.3 KiB (0%)

  363. Title : Hong Kong

  364. Language : Chinese

  365. Default : No

  366. Forced : No


  367. Text #25

  368. ID : 27

  369. Format : UTF-8

  370. Codec ID : S_TEXT/UTF8

  371. Codec ID/Info : UTF-8 Plain Text

  372. Duration : 1 h 28 min

  373. Bit rate : 71 b/s

  374. Frame rate : 0.261 FPS

  375. Count of elements : 1385

  376. Stream size : 46.0 KiB (0%)

  377. Title : Simplified

  378. Language : Chinese

  379. Default : No

  380. Forced : No


  381. Text #26

  382. ID : 28

  383. Format : UTF-8

  384. Codec ID : S_TEXT/UTF8

  385. Codec ID/Info : UTF-8 Plain Text

  386. Duration : 1 h 28 min

  387. Bit rate : 73 b/s

  388. Frame rate : 0.265 FPS

  389. Count of elements : 1403

  390. Stream size : 47.3 KiB (0%)

  391. Title : Traditional

  392. Language : Chinese

  393. Default : No

  394. Forced : No

复制代码

僵尸高校3[中文字幕].Zombies.3.2022.2160p.WEB DL.x265.8bit.SDR.DDP5.1.Atmos NOGRP 12.79GB  欧美电影  第3张 僵尸高校3[中文字幕].Zombies.3.2022.2160p.WEB DL.x265.8bit.SDR.DDP5.1.Atmos NOGRP 12.79GB  欧美电影  第4张 僵尸高校3[中文字幕].Zombies.3.2022.2160p.WEB DL.x265.8bit.SDR.DDP5.1.Atmos NOGRP 12.79GB  欧美电影  第5张



文件下载


除非特别注明,本文『僵尸高校3[中文字幕].Zombies.3.2022.2160p.WEB-DL.x265.8bit.SDR.DDP5.1.Atmos-NOGRP 12.79GB』来源于互联网机器人自动抓取,非本站原创。 浮游电影网不对本文拥有版权,如有侵犯,请联系邮箱:fuyouu#yandex.com[#换成@]投诉。我们会在15个工作日内删除。 但烦请转载时请标明出处:“本文转载于『浮游电影网』,原文地址:https://www.fuyouu.com/22685.html

评论吧骚年!

发表你的见解   

昵称*

E-mail*(建议输入,以便收到博主回复的提示邮件)

验证码*

您可以使用eMule或eMule Mod(Windows)、aMule(Win、Linux、Mac)等软件下载eD2k链接。。
eMule收藏集(.emulecollection)文件是您选中的所有链接的列表文件。eMule可以直接下载它们。
按住SHIFT键选择可以选中多个选择框。
可用文件名和大小选择器来选择文件。
文件名选择器帮您根据文件名称或后缀来选择文件。不分大小写。
符号使用:
和:空格( )、+
不包含:-
或:|
转义:一对英文引号("");
匹配开头:^
匹配结尾:$
例如:
选中所有名称中包含有“eMule”或“0.49c”字眼,但不包含有“exe”字眼的:emule|0.49c -exe
选中所有名称的开头是“eMule”,结尾是“0.49c”的:^emule 0.49c$
选中所有名称中带有“eMule 0.49c”的(必须是“eMule 0.49c”,中间没有别的字符,不能是“eMule fake 0.49c”),需要转义:"emule 0.49c"
大小选择器帮您根据文件大小选择文件。