当前位置: 首页 >> 欧美电影 >> 劝导[中文字幕].Persuasion.2022.1080p.NF.WEBRip.DDP5.1.Atmos.x264-SMURF 5.76GB >> 正文

劝导[中文字幕].Persuasion.2022.1080p.NF.WEBRip.DDP5.1.Atmos.x264-SMURF 5.76GB

2022年07月15日 21:40:48     电影发布:来源于网络     电影分类:欧美电影     评论(0)    

劝导[中文字幕].Persuasion.2022.1080p.NF.WEBRip.DDP5.1.Atmos.x264 SMURF 5.76GB  欧美电影  第1张

劝导[中文字幕].Persuasion.2022.1080p.NF.WEBRip.DDP5.1.Atmos.x264 SMURF 5.76GB  欧美电影  第2张

◎译 名 劝导

◎片 名 Persuasion

◎年 代 2022

◎产 地 美国

◎类 别 剧情 / 爱情

◎语 言 英语

◎上映日期 2022-07-15(美国网络)

◎IMDb链接 https://www.imdb.com/title/tt13456318/

◎豆瓣链接 https://movie.douban.com/subject/35440266/

◎导 演 凯莉·克拉克奈尔 Carrie Cracknell (id:1450408)

◎编 剧 简·奥斯汀 Jane Austen (id:1036703)

罗纳德·巴斯 Ronald Bass (id:1000687)

◎演 员 达科塔·约翰逊 Dakota Johnson (id:1027325)

柯斯莫·贾维斯 Cosmo Jarvis (id:1375875)

亨利·戈尔丁 Henry Golding (id:1392013)

理查德·E·格兰特 Richard E. Grant (id:1048188)

妮基·阿姆卡-伯德 Nikki Amuka-Bird (id:1332073)

本·贝利·史密斯 Ben Bailey Smith (id:1444755)

爱德华·布卢梅尔 Edward Bluemel (id:1402703)

米娅·麦肯纳·布鲁斯 Mia McKenna-Bruce (id:1428312)

尤兰达·凯罗 Yolanda Kettle (id:1384159)

珍妮特·亨弗瑞 Janet Henfrey (id:1342885)

阿格尼·斯科特 Agni Scott (id:1355677)

乔丹·朗 Jordan Long (id:1348269)

斯图尔特·斯卡德莫尔 Stewart Scudamore (id:1313127)

Richard Lloyd-Knight (id:1471106)

玛丽安·阿格托夫特 Marianne Agertoft (id:1465321)

◎简 介

达科塔·约翰逊将主演新片《劝导》,改编自简·奥斯汀同名小说,托尼奖提名戏剧导演凯莉·克拉克内尔首次执导剧情长片。

本片是现代版改编,讲述安妮·艾略特是个具有新潮情感、不顺从常规的女人,和她势利、濒临破产的家人生活在一起。当安妮曾经打发走的风度翩翩、时髦潇洒的弗雷德里克·温特沃斯重新出现,她必须做出选择:把过去抛在脑后,或是有第二次机会听从自己的内心。

罗纳德·巴斯(《雨人》《我最好朋友的婚礼》)和爱丽丝·维多利亚·温斯洛写剧本,Netflix和MRC Film联合制作,5月开拍。

  1. Video

  2. ID : 1

  3. Format : AVC

  4. Format/Info : Advanced Video Codec

  5. Format profile : [email protected]

  6. Format settings : CABAC / 4 Ref Frames

  7. Format settings, CABAC : Yes

  8. Format settings, Reference frames : 4 frames

  9. Codec ID : V_MPEG4/ISO/AVC

  10. Duration : 1 h 49 min

  11. Bit rate mode : Variable

  12. Bit rate : 6 734 kb/s

  13. Maximum bit rate : 20.0 Mb/s

  14. Width : 1 920 pixels

  15. Height : 1 080 pixels

  16. Display aspect ratio : 16:9

  17. Frame rate mode : Constant

  18. Frame rate : 24.000 FPS

  19. Color space : YUV

  20. Chroma subsampling : 4:2:0

  21. Bit depth : 8 bits

  22. Scan type : Progressive

  23. Bits/(Pixel*Frame) : 0.135

  24. Stream size : 5.16 GiB (90%)

  25. Writing library : x264 core 148 r2727 7d026e8

  26. Encoding settings : cabac=1 / ref=4 / deblock=1:0:0 / analyse=0x3:0x111 / me=umh / subme=10 / psy=1 / psy_rd=1.00:0.00 / mixed_ref=1 / me_range=120 / chroma_me=1 / trellis=2 / 8x8dct=1 / cqm=0 / deadzone=21,11 / fast_pskip=1 / chroma_qp_offset=-2 / threads=8 / lookahead_threads=2 / sliced_threads=0 / nr=0 / decimate=1 / interlaced=0 / NTMzNTQ= / bluray_compat=0 / stitchable=1 / constrained_intra=0 / bframes=16 / b_pyramid=2 / b_adapt=2 / b_bias=0 / direct=3 / weightb=1 / open_gop=0 / weightp=2 / keyint=240 / keyint_min=121 / scenecut=0 / intra_refresh=0 / rc_lookahead=240 / rc=crf / mbtree=1 / crf=16.0 / qcomp=0.50 / qpmin=6 / qpmax=51 / qpstep=4 / vbv_maxrate=20000 / vbv_bufsize=25000 / crf_max=0.0 / nal_hrd=vbr / filler=0 / NTMzNTQ=LmsMAP37EqsCpk / ip_ratio=1.40 / aq=1:0.80

  27. Default : Yes

  28. Forced : No


  29. Audio

  30. ID : 2

  31. Format : E-AC-3 JOC

  32. Format/Info : Enhanced AC-3 with Joint Object Coding

  33. Commercial name : Dolby Digital Plus with Dolby Atmos

  34. Codec ID : A_EAC3

  35. Duration : 1 h 49 min

  36. Bit rate mode : Constant

  37. Bit rate : 768 kb/s

  38. Channel(s) : 6 channels

  39. Channel layout : L R C LFE Ls Rs

  40. Sampling rate : 48.0 kHz

  41. Frame rate : 31.250 FPS (1536 SPF)

  42. Compression mode : Lossy

  43. Stream size : 603 MiB (10%)

  44. Language : English

  45. Service kind : Complete Main

  46. Default : Yes

  47. Forced : No

  48. Complexity index : 16

  49. Number of dynamic objects : 15

  50. Bed channel count : 1 channel

  51. Bed channel configuration : LFE


  52. Text #1

  53. ID : 3

  54. Format : UTF-8

  55. Codec ID : S_TEXT/UTF8

  56. Codec ID/Info : UTF-8 Plain Text

  57. Duration : 30 s 250 ms

  58. Bit rate : 26 b/s

  59. Frame rate : 0.132 FPS

  60. Count of elements : 4

  61. Stream size : 101 Bytes (0%)

  62. Title : Forced

  63. Language : English

  64. Default : Yes

  65. Forced : Yes


  66. Text #2

  67. ID : 4

  68. Format : UTF-8

  69. Codec ID : S_TEXT/UTF8

  70. Codec ID/Info : UTF-8 Plain Text

  71. Duration : 1 h 41 min

  72. Bit rate : 65 b/s

  73. Frame rate : 0.219 FPS

  74. Count of elements : 1339

  75. Stream size : 49.0 KiB (0%)

  76. Language : English

  77. Default : No

  78. Forced : No


  79. Text #3

  80. ID : 5

  81. Format : UTF-8

  82. Codec ID : S_TEXT/UTF8

  83. Codec ID/Info : UTF-8 Plain Text

  84. Duration : 1 h 47 min

  85. Bit rate : 70 b/s

  86. Frame rate : 0.242 FPS

  87. Count of elements : 1559

  88. Stream size : 55.4 KiB (0%)

  89. Title : SDH

  90. Language : English

  91. Default : No

  92. Forced : No


  93. Text #4

  94. ID : 6

  95. Format : UTF-8

  96. Codec ID : S_TEXT/UTF8

  97. Codec ID/Info : UTF-8 Plain Text

  98. Duration : 1 h 47 min

  99. Bit rate : 96 b/s

  100. Frame rate : 0.215 FPS

  101. Count of elements : 1381

  102. Stream size : 75.8 KiB (0%)

  103. Language : Arabic

  104. Default : No

  105. Forced : No


  106. Text #5

  107. ID : 7

  108. Format : UTF-8

  109. Codec ID : S_TEXT/UTF8

  110. Codec ID/Info : UTF-8 Plain Text

  111. Duration : 1 h 47 min

  112. Bit rate : 57 b/s

  113. Frame rate : 0.201 FPS

  114. Count of elements : 1289

  115. Stream size : 44.8 KiB (0%)

  116. Language : Catalan

  117. Default : No

  118. Forced : No


  119. Text #6

  120. ID : 8

  121. Format : UTF-8

  122. Codec ID : S_TEXT/UTF8

  123. Codec ID/Info : UTF-8 Plain Text

  124. Duration : 1 h 47 min

  125. Bit rate : 58 b/s

  126. Frame rate : 0.208 FPS

  127. Count of elements : 1340

  128. Stream size : 45.6 KiB (0%)

  129. Language : Czech

  130. Default : No

  131. Forced : No


  132. Text #7

  133. ID : 9

  134. Format : UTF-8

  135. Codec ID : S_TEXT/UTF8

  136. Codec ID/Info : UTF-8 Plain Text

  137. Duration : 1 h 47 min

  138. Bit rate : 56 b/s

  139. Frame rate : 0.192 FPS

  140. Count of elements : 1233

  141. Stream size : 44.2 KiB (0%)

  142. Language : Danish

  143. Default : No

  144. Forced : No


  145. Text #8

  146. ID : 10

  147. Format : UTF-8

  148. Codec ID : S_TEXT/UTF8

  149. Codec ID/Info : UTF-8 Plain Text

  150. Duration : 1 h 47 min

  151. Bit rate : 57 b/s

  152. Frame rate : 0.204 FPS

  153. Count of elements : 1314

  154. Stream size : 45.5 KiB (0%)

  155. Language : German

  156. Default : No

  157. Forced : No


  158. Text #9

  159. ID : 11

  160. Format : UTF-8

  161. Codec ID : S_TEXT/UTF8

  162. Codec ID/Info : UTF-8 Plain Text

  163. Duration : 1 h 47 min

  164. Bit rate : 100 b/s

  165. Frame rate : 0.208 FPS

  166. Count of elements : 1335

  167. Stream size : 79.1 KiB (0%)

  168. Language : Greek

  169. Default : No

  170. Forced : No


  171. Text #10

  172. ID : 12

  173. Format : UTF-8

  174. Codec ID : S_TEXT/UTF8

  175. Codec ID/Info : UTF-8 Plain Text

  176. Duration : 1 h 42 min

  177. Bit rate : 66 b/s

  178. Frame rate : 0.229 FPS

  179. Count of elements : 1417

  180. Stream size : 50.0 KiB (0%)

  181. Title : Latin American

  182. Language : Spanish

  183. Default : No

  184. Forced : No


  185. Text #11

  186. ID : 13

  187. Format : UTF-8

  188. Codec ID : S_TEXT/UTF8

  189. Codec ID/Info : UTF-8 Plain Text

  190. Duration : 1 h 47 min

  191. Bit rate : 59 b/s

  192. Frame rate : 0.204 FPS

  193. Count of elements : 1309

  194. Stream size : 46.8 KiB (0%)

  195. Title : Latin American

  196. Language : Spanish

  197. Default : No

  198. Forced : No


  199. Text #12

  200. ID : 14

  201. Format : UTF-8

  202. Codec ID : S_TEXT/UTF8

  203. Codec ID/Info : UTF-8 Plain Text

  204. Duration : 1 h 43 min

  205. Bit rate : 69 b/s

  206. Frame rate : 0.241 FPS

  207. Count of elements : 1489

  208. Stream size : 52.3 KiB (0%)

  209. Title : Latin American (SDH)

  210. Language : Spanish

  211. Default : No

  212. Forced : No


  213. Text #13

  214. ID : 15

  215. Format : UTF-8

  216. Codec ID : S_TEXT/UTF8

  217. Codec ID/Info : UTF-8 Plain Text

  218. Duration : 1 h 47 min

  219. Bit rate : 57 b/s

  220. Frame rate : 0.212 FPS

  221. Count of elements : 1363

  222. Stream size : 44.9 KiB (0%)

  223. Language : Spanish

  224. Default : No

  225. Forced : No


  226. Text #14

  227. ID : 16

  228. Format : UTF-8

  229. Codec ID : S_TEXT/UTF8

  230. Codec ID/Info : UTF-8 Plain Text

  231. Duration : 1 h 47 min

  232. Bit rate : 55 b/s

  233. Frame rate : 0.181 FPS

  234. Count of elements : 1165

  235. Stream size : 43.8 KiB (0%)

  236. Language : Finnish

  237. Default : No

  238. Forced : No


  239. Text #15

  240. ID : 17

  241. Format : UTF-8

  242. Codec ID : S_TEXT/UTF8

  243. Codec ID/Info : UTF-8 Plain Text

  244. Duration : 1 h 47 min

  245. Bit rate : 60 b/s

  246. Frame rate : 0.204 FPS

  247. Count of elements : 1308

  248. Stream size : 47.7 KiB (0%)

  249. Language : fil

  250. Default : No

  251. Forced : No


  252. Text #16

  253. ID : 18

  254. Format : UTF-8

  255. Codec ID : S_TEXT/UTF8

  256. Codec ID/Info : UTF-8 Plain Text

  257. Duration : 1 h 47 min

  258. Bit rate : 57 b/s

  259. Frame rate : 0.203 FPS

  260. Count of elements : 1306

  261. Stream size : 44.7 KiB (0%)

  262. Language : French

  263. Default : No

  264. Forced : No


  265. Text #17

  266. ID : 19

  267. Format : UTF-8

  268. Codec ID : S_TEXT/UTF8

  269. Codec ID/Info : UTF-8 Plain Text

  270. Duration : 1 h 47 min

  271. Bit rate : 53 b/s

  272. Frame rate : 0.204 FPS

  273. Count of elements : 1310

  274. Stream size : 42.2 KiB (0%)

  275. Language : Galician

  276. Default : No

  277. Forced : No


  278. Text #18

  279. ID : 20

  280. Format : UTF-8

  281. Codec ID : S_TEXT/UTF8

  282. Codec ID/Info : UTF-8 Plain Text

  283. Duration : 1 h 47 min

  284. Bit rate : 92 b/s

  285. Frame rate : 0.215 FPS

  286. Count of elements : 1380

  287. Stream size : 72.3 KiB (0%)

  288. Language : Hebrew

  289. Default : No

  290. Forced : No


  291. Text #19

  292. ID : 21

  293. Format : UTF-8

  294. Codec ID : S_TEXT/UTF8

  295. Codec ID/Info : UTF-8 Plain Text

  296. Duration : 1 h 47 min

  297. Bit rate : 51 b/s

  298. Frame rate : 0.204 FPS

  299. Count of elements : 1312

  300. Stream size : 40.8 KiB (0%)

  301. Language : Croatian

  302. Default : No

  303. Forced : No


  304. Text #20

  305. ID : 22

  306. Format : UTF-8

  307. Codec ID : S_TEXT/UTF8

  308. Codec ID/Info : UTF-8 Plain Text

  309. Duration : 1 h 47 min

  310. Bit rate : 63 b/s

  311. Frame rate : 0.205 FPS

  312. Count of elements : 1317

  313. Stream size : 49.7 KiB (0%)

  314. Language : Hungarian

  315. Default : No

  316. Forced : No


  317. Text #21

  318. ID : 23

  319. Format : UTF-8

  320. Codec ID : S_TEXT/UTF8

  321. Codec ID/Info : UTF-8 Plain Text

  322. Duration : 1 h 47 min

  323. Bit rate : 55 b/s

  324. Frame rate : 0.203 FPS

  325. Count of elements : 1307

  326. Stream size : 43.2 KiB (0%)

  327. Language : Indonesian

  328. Default : No

  329. Forced : No


  330. Text #22

  331. ID : 24

  332. Format : UTF-8

  333. Codec ID : S_TEXT/UTF8

  334. Codec ID/Info : UTF-8 Plain Text

  335. Duration : 1 h 47 min

  336. Bit rate : 59 b/s

  337. Frame rate : 0.199 FPS

  338. Count of elements : 1279

  339. Stream size : 46.3 KiB (0%)

  340. Language : Italian

  341. Default : No

  342. Forced : No


  343. Text #23

  344. ID : 25

  345. Format : UTF-8

  346. Codec ID : S_TEXT/UTF8

  347. Codec ID/Info : UTF-8 Plain Text

  348. Duration : 1 h 47 min

  349. Bit rate : 57 b/s

  350. Frame rate : 0.211 FPS

  351. Count of elements : 1354

  352. Stream size : 45.3 KiB (0%)

  353. Language : Japanese

  354. Default : No

  355. Forced : No


  356. Text #24

  357. ID : 26

  358. Format : UTF-8

  359. Codec ID : S_TEXT/UTF8

  360. Codec ID/Info : UTF-8 Plain Text

  361. Duration : 1 h 47 min

  362. Bit rate : 74 b/s

  363. Frame rate : 0.213 FPS

  364. Count of elements : 1367

  365. Stream size : 58.7 KiB (0%)

  366. Language : Korean

  367. Default : No

  368. Forced : No


  369. Text #25

  370. ID : 27

  371. Format : UTF-8

  372. Codec ID : S_TEXT/UTF8

  373. Codec ID/Info : UTF-8 Plain Text

  374. Duration : 1 h 47 min

  375. Bit rate : 57 b/s

  376. Frame rate : 0.205 FPS

  377. Count of elements : 1318

  378. Stream size : 45.1 KiB (0%)

  379. Language : Malay

  380. Default : No

  381. Forced : No


  382. Text #26

  383. ID : 28

  384. Format : UTF-8

  385. Codec ID : S_TEXT/UTF8

  386. Codec ID/Info : UTF-8 Plain Text

  387. Duration : 1 h 47 min

  388. Bit rate : 55 b/s

  389. Frame rate : 0.176 FPS

  390. Count of elements : 1129

  391. Stream size : 43.4 KiB (0%)

  392. Language : Norwegian Bokmal

  393. Default : No

  394. Forced : No


  395. Text #27

  396. ID : 29

  397. Format : UTF-8

  398. Codec ID : S_TEXT/UTF8

  399. Codec ID/Info : UTF-8 Plain Text

  400. Duration : 1 h 42 min

  401. Bit rate : 61 b/s

  402. Frame rate : 0.190 FPS

  403. Count of elements : 1176

  404. Stream size : 46.0 KiB (0%)

  405. Language : Dutch

  406. Default : No

  407. Forced : No


  408. Text #28

  409. ID : 30

  410. Format : UTF-8

  411. Codec ID : S_TEXT/UTF8

  412. Codec ID/Info : UTF-8 Plain Text

  413. Duration : 1 h 47 min

  414. Bit rate : 53 b/s

  415. Frame rate : 0.238 FPS

  416. Count of elements : 1532

  417. Stream size : 42.4 KiB (0%)

  418. Language : Polish

  419. Default : No

  420. Forced : No


  421. Text #29

  422. ID : 31

  423. Format : UTF-8

  424. Codec ID : S_TEXT/UTF8

  425. Codec ID/Info : UTF-8 Plain Text

  426. Duration : 1 h 42 min

  427. Bit rate : 70 b/s

  428. Frame rate : 0.233 FPS

  429. Count of elements : 1442

  430. Stream size : 53.0 KiB (0%)

  431. Title : Brazilian

  432. Language : Portuguese

  433. Default : No

  434. Forced : No


  435. Text #30

  436. ID : 32

  437. Format : UTF-8

  438. Codec ID : S_TEXT/UTF8

  439. Codec ID/Info : UTF-8 Plain Text

  440. Duration : 1 h 47 min

  441. Bit rate : 57 b/s

  442. Frame rate : 0.203 FPS

  443. Count of elements : 1302

  444. Stream size : 45.1 KiB (0%)

  445. Title : Brazilian

  446. Language : Portuguese

  447. Default : No

  448. Forced : No


  449. Text #31

  450. ID : 33

  451. Format : UTF-8

  452. Codec ID : S_TEXT/UTF8

  453. Codec ID/Info : UTF-8 Plain Text

  454. Duration : 1 h 47 min

  455. Bit rate : 75 b/s

  456. Frame rate : 0.254 FPS

  457. Count of elements : 1637

  458. Stream size : 59.3 KiB (0%)

  459. Title : Brazilian (SDH)

  460. Language : Portuguese

  461. Default : No

  462. Forced : No


  463. Text #32

  464. ID : 34

  465. Format : UTF-8

  466. Codec ID : S_TEXT/UTF8

  467. Codec ID/Info : UTF-8 Plain Text

  468. Duration : 1 h 47 min

  469. Bit rate : 59 b/s

  470. Frame rate : 0.203 FPS

  471. Count of elements : 1307

  472. Stream size : 46.3 KiB (0%)

  473. Language : Portuguese

  474. Default : No

  475. Forced : No


  476. Text #33

  477. ID : 35

  478. Format : UTF-8

  479. Codec ID : S_TEXT/UTF8

  480. Codec ID/Info : UTF-8 Plain Text

  481. Duration : 1 h 47 min

  482. Bit rate : 66 b/s

  483. Frame rate : 0.202 FPS

  484. Count of elements : 1300

  485. Stream size : 52.3 KiB (0%)

  486. Language : Romanian

  487. Default : No

  488. Forced : No


  489. Text #34

  490. ID : 36

  491. Format : UTF-8

  492. Codec ID : S_TEXT/UTF8

  493. Codec ID/Info : UTF-8 Plain Text

  494. Duration : 1 h 47 min

  495. Bit rate : 96 b/s

  496. Frame rate : 0.201 FPS

  497. Count of elements : 1292

  498. Stream size : 76.1 KiB (0%)

  499. Language : Russian

  500. Default : No

  501. Forced : No


  502. Text #35

  503. ID : 37

  504. Format : UTF-8

  505. Codec ID : S_TEXT/UTF8

  506. Codec ID/Info : UTF-8 Plain Text

  507. Duration : 1 h 47 min

  508. Bit rate : 57 b/s

  509. Frame rate : 0.184 FPS

  510. Count of elements : 1180

  511. Stream size : 45.4 KiB (0%)

  512. Language : Swedish

  513. Default : No

  514. Forced : No


  515. Text #36

  516. ID : 38

  517. Format : UTF-8

  518. Codec ID : S_TEXT/UTF8

  519. Codec ID/Info : UTF-8 Plain Text

  520. Duration : 1 h 47 min

  521. Bit rate : 161 b/s

  522. Frame rate : 0.206 FPS

  523. Count of elements : 1322

  524. Stream size : 127 KiB (0%)

  525. Language : Thai

  526. Default : No

  527. Forced : No


  528. Text #37

  529. ID : 39

  530. Format : UTF-8

  531. Codec ID : S_TEXT/UTF8

  532. Codec ID/Info : UTF-8 Plain Text

  533. Duration : 1 h 47 min

  534. Bit rate : 60 b/s

  535. Frame rate : 0.196 FPS

  536. Count of elements : 1259

  537. Stream size : 47.4 KiB (0%)

  538. Language : Turkish

  539. Default : No

  540. Forced : No


  541. Text #38

  542. ID : 40

  543. Format : UTF-8

  544. Codec ID : S_TEXT/UTF8

  545. Codec ID/Info : UTF-8 Plain Text

  546. Duration : 1 h 47 min

  547. Bit rate : 91 b/s

  548. Frame rate : 0.201 FPS

  549. Count of elements : 1289

  550. Stream size : 71.9 KiB (0%)

  551. Language : Ukrainian

  552. Default : No

  553. Forced : No


  554. Text #39

  555. ID : 41

  556. Format : UTF-8

  557. Codec ID : S_TEXT/UTF8

  558. Codec ID/Info : UTF-8 Plain Text

  559. Duration : 1 h 47 min

  560. Bit rate : 83 b/s

  561. Frame rate : 0.204 FPS

  562. Count of elements : 1311

  563. Stream size : 65.4 KiB (0%)

  564. Language : Vietnamese

  565. Default : No

  566. Forced : No


  567. Text #40

  568. ID : 42

  569. Format : UTF-8

  570. Codec ID : S_TEXT/UTF8

  571. Codec ID/Info : UTF-8 Plain Text

  572. Duration : 1 h 47 min

  573. Bit rate : 63 b/s

  574. Frame rate : 0.206 FPS

  575. Count of elements : 1322

  576. Stream size : 49.8 KiB (0%)

  577. Title : Simplified

  578. Language : Chinese

  579. Default : No

  580. Forced : No


  581. Text #41

  582. ID : 43

  583. Format : UTF-8

  584. Codec ID : S_TEXT/UTF8

  585. Codec ID/Info : UTF-8 Plain Text

  586. Duration : 1 h 47 min

  587. Bit rate : 57 b/s

  588. Frame rate : 0.219 FPS

  589. Count of elements : 1410

  590. Stream size : 44.9 KiB (0%)

  591. Title : Traditional

  592. Language : Chinese

  593. Default : No

  594. Forced : No


  595. Menu

  596. 01:43:39.000 : en:Credits

复制代码

劝导[中文字幕].Persuasion.2022.1080p.NF.WEBRip.DDP5.1.Atmos.x264 SMURF 5.76GB  欧美电影  第3张 劝导[中文字幕].Persuasion.2022.1080p.NF.WEBRip.DDP5.1.Atmos.x264 SMURF 5.76GB  欧美电影  第4张 劝导[中文字幕].Persuasion.2022.1080p.NF.WEBRip.DDP5.1.Atmos.x264 SMURF 5.76GB  欧美电影  第5张



文件下载


除非特别注明,本文『劝导[中文字幕].Persuasion.2022.1080p.NF.WEBRip.DDP5.1.Atmos.x264-SMURF 5.76GB』来源于互联网机器人自动抓取,非本站原创。 浮游电影网不对本文拥有版权,如有侵犯,请联系邮箱:fuyouu#yandex.com[#换成@]投诉。我们会在15个工作日内删除。 但烦请转载时请标明出处:“本文转载于『浮游电影网』,原文地址:https://www.fuyouu.com/22684.html

评论吧骚年!

发表你的见解   

昵称*

E-mail*(建议输入,以便收到博主回复的提示邮件)

验证码*

您可以使用eMule或eMule Mod(Windows)、aMule(Win、Linux、Mac)等软件下载eD2k链接。。
eMule收藏集(.emulecollection)文件是您选中的所有链接的列表文件。eMule可以直接下载它们。
按住SHIFT键选择可以选中多个选择框。
可用文件名和大小选择器来选择文件。
文件名选择器帮您根据文件名称或后缀来选择文件。不分大小写。
符号使用:
和:空格( )、+
不包含:-
或:|
转义:一对英文引号("");
匹配开头:^
匹配结尾:$
例如:
选中所有名称中包含有“eMule”或“0.49c”字眼,但不包含有“exe”字眼的:emule|0.49c -exe
选中所有名称的开头是“eMule”,结尾是“0.49c”的:^emule 0.49c$
选中所有名称中带有“eMule 0.49c”的(必须是“eMule 0.49c”,中间没有别的字符,不能是“eMule fake 0.49c”),需要转义:"emule 0.49c"
大小选择器帮您根据文件大小选择文件。