当前位置: 首页 >> 欧美电影 >> 留在身旁[中文字幕].Dont.Make.Me.Go.2022.2160p.AMZN.WEB-DL.x265.10bit.HDR10Plus.DDP5.1-CM 11.94GB >> 正文

留在身旁[中文字幕].Dont.Make.Me.Go.2022.2160p.AMZN.WEB-DL.x265.10bit.HDR10Plus.DDP5.1-CM 11.94GB

2022年07月15日 21:39:49     电影发布:来源于网络     电影分类:欧美电影     评论(0)    

留在身旁[中文字幕].Dont.Make.Me.Go.2022.2160p.AMZN.WEB DL.x265.10bit.HDR10Plus.DDP5.1 CM 11.94GB  欧美电影  第1张

留在身旁[中文字幕].Dont.Make.Me.Go.2022.2160p.AMZN.WEB DL.x265.10bit.HDR10Plus.DDP5.1 CM 11.94GB  欧美电影  第2张

◎译 名 留在身旁

◎片 名 Don't Make Me Go

◎年 代 2022

◎产 地 美国

◎类 别 剧情

◎语 言 英语

◎上映日期 2022-07-15(美国网络)

◎IMDb链接 https://www.imdb.com/title/tt2597804/

◎豆瓣链接 https://movie.douban.com/subject/35498086/

◎片 长 109分钟

◎导 演 汉娜·马克斯 Hannah Marks (id:1000221)

◎编 剧 薇拉·赫伯特 Vera Herbert (id:1403494)

◎演 员 约翰·赵 John Cho (id:1019015)

米娅·伊萨克 Mia Isaac (id:1473008)

卡雅·斯考达里奥 Kaya Scodelario (id:1031178)

乔希·汤姆森 Josh Thomson (id:1373630)

奥蒂斯·丹吉 Otis Dhanji (id:1405972)

斯蒂芬妮娅·欧文 Stefania Owen (id:1242958)

米切尔·霍普 Mitchell Hope (id:1344487)

杰梅奈·克莱门特 Jemaine Clement (id:1013808)

伊丽莎白·霍桑 Elizabeth Hawthorne (id:1286259)

乔丹·穆尼 Jordan Mooney (id:1362951)

Jade Harlow Jade Harlow (id:1096148)

西蒙·米德 Simon Mead (id:1428030)

Arlo Gibson Arlo Gibson (id:1362947)

Claire Chitham Claire Chitham (id:1070020)

莫嘉娜·奥莱利 Morgana O'Reilly (id:1346137)

汉娜·马克斯 Hannah Marks (id:1000221)

◎简 介

When a single father to a teenage daughter learns that he has a fatal brain tumor, he takes her on a road trip to find the mother who abandoned her years before and to try to teach her everything she might need over the rest of her life.

  1. Video

  2. ID : 1

  3. Format : HEVC

  4. Format/Info : High Efficiency Video Coding

  5. Format profile : Main [email protected]@Main

  6. HDR format : SMPTE ST 2094 App 4, Version 1, HDR10+ Profile B compatible

  7. Codec ID : V_MPEGH/ISO/HEVC

  8. Duration : 1 h 50 min

  9. Bit rate : 14.8 Mb/s

  10. Width : 3 840 pixels

  11. Height : 2 160 pixels

  12. Display aspect ratio : 16:9

  13. Frame rate mode : Constant

  14. Frame rate : 23.976 (24000/1001/53354) FPS

  15. Color space : YUV

  16. Chroma subsampling : 4:2:0

  17. Bit depth : 10 bits

  18. Bits/(Pixel*Frame) : 0.074

  19. Stream size : 11.4 GiB (96%)

  20. Language : English

  21. Default : Yes

  22. Forced : No

  23. Color range : Limited

  24. Color primaries : BT.2020

  25. Transfer characteristics : PQ

  26. Matrix coefficients : BT.2020 non-constant

  27. Mastering display color primaries : Display P3

  28. Mastering display luminance : min: 0.0001 cd/m2, max: 1000 cd/m2

  29. Maximum Content Light Level : 365 cd/m2

  30. Maximum Frame-Average Light Level : 211 cd/m2


  31. Audio

  32. ID : 2

  33. Format : E-AC-3

  34. Format/Info : Enhanced AC-3

  35. Commercial name : Dolby Digital Plus

  36. Codec ID : A_EAC3

  37. Duration : 1 h 50 min

  38. Bit rate mode : Constant

  39. Bit rate : 640 kb/s

  40. Channel(s) : 6 channels

  41. Channel layout : L R C LFE Ls Rs

  42. Sampling rate : 48.0 kHz

  43. Frame rate : 31.250 FPS (1536 SPF)

  44. Compression mode : Lossy

  45. Stream size : 508 MiB (4%)

  46. Language : English

  47. Service kind : Complete Main

  48. Default : Yes

  49. Forced : No


  50. Text #1

  51. ID : 3

  52. Format : UTF-8

  53. Codec ID : S_TEXT/UTF8

  54. Codec ID/Info : UTF-8 Plain Text

  55. Duration : 1 h 31 min

  56. Bit rate : 0 b/s

  57. Frame rate : 0.001 FPS

  58. Count of elements : 5

  59. Stream size : 100 Bytes (0%)

  60. Title : Forced

  61. Language : English

  62. Default : Yes

  63. Forced : Yes


  64. Text #2

  65. ID : 4

  66. Format : UTF-8

  67. Codec ID : S_TEXT/UTF8

  68. Codec ID/Info : UTF-8 Plain Text

  69. Duration : 1 h 49 min

  70. Bit rate : 74 b/s

  71. Frame rate : 0.309 FPS

  72. Count of elements : 2030

  73. Stream size : 59.7 KiB (0%)

  74. Title : SDH

  75. Language : English

  76. Default : No

  77. Forced : No


  78. Text #3

  79. ID : 5

  80. Format : UTF-8

  81. Codec ID : S_TEXT/UTF8

  82. Codec ID/Info : UTF-8 Plain Text

  83. Duration : 1 h 48 min

  84. Bit rate : 65 b/s

  85. Frame rate : 0.276 FPS

  86. Count of elements : 1802

  87. Stream size : 52.4 KiB (0%)

  88. Language : English

  89. Default : No

  90. Forced : No


  91. Text #4

  92. ID : 6

  93. Format : UTF-8

  94. Codec ID : S_TEXT/UTF8

  95. Codec ID/Info : UTF-8 Plain Text

  96. Duration : 1 h 49 min

  97. Bit rate : 100 b/s

  98. Frame rate : 0.178 FPS

  99. Count of elements : 1168

  100. Stream size : 80.5 KiB (0%)

  101. Language : Arabic

  102. Default : No

  103. Forced : No


  104. Text #5

  105. ID : 7

  106. Format : UTF-8

  107. Codec ID : S_TEXT/UTF8

  108. Codec ID/Info : UTF-8 Plain Text

  109. Duration : 1 h 49 min

  110. Bit rate : 50 b/s

  111. Frame rate : 0.177 FPS

  112. Count of elements : 1161

  113. Stream size : 40.1 KiB (0%)

  114. Language : Czech

  115. Default : No

  116. Forced : No


  117. Text #6

  118. ID : 8

  119. Format : UTF-8

  120. Codec ID : S_TEXT/UTF8

  121. Codec ID/Info : UTF-8 Plain Text

  122. Duration : 1 h 49 min

  123. Bit rate : 49 b/s

  124. Frame rate : 0.171 FPS

  125. Count of elements : 1123

  126. Stream size : 40.0 KiB (0%)

  127. Language : Danish

  128. Default : No

  129. Forced : No


  130. Text #7

  131. ID : 9

  132. Format : UTF-8

  133. Codec ID : S_TEXT/UTF8

  134. Codec ID/Info : UTF-8 Plain Text

  135. Duration : 1 h 49 min

  136. Bit rate : 54 b/s

  137. Frame rate : 0.177 FPS

  138. Count of elements : 1160

  139. Stream size : 43.8 KiB (0%)

  140. Language : German

  141. Default : No

  142. Forced : No


  143. Text #8

  144. ID : 10

  145. Format : UTF-8

  146. Codec ID : S_TEXT/UTF8

  147. Codec ID/Info : UTF-8 Plain Text

  148. Duration : 1 h 49 min

  149. Bit rate : 99 b/s

  150. Frame rate : 0.178 FPS

  151. Count of elements : 1167

  152. Stream size : 79.9 KiB (0%)

  153. Language : Greek

  154. Default : No

  155. Forced : No


  156. Text #9

  157. ID : 11

  158. Format : UTF-8

  159. Codec ID : S_TEXT/UTF8

  160. Codec ID/Info : UTF-8 Plain Text

  161. Duration : 1 h 49 min

  162. Bit rate : 54 b/s

  163. Frame rate : 0.177 FPS

  164. Count of elements : 1161

  165. Stream size : 43.8 KiB (0%)

  166. Language : Spanish

  167. Default : No

  168. Forced : No


  169. Text #10

  170. ID : 12

  171. Format : UTF-8

  172. Codec ID : S_TEXT/UTF8

  173. Codec ID/Info : UTF-8 Plain Text

  174. Duration : 1 h 49 min

  175. Bit rate : 52 b/s

  176. Frame rate : 0.177 FPS

  177. Count of elements : 1162

  178. Stream size : 41.9 KiB (0%)

  179. Title : Latin American

  180. Language : Spanish

  181. Default : No

  182. Forced : No


  183. Text #11

  184. ID : 13

  185. Format : UTF-8

  186. Codec ID : S_TEXT/UTF8

  187. Codec ID/Info : UTF-8 Plain Text

  188. Duration : 1 h 49 min

  189. Bit rate : 45 b/s

  190. Frame rate : 0.176 FPS

  191. Count of elements : 1157

  192. Stream size : 36.4 KiB (0%)

  193. Language : Finnish

  194. Default : No

  195. Forced : No


  196. Text #12

  197. ID : 14

  198. Format : UTF-8

  199. Codec ID : S_TEXT/UTF8

  200. Codec ID/Info : UTF-8 Plain Text

  201. Duration : 1 h 49 min

  202. Bit rate : 51 b/s

  203. Frame rate : 0.168 FPS

  204. Count of elements : 1105

  205. Stream size : 41.6 KiB (0%)

  206. Language : fil

  207. Default : No

  208. Forced : No


  209. Text #13

  210. ID : 15

  211. Format : UTF-8

  212. Codec ID : S_TEXT/UTF8

  213. Codec ID/Info : UTF-8 Plain Text

  214. Duration : 1 h 49 min

  215. Bit rate : 51 b/s

  216. Frame rate : 0.176 FPS

  217. Count of elements : 1155

  218. Stream size : 41.2 KiB (0%)

  219. Language : French

  220. Default : No

  221. Forced : No


  222. Text #14

  223. ID : 16

  224. Format : UTF-8

  225. Codec ID : S_TEXT/UTF8

  226. Codec ID/Info : UTF-8 Plain Text

  227. Duration : 1 h 49 min

  228. Bit rate : 89 b/s

  229. Frame rate : 0.178 FPS

  230. Count of elements : 1168

  231. Stream size : 71.6 KiB (0%)

  232. Language : Hebrew

  233. Default : No

  234. Forced : No


  235. Text #15

  236. ID : 17

  237. Format : UTF-8

  238. Codec ID : S_TEXT/UTF8

  239. Codec ID/Info : UTF-8 Plain Text

  240. Duration : 1 h 49 min

  241. Bit rate : 132 b/s

  242. Frame rate : 0.178 FPS

  243. Count of elements : 1168

  244. Stream size : 106 KiB (0%)

  245. Language : Hindi

  246. Default : No

  247. Forced : No


  248. Text #16

  249. ID : 18

  250. Format : UTF-8

  251. Codec ID : S_TEXT/UTF8

  252. Codec ID/Info : UTF-8 Plain Text

  253. Duration : 1 h 49 min

  254. Bit rate : 56 b/s

  255. Frame rate : 0.177 FPS

  256. Count of elements : 1161

  257. Stream size : 45.3 KiB (0%)

  258. Language : Hungarian

  259. Default : No

  260. Forced : No


  261. Text #17

  262. ID : 19

  263. Format : UTF-8

  264. Codec ID : S_TEXT/UTF8

  265. Codec ID/Info : UTF-8 Plain Text

  266. Duration : 1 h 49 min

  267. Bit rate : 53 b/s

  268. Frame rate : 0.177 FPS

  269. Count of elements : 1159

  270. Stream size : 42.5 KiB (0%)

  271. Language : Indonesian

  272. Default : No

  273. Forced : No


  274. Text #18

  275. ID : 20

  276. Format : UTF-8

  277. Codec ID : S_TEXT/UTF8

  278. Codec ID/Info : UTF-8 Plain Text

  279. Duration : 1 h 49 min

  280. Bit rate : 52 b/s

  281. Frame rate : 0.177 FPS

  282. Count of elements : 1160

  283. Stream size : 42.1 KiB (0%)

  284. Language : Italian

  285. Default : No

  286. Forced : No


  287. Text #19

  288. ID : 21

  289. Format : UTF-8

  290. Codec ID : S_TEXT/UTF8

  291. Codec ID/Info : UTF-8 Plain Text

  292. Duration : 1 h 49 min

  293. Bit rate : 46 b/s

  294. Frame rate : 0.245 FPS

  295. Count of elements : 1605

  296. Stream size : 37.4 KiB (0%)

  297. Language : Japanese

  298. Default : No

  299. Forced : No


  300. Text #20

  301. ID : 22

  302. Format : UTF-8

  303. Codec ID : S_TEXT/UTF8

  304. Codec ID/Info : UTF-8 Plain Text

  305. Duration : 1 h 49 min

  306. Bit rate : 66 b/s

  307. Frame rate : 0.178 FPS

  308. Count of elements : 1168

  309. Stream size : 52.9 KiB (0%)

  310. Language : Korean

  311. Default : No

  312. Forced : No


  313. Text #21

  314. ID : 23

  315. Format : UTF-8

  316. Codec ID : S_TEXT/UTF8

  317. Codec ID/Info : UTF-8 Plain Text

  318. Duration : 1 h 49 min

  319. Bit rate : 45 b/s

  320. Frame rate : 0.177 FPS

  321. Count of elements : 1158

  322. Stream size : 36.6 KiB (0%)

  323. Language : Malay

  324. Default : No

  325. Forced : No


  326. Text #22

  327. ID : 24

  328. Format : UTF-8

  329. Codec ID : S_TEXT/UTF8

  330. Codec ID/Info : UTF-8 Plain Text

  331. Duration : 1 h 49 min

  332. Bit rate : 52 b/s

  333. Frame rate : 0.176 FPS

  334. Count of elements : 1157

  335. Stream size : 41.9 KiB (0%)

  336. Language : Norwegian Bokmal

  337. Default : No

  338. Forced : No


  339. Text #23

  340. ID : 25

  341. Format : UTF-8

  342. Codec ID : S_TEXT/UTF8

  343. Codec ID/Info : UTF-8 Plain Text

  344. Duration : 1 h 49 min

  345. Bit rate : 50 b/s

  346. Frame rate : 0.165 FPS

  347. Count of elements : 1084

  348. Stream size : 40.2 KiB (0%)

  349. Language : Dutch

  350. Default : No

  351. Forced : No


  352. Text #24

  353. ID : 26

  354. Format : UTF-8

  355. Codec ID : S_TEXT/UTF8

  356. Codec ID/Info : UTF-8 Plain Text

  357. Duration : 1 h 49 min

  358. Bit rate : 54 b/s

  359. Frame rate : 0.175 FPS

  360. Count of elements : 1150

  361. Stream size : 43.2 KiB (0%)

  362. Language : Polish

  363. Default : No

  364. Forced : No


  365. Text #25

  366. ID : 27

  367. Format : UTF-8

  368. Codec ID : S_TEXT/UTF8

  369. Codec ID/Info : UTF-8 Plain Text

  370. Duration : 1 h 49 min

  371. Bit rate : 54 b/s

  372. Frame rate : 0.177 FPS

  373. Count of elements : 1159

  374. Stream size : 43.7 KiB (0%)

  375. Language : Portuguese

  376. Default : No

  377. Forced : No


  378. Text #26

  379. ID : 28

  380. Format : UTF-8

  381. Codec ID : S_TEXT/UTF8

  382. Codec ID/Info : UTF-8 Plain Text

  383. Duration : 1 h 49 min

  384. Bit rate : 51 b/s

  385. Frame rate : 0.171 FPS

  386. Count of elements : 1124

  387. Stream size : 40.9 KiB (0%)

  388. Title : Brazilian

  389. Language : Portuguese

  390. Default : No

  391. Forced : No


  392. Text #27

  393. ID : 29

  394. Format : UTF-8

  395. Codec ID : S_TEXT/UTF8

  396. Codec ID/Info : UTF-8 Plain Text

  397. Duration : 1 h 49 min

  398. Bit rate : 55 b/s

  399. Frame rate : 0.177 FPS

  400. Count of elements : 1159

  401. Stream size : 44.4 KiB (0%)

  402. Language : Romanian

  403. Default : No

  404. Forced : No


  405. Text #28

  406. ID : 30

  407. Format : UTF-8

  408. Codec ID : S_TEXT/UTF8

  409. Codec ID/Info : UTF-8 Plain Text

  410. Duration : 1 h 49 min

  411. Bit rate : 90 b/s

  412. Frame rate : 0.178 FPS

  413. Count of elements : 1169

  414. Stream size : 72.3 KiB (0%)

  415. Language : Russian

  416. Default : No

  417. Forced : No


  418. Text #29

  419. ID : 31

  420. Format : UTF-8

  421. Codec ID : S_TEXT/UTF8

  422. Codec ID/Info : UTF-8 Plain Text

  423. Duration : 1 h 49 min

  424. Bit rate : 54 b/s

  425. Frame rate : 0.177 FPS

  426. Count of elements : 1159

  427. Stream size : 43.3 KiB (0%)

  428. Language : Swedish

  429. Default : No

  430. Forced : No


  431. Text #30

  432. ID : 32

  433. Format : UTF-8

  434. Codec ID : S_TEXT/UTF8

  435. Codec ID/Info : UTF-8 Plain Text

  436. Duration : 1 h 49 min

  437. Bit rate : 145 b/s

  438. Frame rate : 0.178 FPS

  439. Count of elements : 1169

  440. Stream size : 116 KiB (0%)

  441. Language : Tamil

  442. Default : No

  443. Forced : No


  444. Text #31

  445. ID : 33

  446. Format : UTF-8

  447. Codec ID : S_TEXT/UTF8

  448. Codec ID/Info : UTF-8 Plain Text

  449. Duration : 1 h 49 min

  450. Bit rate : 138 b/s

  451. Frame rate : 0.178 FPS

  452. Count of elements : 1168

  453. Stream size : 111 KiB (0%)

  454. Language : Telugu

  455. Default : No

  456. Forced : No


  457. Text #32

  458. ID : 34

  459. Format : UTF-8

  460. Codec ID : S_TEXT/UTF8

  461. Codec ID/Info : UTF-8 Plain Text

  462. Duration : 1 h 49 min

  463. Bit rate : 135 b/s

  464. Frame rate : 0.178 FPS

  465. Count of elements : 1168

  466. Stream size : 109 KiB (0%)

  467. Language : Thai

  468. Default : No

  469. Forced : No


  470. Text #33

  471. ID : 35

  472. Format : UTF-8

  473. Codec ID : S_TEXT/UTF8

  474. Codec ID/Info : UTF-8 Plain Text

  475. Duration : 1 h 49 min

  476. Bit rate : 51 b/s

  477. Frame rate : 0.177 FPS

  478. Count of elements : 1160

  479. Stream size : 41.0 KiB (0%)

  480. Language : Turkish

  481. Default : No

  482. Forced : No


  483. Text #34

  484. ID : 36

  485. Format : UTF-8

  486. Codec ID : S_TEXT/UTF8

  487. Codec ID/Info : UTF-8 Plain Text

  488. Duration : 1 h 49 min

  489. Bit rate : 53 b/s

  490. Frame rate : 0.178 FPS

  491. Count of elements : 1168

  492. Stream size : 43.1 KiB (0%)

  493. Title : Simplified

  494. Language : Chinese

  495. Default : No

  496. Forced : No


  497. Text #35

  498. ID : 37

  499. Format : UTF-8

  500. Codec ID : S_TEXT/UTF8

  501. Codec ID/Info : UTF-8 Plain Text

  502. Duration : 1 h 49 min

  503. Bit rate : 55 b/s

  504. Frame rate : 0.178 FPS

  505. Count of elements : 1168

  506. Stream size : 44.6 KiB (0%)

  507. Title : Traditional

  508. Language : Chinese

  509. Default : No

  510. Forced : No

复制代码

留在身旁[中文字幕].Dont.Make.Me.Go.2022.2160p.AMZN.WEB DL.x265.10bit.HDR10Plus.DDP5.1 CM 11.94GB  欧美电影  第3张 留在身旁[中文字幕].Dont.Make.Me.Go.2022.2160p.AMZN.WEB DL.x265.10bit.HDR10Plus.DDP5.1 CM 11.94GB  欧美电影  第4张 留在身旁[中文字幕].Dont.Make.Me.Go.2022.2160p.AMZN.WEB DL.x265.10bit.HDR10Plus.DDP5.1 CM 11.94GB  欧美电影  第5张



文件下载


除非特别注明,本文『留在身旁[中文字幕].Dont.Make.Me.Go.2022.2160p.AMZN.WEB-DL.x265.10bit.HDR10Plus.DDP5.1-CM 11.94GB』来源于互联网机器人自动抓取,非本站原创。 浮游电影网不对本文拥有版权,如有侵犯,请联系邮箱:fuyouu#yandex.com[#换成@]投诉。我们会在15个工作日内删除。 但烦请转载时请标明出处:“本文转载于『浮游电影网』,原文地址:https://www.fuyouu.com/22683.html

评论吧骚年!

发表你的见解   

昵称*

E-mail*(建议输入,以便收到博主回复的提示邮件)

验证码*

您可以使用eMule或eMule Mod(Windows)、aMule(Win、Linux、Mac)等软件下载eD2k链接。。
eMule收藏集(.emulecollection)文件是您选中的所有链接的列表文件。eMule可以直接下载它们。
按住SHIFT键选择可以选中多个选择框。
可用文件名和大小选择器来选择文件。
文件名选择器帮您根据文件名称或后缀来选择文件。不分大小写。
符号使用:
和:空格( )、+
不包含:-
或:|
转义:一对英文引号("");
匹配开头:^
匹配结尾:$
例如:
选中所有名称中包含有“eMule”或“0.49c”字眼,但不包含有“exe”字眼的:emule|0.49c -exe
选中所有名称的开头是“eMule”,结尾是“0.49c”的:^emule 0.49c$
选中所有名称中带有“eMule 0.49c”的(必须是“eMule 0.49c”,中间没有别的字符,不能是“eMule fake 0.49c”),需要转义:"emule 0.49c"
大小选择器帮您根据文件大小选择文件。