当前位置: 首页 >> 欧美电影 >> 侏罗纪世界3[杜比视界版本][简繁英字幕].Jurassic.World.Dominion.2022.2160p.WEB-DL.DV.HEVC.DDP5.1-CHDWEB 25.91GB >> 正文

侏罗纪世界3[杜比视界版本][简繁英字幕].Jurassic.World.Dominion.2022.2160p.WEB-DL.DV.HEVC.DDP5.1-CHDWEB 25.91GB

2022年07月15日 00:31:01     电影发布:来源于网络     电影分类:欧美电影     评论(0)    

◎译 名 侏罗纪世界3 / 侏罗纪世界3:统治 / 侏罗纪世界:统治霸权(港) / 侏罗纪世界:统霸天下(台) / 侏罗纪公园6 / Jurassic Park 6

◎片 名 Jurassic World: Dominion

◎年 代 2022

◎产 地 美国 / 马耳他

◎类 别 动作 / 科幻 / 冒险

◎语 言 英语

◎上映日期 2022-06-10(美国/中国大陆) / 2022-06-01(韩国)

◎IMDb链接 https://www.imdb.com/title/tt8041270/

◎豆瓣评分 6.2/10 (147661人评价)

◎豆瓣链接 https://movie.douban.com/subject/26873582/

◎片 长 146分钟

◎导 演 科林·特莱沃若 Colin Trevorrow (id:1220581)

◎编 剧 科林·特莱沃若 Colin Trevorrow (id:1220581)

艾米丽·卡迈克尔 Emily Carmichael (id:1005924)

德里克·康纳利 Derek Connolly (id:1336443)

迈克尔·克莱顿 Michael Crichton (id:1027340)

◎演 员 克里斯·帕拉特 Chris Pratt (id:1017967)

布莱丝·达拉斯·霍华德 Bryce Dallas Howard (id:1027772)

山姆·尼尔 Sam Neill (id:1049525)

劳拉·邓恩 Laura Dern (id:1006983)

杰夫·高布伦 Jeff Goldblum (id:1025109)

伊莎贝拉·瑟蒙 Isabella Sermon (id:1394999)

马莫多·阿西 Mamoudou Athie (id:1372982)

丹妮艾拉·皮内达 Daniella Pineda (id:1330042)

迪辰·拉克曼 Dichen Lachman (id:1032055)

黄荣亮 B.D. Wong (id:1054808)

克里斯托弗·普拉哈 Kristoffer Polaha (id:1191368)

奥玛·希 Omar Sy (id:1220507)

贾斯蒂斯·史密斯 Justice Smith (id:1350981)

坎贝尔·斯科特 Campbell Scott (id:1009319)

德汪达·怀斯 DeWanda Wise (id:1418807)

斯科特·黑兹 Scott Haze (id:1335114)

Freya Parker Freya Parker (id:1454736)

瓦拉达·塞图 Varada Sethu (id:1414039)

格利尼斯·戴维斯 Glynis Davies (id:1370145)

埃尔娃·崔尔 Elva Trill (id:1390821)

柯基·法尔考 Cokey Falkow (id:1328504)

伯纳多·桑托斯 Bernardo Santos (id:1390686)

迪米特里“维加斯”蒂瓦约 Dimitri 'Vegas' Thivaios (id:1440353)

小恩佐·斯奎利诺 Enzo Squillino Jr. (id:1153606)

特蕾莎·森登·加西亚 Teresa Cendon-Garcia (id:1445825)

杰克·约翰逊 Jake M. Johnson (id:1316713)

乔·阿泽帕迪 Joe Azzopardi (id:1407560)

帕特里克·克劳利 Patrick Crowley (id:1382980)

弗兰克·马歇尔 Frank Marshall (id:1049939)

史蒂文·斯皮尔伯格 Steven Spielberg (id:1054440)

科林·特莱沃若 Colin Trevorrow (id:1220581)

温斯顿·阿佐帕迪 Winston Azzopardi (id:1472704)

迈克·吉亚奇诺 Michael Giacchino (id:1027937)

约翰·施瓦兹曼 John Schwartzman (id:1027646)

马克·桑格 Mark Sanger (id:1055048)

妮娜·古德 Nina Gold (id:1276213)

凯文·詹金斯 Kevin Jenkins (id:1427729)

理查德·罗伯茨 Richard Roberts (id:1295779)

◎简 介

影片为《侏罗纪世界》系列的完结篇,故事的开篇设定在纳布拉尔岛被摧毁的四年后。如今,恐龙在世界各地与人类共同生活、共同捕猎。这一脆弱的平衡将重塑未来,并最终决定人类能否与史上最可怕生物共享这颗星球,并继续站在食物链的顶端。

  1. ##### MediaInfo ######

  2. General

  3. Unique ID : 145170501418153821858244310131364075428 (0x6D36D2528FD2A6B0B86D9E12684417A4)

  4. Complete name : Jurassic.World.Dominion.2022.2160p.WEB-DL.DV.HEVC.DDP5.1-CHDWEB.mkv

  5. Format : Matroska

  6. Format version : Version 4

  7. File size : 25.9 GiB

  8. Duration : 2 h 26 min

  9. Overall bit rate : 25.2 Mb/s

  10. Movie name : Jurassic World Dominion

  11. Encoded date : UTC 2022-07-14 06:56:24

  12. Writing application : mkvmerge v61.0.0 ('So') 64-bit

  13. Writing library : libebml v1.4.2 + libmatroska v1.6.4

  14. Cover : Yes

  15. Attachments : Cover.jpg

  16. Video

  17. ID : 1

  18. Format : HEVC

  19. Format/Info : High Efficiency Video Coding

  20. Format profile : Main [email protected]@High

  21. Codec ID : V_MPEGH/ISO/HEVC

  22. Duration : 2 h 26 min

  23. Bit rate : 24.5 Mb/s

  24. Width : 3 840 pixels

  25. Height : 1 918 pixels

  26. Display aspect ratio : 2.002

  27. Frame rate mode : Constant

  28. Frame rate : 23.976 (24000/1001/53354) FPS

  29. Color space : YUV

  30. Chroma subsampling : 4:2:0

  31. Bit depth : 10 bits

  32. Bits/(Pixel*Frame) : 0.139

  33. Stream size : 25.1 GiB (97%)

  34. Language : English

  35. Default : Yes

  36. Forced : No

  37. Audio

  38. ID : 2

  39. Format : E-AC-3 JOC

  40. Format/Info : Enhanced AC-3 with Joint Object Coding

  41. Commercial name : Dolby Digital Plus with Dolby Atmos

  42. Codec ID : A_EAC3

  43. Duration : 2 h 26 min

  44. Bit rate mode : Constant

  45. Bit rate : 768 kb/s

  46. Channel(s) : 6 channels

  47. Channel layout : L R C LFE Ls Rs

  48. Sampling rate : 48.0 kHz

  49. Frame rate : 31.250 FPS (1536 SPF)

  50. Compression mode : Lossy

  51. Stream size : 807 MiB (3%)

  52. Language : English

  53. Service kind : Complete Main

  54. Default : Yes

  55. Forced : No

  56. Complexity index : 16

  57. Number of dynamic objects : 15

  58. Bed channel count : 1 channel

  59. Bed channel configuration : LFE

  60. Text #1

  61. ID : 3

  62. Format : UTF-8

  63. Codec ID : S_TEXT/UTF8

  64. Codec ID/Info : UTF-8 Plain Text

  65. Duration : 2 h 26 min

  66. Bit rate : 55 b/s

  67. Count of elements : 2393

  68. Stream size : 60.2 KiB (0%)

  69. Title : SDH

  70. Language : English

  71. Default : No

  72. Forced : No

  73. Text #2

  74. ID : 4

  75. Format : UTF-8

  76. Codec ID : S_TEXT/UTF8

  77. Codec ID/Info : UTF-8 Plain Text

  78. Duration : 2 h 26 min

  79. Bit rate : 45 b/s

  80. Count of elements : 1820

  81. Stream size : 48.4 KiB (0%)

  82. Language : English

  83. Default : No

  84. Forced : No

  85. Text #3

  86. ID : 5

  87. Format : UTF-8

  88. Codec ID : S_TEXT/UTF8

  89. Codec ID/Info : UTF-8 Plain Text

  90. Duration : 2 h 26 min

  91. Bit rate : 43 b/s

  92. Count of elements : 1551

  93. Stream size : 47.0 KiB (0%)

  94. Title : Latin American

  95. Language : Spanish

  96. Default : No

  97. Forced : No

  98. Text #4

  99. ID : 6

  100. Format : UTF-8

  101. Codec ID : S_TEXT/UTF8

  102. Codec ID/Info : UTF-8 Plain Text

  103. Duration : 2 h 26 min

  104. Bit rate : 47 b/s

  105. Count of elements : 1536

  106. Stream size : 50.9 KiB (0%)

  107. Title : Canadian

  108. Language : French

  109. Default : No

  110. Forced : No

  111. Text #5

  112. ID : 7

  113. Format : UTF-8

  114. Codec ID : S_TEXT/UTF8

  115. Codec ID/Info : UTF-8 Plain Text

  116. Duration : 2 h 14 min

  117. Bit rate : 45 b/s

  118. Count of elements : 1797

  119. Stream size : 45.1 KiB (0%)

  120. Title : 繁体中字

  121. Language : Chinese

  122. Default : Yes

  123. Forced : No

  124. Text #6

  125. ID : 8

  126. Format : UTF-8

  127. Codec ID : S_TEXT/UTF8

  128. Codec ID/Info : UTF-8 Plain Text

  129. Duration : 2 h 14 min

  130. Bit rate : 45 b/s

  131. Count of elements : 1797

  132. Stream size : 45.1 KiB (0%)

  133. Title : 简体中字

  134. Language : Chinese

  135. Default : Yes

  136. Forced : No

  137. Text #7

  138. ID : 9

  139. Format : ASS

  140. Codec ID : S_TEXT/ASS

  141. Codec ID/Info : Advanced Sub Station Alpha

  142. Duration : 2 h 14 min

  143. Bit rate : 101 b/s

  144. Count of elements : 1797

  145. Compression mode : Lossless

  146. Stream size : 100 KiB (0%)

  147. Title : 繁体中字

  148. Language : Chinese

  149. Default : Yes

  150. Forced : No

  151. Text #8

  152. ID : 10

  153. Format : ASS

  154. Codec ID : S_TEXT/ASS

  155. Codec ID/Info : Advanced Sub Station Alpha

  156. Duration : 2 h 14 min

  157. Bit rate : 101 b/s

  158. Count of elements : 1797

  159. Compression mode : Lossless

  160. Stream size : 100 KiB (0%)

  161. Title : 简体中字

  162. Language : Chinese

  163. Default : Yes

  164. Forced : No

  165. Menu

  166. 00:00:00.000 : Chapter 01

  167. 00:07:20.190 : Chapter 02

  168. 00:17:56.368 : Chapter 03

  169. 00:25:18.309 : Chapter 04

  170. 00:33:33.471 : Chapter 05

  171. 00:42:56.618 : Chapter 06

  172. 00:51:56.074 : Chapter 07

  173. 00:59:39.913 : Chapter 08

  174. 01:09:25.373 : Chapter 09

  175. 01:18:41.137 : Chapter 10

  176. 01:27:35.755 : Chapter 11

  177. 01:35:52.293 : Chapter 12

  178. 01:44:49.581 : Chapter 13

  179. 01:53:46.618 : Chapter 14

  180. 02:05:07.841 : Chapter 15

  181. 02:14:49.339 : Chapter 16



文件下载


除非特别注明,本文『侏罗纪世界3[杜比视界版本][简繁英字幕].Jurassic.World.Dominion.2022.2160p.WEB-DL.DV.HEVC.DDP5.1-CHDWEB 25.91GB』来源于互联网机器人自动抓取,非本站原创。 浮游电影网不对本文拥有版权,如有侵犯,请联系邮箱:fuyouu#yandex.com[#换成@]投诉。我们会在15个工作日内删除。 但烦请转载时请标明出处:“本文转载于『浮游电影网』,原文地址:https://www.fuyouu.com/22679.html

评论吧骚年!

发表你的见解   

昵称*

E-mail*(建议输入,以便收到博主回复的提示邮件)

验证码*

您可以使用eMule或eMule Mod(Windows)、aMule(Win、Linux、Mac)等软件下载eD2k链接。。
eMule收藏集(.emulecollection)文件是您选中的所有链接的列表文件。eMule可以直接下载它们。
按住SHIFT键选择可以选中多个选择框。
可用文件名和大小选择器来选择文件。
文件名选择器帮您根据文件名称或后缀来选择文件。不分大小写。
符号使用:
和:空格( )、+
不包含:-
或:|
转义:一对英文引号("");
匹配开头:^
匹配结尾:$
例如:
选中所有名称中包含有“eMule”或“0.49c”字眼,但不包含有“exe”字眼的:emule|0.49c -exe
选中所有名称的开头是“eMule”,结尾是“0.49c”的:^emule 0.49c$
选中所有名称中带有“eMule 0.49c”的(必须是“eMule 0.49c”,中间没有别的字符,不能是“eMule fake 0.49c”),需要转义:"emule 0.49c"
大小选择器帮您根据文件大小选择文件。