当前位置: 首页 >> 欧美电影 >> 永怀梦想:西蒙·佩雷斯的人生与馈赠[中文字幕].Never.Stop.Dreaming.The.Life.and.Legacy.of.Shimon.Peres.2018.1080p.NF.WEBRip >> 正文

永怀梦想:西蒙·佩雷斯的人生与馈赠[中文字幕].Never.Stop.Dreaming.The.Life.and.Legacy.of.Shimon.Peres.2018.1080p.NF.WEBRip

2022年07月14日 08:02:46     电影发布:来源于网络     电影分类:欧美电影     评论(0)    

永怀梦想:西蒙·佩雷斯的人生与馈赠[中文字幕].Never.Stop.Dreaming.The.Life.and.Legacy.of.Shimon.Peres.2018.1080p.NF.WEBRip.DDP5.1.x264-SMURF 7.22GB

永怀梦想:西蒙·佩雷斯的人生与馈赠[中文字幕].Never.Stop.Dreaming.The.Life.and.Legacy.of.Shimon.Peres.2018.1080p.NF.WEBRip  欧美电影  第1张

永怀梦想:西蒙·佩雷斯的人生与馈赠[中文字幕].Never.Stop.Dreaming.The.Life.and.Legacy.of.Shimon.Peres.2018.1080p.NF.WEBRip  欧美电影  第2张

◎译 名 永怀梦想:西蒙·佩雷斯的人生与馈赠

◎片 名 Never Stop Dreaming: The Life and Legacy of Shimon Peres

◎年 代 2018

◎产 地 美国

◎类 别 纪录片

◎上映日期 2018-06-13(美国)

◎IMDb链接 https://www.imdb.com/title/tt8172146/

◎豆瓣链接 https://movie.douban.com/subject/30176397/

◎导 演 理查德·特兰克 Richard Trank (id:1299476)

◎演 员 乔治·克鲁尼 George Clooney (id:1054433)

◎简 介

乔治·克鲁尼将为一部讲述以色列前总统西蒙·佩雷斯的纪录片担任旁白,该片名为[永怀梦想:西蒙·佩雷斯的人生与馈赠](Never Stop Dreaming: The Life and Legacy of Shimon Peres,暂译)。导演理查德·特兰克,Moriah Films担任制作。Moriah Films打造的纪录片[种族灭绝]、[遥遥归乡路]均曾荣获奥斯卡最佳纪录长片奖。西蒙·佩雷斯从政60多年,有以色列政坛“常青树”之称,他于2007年至2014年任以色列总统,2016年病逝。片中多位政界及演艺圈重量级人物均现身接受采访,包括克林顿、小布什、奥巴马、托尼·布莱尔、芭芭拉·史翠珊等。影片有望于9月28日西蒙·佩雷斯逝世两周年纪念日上映。

  1. Video

  2. ID : 1

  3. Format : AVC

  4. Format/Info : Advanced Video Codec

  5. Format profile : [email protected]

  6. Format settings : CABAC / 3 Ref Frames

  7. Format settings, CABAC : Yes

  8. Format settings, Reference frames : 3 frames

  9. Codec ID : V_MPEG4/ISO/AVC

  10. Duration : 2 h 9 min

  11. Bit rate mode : Variable

  12. Bit rate : 7 500 kb/s

  13. Maximum bit rate : 11.2 Mb/s

  14. Width : 1 920 pixels

  15. Height : 1 080 pixels

  16. Display aspect ratio : 16:9

  17. Frame rate mode : Constant

  18. Frame rate : 23.976 (24000/1001/53354) FPS

  19. Color space : YUV

  20. Chroma subsampling : 4:2:0

  21. Bit depth : 8 bits

  22. Scan type : Progressive

  23. Bits/(Pixel*Frame) : 0.151

  24. Stream size : 6.63 GiB (92%)

  25. Writing library : x264 core 148 r2727 7d026e8

  26. Encoding settings : cabac=1 / ref=3 / deblock=1:0:0 / analyse=0x1:0x111 / me=umh / subme=10 / psy=1 / psy_rd=1.00:0.00 / mixed_ref=1 / me_range=24 / chroma_me=1 / trellis=2 / 8x8dct=0 / cqm=0 / deadzone=21,11 / fast_pskip=1 / chroma_qp_offset=-2 / threads=6 / lookahead_threads=1 / sliced_threads=0 / nr=0 / decimate=1 / interlaced=0 / NTMzNTQ= / bluray_compat=0 / stitchable=1 / constrained_intra=0 / bframes=2 / b_pyramid=0 / b_adapt=2 / b_bias=0 / direct=3 / weightb=1 / open_gop=0 / weightp=2 / keyint=250 / keyint_min=23 / scenecut=0 / intra_refresh=0 / rc_lookahead=48 / rc=2pass / mbtree=1 / bitrate=7500 / ratetol=1.0 / qcomp=0.50 / qpmin=6 / qpmax=51 / qpstep=4 / cplxblur=20.0 / qblur=0.5 / vbv_maxrate=11250 / vbv_bufsize=15000 / nal_hrd=vbr / filler=0 / NTMzNTQ=LmsMAP37EqsCpk / ip_ratio=1.40 / aq=1:1.00

  27. Default : Yes

  28. Forced : No


  29. Audio

  30. ID : 2

  31. Format : E-AC-3

  32. Format/Info : Enhanced AC-3

  33. Commercial name : Dolby Digital Plus

  34. Codec ID : A_EAC3

  35. Duration : 2 h 9 min

  36. Bit rate mode : Constant

  37. Bit rate : 640 kb/s

  38. Channel(s) : 6 channels

  39. Channel layout : L R C LFE Ls Rs

  40. Sampling rate : 48.0 kHz

  41. Frame rate : 31.250 FPS (1536 SPF)

  42. Compression mode : Lossy

  43. Stream size : 592 MiB (8%)

  44. Language : English

  45. Service kind : Complete Main

  46. Default : Yes

  47. Forced : No


  48. Text #1

  49. ID : 3

  50. Format : UTF-8

  51. Codec ID : S_TEXT/UTF8

  52. Codec ID/Info : UTF-8 Plain Text

  53. Duration : 2 h 3 min

  54. Bit rate : 24 b/s

  55. Frame rate : 0.084 FPS

  56. Count of elements : 620

  57. Stream size : 22.4 KiB (0%)

  58. Title : Forced

  59. Language : English

  60. Default : Yes

  61. Forced : Yes


  62. Text #2

  63. ID : 4

  64. Format : UTF-8

  65. Codec ID : S_TEXT/UTF8

  66. Codec ID/Info : UTF-8 Plain Text

  67. Duration : 2 h 8 min

  68. Bit rate : 102 b/s

  69. Frame rate : 0.261 FPS

  70. Count of elements : 2012

  71. Stream size : 96.8 KiB (0%)

  72. Language : English

  73. Default : No

  74. Forced : No


  75. Text #3

  76. ID : 5

  77. Format : UTF-8

  78. Codec ID : S_TEXT/UTF8

  79. Codec ID/Info : UTF-8 Plain Text

  80. Duration : 2 h 8 min

  81. Bit rate : 105 b/s

  82. Frame rate : 0.264 FPS

  83. Count of elements : 2041

  84. Stream size : 99.6 KiB (0%)

  85. Title : SDH

  86. Language : English

  87. Default : No

  88. Forced : No


  89. Text #4

  90. ID : 6

  91. Format : UTF-8

  92. Codec ID : S_TEXT/UTF8

  93. Codec ID/Info : UTF-8 Plain Text

  94. Duration : 2 h 8 min

  95. Bit rate : 147 b/s

  96. Frame rate : 0.260 FPS

  97. Count of elements : 2013

  98. Stream size : 139 KiB (0%)

  99. Language : Arabic

  100. Default : No

  101. Forced : No


  102. Text #5

  103. ID : 7

  104. Format : UTF-8

  105. Codec ID : S_TEXT/UTF8

  106. Codec ID/Info : UTF-8 Plain Text

  107. Duration : 2 h 8 min

  108. Bit rate : 97 b/s

  109. Frame rate : 0.255 FPS

  110. Count of elements : 1971

  111. Stream size : 92.4 KiB (0%)

  112. Language : Czech

  113. Default : No

  114. Forced : No


  115. Text #6

  116. ID : 8

  117. Format : UTF-8

  118. Codec ID : S_TEXT/UTF8

  119. Codec ID/Info : UTF-8 Plain Text

  120. Duration : 2 h 8 min

  121. Bit rate : 88 b/s

  122. Frame rate : 0.229 FPS

  123. Count of elements : 1772

  124. Stream size : 83.3 KiB (0%)

  125. Language : Danish

  126. Default : No

  127. Forced : No


  128. Text #7

  129. ID : 9

  130. Format : UTF-8

  131. Codec ID : S_TEXT/UTF8

  132. Codec ID/Info : UTF-8 Plain Text

  133. Duration : 2 h 5 min

  134. Bit rate : 112 b/s

  135. Frame rate : 0.276 FPS

  136. Count of elements : 2084

  137. Stream size : 104 KiB (0%)

  138. Language : German

  139. Default : No

  140. Forced : No


  141. Text #8

  142. ID : 10

  143. Format : UTF-8

  144. Codec ID : S_TEXT/UTF8

  145. Codec ID/Info : UTF-8 Plain Text

  146. Duration : 2 h 8 min

  147. Bit rate : 154 b/s

  148. Frame rate : 0.252 FPS

  149. Count of elements : 1953

  150. Stream size : 146 KiB (0%)

  151. Language : Greek

  152. Default : No

  153. Forced : No


  154. Text #9

  155. ID : 11

  156. Format : UTF-8

  157. Codec ID : S_TEXT/UTF8

  158. Codec ID/Info : UTF-8 Plain Text

  159. Duration : 2 h 8 min

  160. Bit rate : 103 b/s

  161. Frame rate : 0.259 FPS

  162. Count of elements : 2003

  163. Stream size : 97.7 KiB (0%)

  164. Title : Latin American

  165. Language : Spanish

  166. Default : No

  167. Forced : No


  168. Text #10

  169. ID : 12

  170. Format : UTF-8

  171. Codec ID : S_TEXT/UTF8

  172. Codec ID/Info : UTF-8 Plain Text

  173. Duration : 2 h 8 min

  174. Bit rate : 99 b/s

  175. Frame rate : 0.261 FPS

  176. Count of elements : 2017

  177. Stream size : 93.6 KiB (0%)

  178. Language : Spanish

  179. Default : No

  180. Forced : No


  181. Text #11

  182. ID : 13

  183. Format : UTF-8

  184. Codec ID : S_TEXT/UTF8

  185. Codec ID/Info : UTF-8 Plain Text

  186. Duration : 2 h 8 min

  187. Bit rate : 94 b/s

  188. Frame rate : 0.215 FPS

  189. Count of elements : 1664

  190. Stream size : 89.0 KiB (0%)

  191. Language : Finnish

  192. Default : No

  193. Forced : No


  194. Text #12

  195. ID : 14

  196. Format : UTF-8

  197. Codec ID : S_TEXT/UTF8

  198. Codec ID/Info : UTF-8 Plain Text

  199. Duration : 2 h 8 min

  200. Bit rate : 108 b/s

  201. Frame rate : 0.264 FPS

  202. Count of elements : 2043

  203. Stream size : 103 KiB (0%)

  204. Language : French

  205. Default : No

  206. Forced : No


  207. Text #13

  208. ID : 15

  209. Format : UTF-8

  210. Codec ID : S_TEXT/UTF8

  211. Codec ID/Info : UTF-8 Plain Text

  212. Duration : 2 h 8 min

  213. Bit rate : 136 b/s

  214. Frame rate : 0.257 FPS

  215. Count of elements : 1989

  216. Stream size : 129 KiB (0%)

  217. Language : Hebrew

  218. Default : No

  219. Forced : No


  220. Text #14

  221. ID : 16

  222. Format : UTF-8

  223. Codec ID : S_TEXT/UTF8

  224. Codec ID/Info : UTF-8 Plain Text

  225. Duration : 2 h 8 min

  226. Bit rate : 91 b/s

  227. Frame rate : 0.256 FPS

  228. Count of elements : 1981

  229. Stream size : 86.5 KiB (0%)

  230. Language : Croatian

  231. Default : No

  232. Forced : No


  233. Text #15

  234. ID : 17

  235. Format : UTF-8

  236. Codec ID : S_TEXT/UTF8

  237. Codec ID/Info : UTF-8 Plain Text

  238. Duration : 2 h 8 min

  239. Bit rate : 96 b/s

  240. Frame rate : 0.245 FPS

  241. Count of elements : 1896

  242. Stream size : 91.2 KiB (0%)

  243. Language : Hungarian

  244. Default : No

  245. Forced : No


  246. Text #16

  247. ID : 18

  248. Format : UTF-8

  249. Codec ID : S_TEXT/UTF8

  250. Codec ID/Info : UTF-8 Plain Text

  251. Duration : 2 h 8 min

  252. Bit rate : 105 b/s

  253. Frame rate : 0.255 FPS

  254. Count of elements : 1972

  255. Stream size : 99.4 KiB (0%)

  256. Language : Indonesian

  257. Default : No

  258. Forced : No


  259. Text #17

  260. ID : 19

  261. Format : UTF-8

  262. Codec ID : S_TEXT/UTF8

  263. Codec ID/Info : UTF-8 Plain Text

  264. Duration : 2 h 8 min

  265. Bit rate : 100 b/s

  266. Frame rate : 0.246 FPS

  267. Count of elements : 1903

  268. Stream size : 94.5 KiB (0%)

  269. Language : Italian

  270. Default : No

  271. Forced : No


  272. Text #18

  273. ID : 20

  274. Format : UTF-8

  275. Codec ID : S_TEXT/UTF8

  276. Codec ID/Info : UTF-8 Plain Text

  277. Duration : 2 h 8 min

  278. Bit rate : 97 b/s

  279. Frame rate : 0.252 FPS

  280. Count of elements : 1952

  281. Stream size : 92.2 KiB (0%)

  282. Language : Japanese

  283. Default : No

  284. Forced : No


  285. Text #19

  286. ID : 21

  287. Format : UTF-8

  288. Codec ID : S_TEXT/UTF8

  289. Codec ID/Info : UTF-8 Plain Text

  290. Duration : 2 h 8 min

  291. Bit rate : 114 b/s

  292. Frame rate : 0.261 FPS

  293. Count of elements : 2018

  294. Stream size : 108 KiB (0%)

  295. Language : Korean

  296. Default : No

  297. Forced : No


  298. Text #20

  299. ID : 22

  300. Format : UTF-8

  301. Codec ID : S_TEXT/UTF8

  302. Codec ID/Info : UTF-8 Plain Text

  303. Duration : 2 h 8 min

  304. Bit rate : 95 b/s

  305. Frame rate : 0.257 FPS

  306. Count of elements : 1987

  307. Stream size : 90.2 KiB (0%)

  308. Language : Malay

  309. Default : No

  310. Forced : No


  311. Text #21

  312. ID : 23

  313. Format : UTF-8

  314. Codec ID : S_TEXT/UTF8

  315. Codec ID/Info : UTF-8 Plain Text

  316. Duration : 2 h 8 min

  317. Bit rate : 95 b/s

  318. Frame rate : 0.247 FPS

  319. Count of elements : 1911

  320. Stream size : 90.3 KiB (0%)

  321. Language : Norwegian Bokmal

  322. Default : No

  323. Forced : No


  324. Text #22

  325. ID : 24

  326. Format : UTF-8

  327. Codec ID : S_TEXT/UTF8

  328. Codec ID/Info : UTF-8 Plain Text

  329. Duration : 2 h 8 min

  330. Bit rate : 86 b/s

  331. Frame rate : 0.259 FPS

  332. Count of elements : 2005

  333. Stream size : 81.8 KiB (0%)

  334. Language : Dutch

  335. Default : No

  336. Forced : No


  337. Text #23

  338. ID : 25

  339. Format : UTF-8

  340. Codec ID : S_TEXT/UTF8

  341. Codec ID/Info : UTF-8 Plain Text

  342. Duration : 2 h 8 min

  343. Bit rate : 91 b/s

  344. Frame rate : 0.262 FPS

  345. Count of elements : 2023

  346. Stream size : 86.4 KiB (0%)

  347. Language : Polish

  348. Default : No

  349. Forced : No


  350. Text #24

  351. ID : 26

  352. Format : UTF-8

  353. Codec ID : S_TEXT/UTF8

  354. Codec ID/Info : UTF-8 Plain Text

  355. Duration : 2 h 8 min

  356. Bit rate : 95 b/s

  357. Frame rate : 0.247 FPS

  358. Count of elements : 1914

  359. Stream size : 90.5 KiB (0%)

  360. Title : Brazilian

  361. Language : Portuguese

  362. Default : No

  363. Forced : No


  364. Text #25

  365. ID : 27

  366. Format : UTF-8

  367. Codec ID : S_TEXT/UTF8

  368. Codec ID/Info : UTF-8 Plain Text

  369. Duration : 2 h 8 min

  370. Bit rate : 102 b/s

  371. Frame rate : 0.255 FPS

  372. Count of elements : 1969

  373. Stream size : 97.0 KiB (0%)

  374. Language : Portuguese

  375. Default : No

  376. Forced : No


  377. Text #26

  378. ID : 28

  379. Format : UTF-8

  380. Codec ID : S_TEXT/UTF8

  381. Codec ID/Info : UTF-8 Plain Text

  382. Duration : 2 h 8 min

  383. Bit rate : 108 b/s

  384. Frame rate : 0.258 FPS

  385. Count of elements : 1992

  386. Stream size : 102 KiB (0%)

  387. Language : Romanian

  388. Default : No

  389. Forced : No


  390. Text #27

  391. ID : 29

  392. Format : UTF-8

  393. Codec ID : S_TEXT/UTF8

  394. Codec ID/Info : UTF-8 Plain Text

  395. Duration : 2 h 8 min

  396. Bit rate : 155 b/s

  397. Frame rate : 0.251 FPS

  398. Count of elements : 1945

  399. Stream size : 147 KiB (0%)

  400. Language : Russian

  401. Default : No

  402. Forced : No


  403. Text #28

  404. ID : 30

  405. Format : UTF-8

  406. Codec ID : S_TEXT/UTF8

  407. Codec ID/Info : UTF-8 Plain Text

  408. Duration : 2 h 8 min

  409. Bit rate : 95 b/s

  410. Frame rate : 0.260 FPS

  411. Count of elements : 2014

  412. Stream size : 90.4 KiB (0%)

  413. Language : Swedish

  414. Default : No

  415. Forced : No


  416. Text #29

  417. ID : 31

  418. Format : UTF-8

  419. Codec ID : S_TEXT/UTF8

  420. Codec ID/Info : UTF-8 Plain Text

  421. Duration : 2 h 8 min

  422. Bit rate : 231 b/s

  423. Frame rate : 0.272 FPS

  424. Count of elements : 2104

  425. Stream size : 219 KiB (0%)

  426. Language : Thai

  427. Default : No

  428. Forced : No


  429. Text #30

  430. ID : 32

  431. Format : UTF-8

  432. Codec ID : S_TEXT/UTF8

  433. Codec ID/Info : UTF-8 Plain Text

  434. Duration : 2 h 8 min

  435. Bit rate : 104 b/s

  436. Frame rate : 0.252 FPS

  437. Count of elements : 1947

  438. Stream size : 99.1 KiB (0%)

  439. Language : Turkish

  440. Default : No

  441. Forced : No


  442. Text #31

  443. ID : 33

  444. Format : UTF-8

  445. Codec ID : S_TEXT/UTF8

  446. Codec ID/Info : UTF-8 Plain Text

  447. Duration : 2 h 6 min

  448. Bit rate : 169 b/s

  449. Frame rate : 0.265 FPS

  450. Count of elements : 2007

  451. Stream size : 156 KiB (0%)

  452. Language : Ukrainian

  453. Default : No

  454. Forced : No


  455. Text #32

  456. ID : 34

  457. Format : UTF-8

  458. Codec ID : S_TEXT/UTF8

  459. Codec ID/Info : UTF-8 Plain Text

  460. Duration : 2 h 8 min

  461. Bit rate : 133 b/s

  462. Frame rate : 0.260 FPS

  463. Count of elements : 2010

  464. Stream size : 126 KiB (0%)

  465. Language : Vietnamese

  466. Default : No

  467. Forced : No


  468. Text #33

  469. ID : 35

  470. Format : UTF-8

  471. Codec ID : S_TEXT/UTF8

  472. Codec ID/Info : UTF-8 Plain Text

  473. Duration : 2 h 8 min

  474. Bit rate : 84 b/s

  475. Frame rate : 0.256 FPS

  476. Count of elements : 1984

  477. Stream size : 79.3 KiB (0%)

  478. Title : Simplified

  479. Language : Chinese

  480. Default : No

  481. Forced : No


  482. Text #34

  483. ID : 36

  484. Format : UTF-8

  485. Codec ID : S_TEXT/UTF8

  486. Codec ID/Info : UTF-8 Plain Text

  487. Duration : 2 h 8 min

  488. Bit rate : 80 b/s

  489. Frame rate : 0.261 FPS

  490. Count of elements : 2018

  491. Stream size : 75.6 KiB (0%)

  492. Title : Traditional

  493. Language : Chinese

  494. Default : No

  495. Forced : No


  496. Menu

  497. 02:06:14.000 : en:Credits

复制代码

永怀梦想:西蒙·佩雷斯的人生与馈赠[中文字幕].Never.Stop.Dreaming.The.Life.and.Legacy.of.Shimon.Peres.2018.1080p.NF.WEBRip  欧美电影  第3张 永怀梦想:西蒙·佩雷斯的人生与馈赠[中文字幕].Never.Stop.Dreaming.The.Life.and.Legacy.of.Shimon.Peres.2018.1080p.NF.WEBRip  欧美电影  第4张 永怀梦想:西蒙·佩雷斯的人生与馈赠[中文字幕].Never.Stop.Dreaming.The.Life.and.Legacy.of.Shimon.Peres.2018.1080p.NF.WEBRip  欧美电影  第5张



文件下载


除非特别注明,本文『永怀梦想:西蒙·佩雷斯的人生与馈赠[中文字幕].Never.Stop.Dreaming.The.Life.and.Legacy.of.Shimon.Peres.2018.1080p.NF.WEBRip』来源于互联网机器人自动抓取,非本站原创。 浮游电影网不对本文拥有版权,如有侵犯,请联系邮箱:fuyouu#yandex.com[#换成@]投诉。我们会在15个工作日内删除。 但烦请转载时请标明出处:“本文转载于『浮游电影网』,原文地址:https://www.fuyouu.com/22675.html

评论吧骚年!

发表你的见解   

昵称*

E-mail*(建议输入,以便收到博主回复的提示邮件)

验证码*

您可以使用eMule或eMule Mod(Windows)、aMule(Win、Linux、Mac)等软件下载eD2k链接。。
eMule收藏集(.emulecollection)文件是您选中的所有链接的列表文件。eMule可以直接下载它们。
按住SHIFT键选择可以选中多个选择框。
可用文件名和大小选择器来选择文件。
文件名选择器帮您根据文件名称或后缀来选择文件。不分大小写。
符号使用:
和:空格( )、+
不包含:-
或:|
转义:一对英文引号("");
匹配开头:^
匹配结尾:$
例如:
选中所有名称中包含有“eMule”或“0.49c”字眼,但不包含有“exe”字眼的:emule|0.49c -exe
选中所有名称的开头是“eMule”,结尾是“0.49c”的:^emule 0.49c$
选中所有名称中带有“eMule 0.49c”的(必须是“eMule 0.49c”,中间没有别的字符,不能是“eMule fake 0.49c”),需要转义:"emule 0.49c"
大小选择器帮您根据文件大小选择文件。