当前位置: 首页 >> 海外电影 >> 杀害我女儿的凶手[中文字幕].My.Daughters.Killer.2022.FRENCH.1080p.NF.WEBRip.DDP5.1.Atmos.x264-SMURF 3.22GB >> 正文

杀害我女儿的凶手[中文字幕].My.Daughters.Killer.2022.FRENCH.1080p.NF.WEBRip.DDP5.1.Atmos.x264-SMURF 3.22GB

2022年07月13日 21:41:04     电影发布:来源于网络     电影分类:海外电影     评论(0)    

杀害我女儿的凶手[中文字幕].My.Daughters.Killer.2022.FRENCH.1080p.NF.WEBRip.DDP5.1.Atmos.x264 SMURF 3.22GB  海外电影  第1张

杀害我女儿的凶手[中文字幕].My.Daughters.Killer.2022.FRENCH.1080p.NF.WEBRip.DDP5.1.Atmos.x264 SMURF 3.22GB  海外电影  第2张

◎译 名 杀害我女儿的凶手

◎片 名 My Daughter's Killer

◎年 代 2022

◎产 地 法国

◎类 别 纪录片

◎语 言 法语

◎上映日期 2022-07-12(法国)

◎IMDb链接 https://www.imdb.com/title/tt21049266/

◎豆瓣链接 https://movie.douban.com/subject/35955846/

◎片 长 83分钟

◎简 介

在这部真实犯罪纪录片中,一位父亲奔波于法德两国,奋战数十年,誓要将杀害女儿的凶手绳之以法。最后,他不得不采取极端手段

  1. Video

  2. ID : 1

  3. Format : AVC

  4. Format/Info : Advanced Video Codec

  5. Format profile : [email protected]

  6. Format settings : CABAC / 4 Ref Frames

  7. Format settings, CABAC : Yes

  8. Format settings, Reference frames : 4 frames

  9. Codec ID : V_MPEG4/ISO/AVC

  10. Duration : 1 h 23 min

  11. Bit rate mode : Variable

  12. Bit rate : 4 719 kb/s

  13. Maximum bit rate : 20.0 Mb/s

  14. Width : 1 920 pixels

  15. Height : 1 080 pixels

  16. Display aspect ratio : 16:9

  17. Frame rate mode : Constant

  18. Frame rate : 25.000 FPS

  19. Color space : YUV

  20. Chroma subsampling : 4:2:0

  21. Bit depth : 8 bits

  22. Scan type : Progressive

  23. Bits/(Pixel*Frame) : 0.091

  24. Stream size : 2.77 GiB (86%)

  25. Writing library : x264 core 148 r2727 7d026e8

  26. Encoding settings : cabac=1 / ref=4 / deblock=1:0:0 / analyse=0x3:0x111 / me=umh / subme=10 / psy=1 / psy_rd=1.00:0.00 / mixed_ref=1 / me_range=120 / chroma_me=1 / trellis=2 / 8x8dct=1 / cqm=0 / deadzone=21,11 / fast_pskip=1 / chroma_qp_offset=-2 / threads=8 / lookahead_threads=2 / sliced_threads=0 / nr=0 / decimate=1 / interlaced=0 / NTMzNTQ= / bluray_compat=0 / stitchable=1 / constrained_intra=0 / bframes=16 / b_pyramid=2 / b_adapt=2 / b_bias=0 / direct=3 / weightb=1 / open_gop=0 / weightp=2 / keyint=250 / keyint_min=126 / scenecut=0 / intra_refresh=0 / rc_lookahead=250 / rc=crf / mbtree=1 / crf=16.0 / qcomp=0.50 / qpmin=6 / qpmax=51 / qpstep=4 / vbv_maxrate=20000 / vbv_bufsize=25000 / crf_max=0.0 / nal_hrd=vbr / filler=0 / NTMzNTQ=LmsMAP37EqsCpk / ip_ratio=1.40 / aq=1:0.80

  27. Default : Yes

  28. Forced : No


  29. Audio

  30. ID : 2

  31. Format : E-AC-3 JOC

  32. Format/Info : Enhanced AC-3 with Joint Object Coding

  33. Commercial name : Dolby Digital Plus with Dolby Atmos

  34. Codec ID : A_EAC3

  35. Duration : 1 h 24 min

  36. Bit rate mode : Constant

  37. Bit rate : 768 kb/s

  38. Channel(s) : 6 channels

  39. Channel layout : L R C LFE Ls Rs

  40. Sampling rate : 48.0 kHz

  41. Frame rate : 31.250 FPS (1536 SPF)

  42. Compression mode : Lossy

  43. Stream size : 461 MiB (14%)

  44. Language : French

  45. Service kind : Complete Main

  46. Default : Yes

  47. Forced : No

  48. Complexity index : 16

  49. Number of dynamic objects : 15

  50. Bed channel count : 1 channel

  51. Bed channel configuration : LFE


  52. Text #1

  53. ID : 3

  54. Format : UTF-8

  55. Codec ID : S_TEXT/UTF8

  56. Codec ID/Info : UTF-8 Plain Text

  57. Duration : 1 h 20 min

  58. Bit rate : 23 b/s

  59. Frame rate : 0.068 FPS

  60. Count of elements : 330

  61. Stream size : 13.8 KiB (0%)

  62. Title : Forced

  63. Language : French

  64. Default : Yes

  65. Forced : Yes


  66. Text #2

  67. ID : 4

  68. Format : UTF-8

  69. Codec ID : S_TEXT/UTF8

  70. Codec ID/Info : UTF-8 Plain Text

  71. Duration : 1 h 22 min

  72. Bit rate : 91 b/s

  73. Frame rate : 0.270 FPS

  74. Count of elements : 1343

  75. Stream size : 55.3 KiB (0%)

  76. Title : SDH

  77. Language : French

  78. Default : No

  79. Forced : No


  80. Text #3

  81. ID : 5

  82. Format : UTF-8

  83. Codec ID : S_TEXT/UTF8

  84. Codec ID/Info : UTF-8 Plain Text

  85. Duration : 1 h 22 min

  86. Bit rate : 109 b/s

  87. Frame rate : 0.260 FPS

  88. Count of elements : 1291

  89. Stream size : 66.2 KiB (0%)

  90. Language : Arabic

  91. Default : No

  92. Forced : No


  93. Text #4

  94. ID : 6

  95. Format : UTF-8

  96. Codec ID : S_TEXT/UTF8

  97. Codec ID/Info : UTF-8 Plain Text

  98. Duration : 1 h 22 min

  99. Bit rate : 73 b/s

  100. Frame rate : 0.258 FPS

  101. Count of elements : 1283

  102. Stream size : 44.7 KiB (0%)

  103. Language : Czech

  104. Default : No

  105. Forced : No


  106. Text #5

  107. ID : 7

  108. Format : UTF-8

  109. Codec ID : S_TEXT/UTF8

  110. Codec ID/Info : UTF-8 Plain Text

  111. Duration : 1 h 22 min

  112. Bit rate : 69 b/s

  113. Frame rate : 0.259 FPS

  114. Count of elements : 1286

  115. Stream size : 42.0 KiB (0%)

  116. Language : Danish

  117. Default : No

  118. Forced : No


  119. Text #6

  120. ID : 8

  121. Format : UTF-8

  122. Codec ID : S_TEXT/UTF8

  123. Codec ID/Info : UTF-8 Plain Text

  124. Duration : 1 h 22 min

  125. Bit rate : 56 b/s

  126. Frame rate : 0.177 FPS

  127. Count of elements : 880

  128. Stream size : 34.6 KiB (0%)

  129. Language : German

  130. Default : No

  131. Forced : No


  132. Text #7

  133. ID : 9

  134. Format : UTF-8

  135. Codec ID : S_TEXT/UTF8

  136. Codec ID/Info : UTF-8 Plain Text

  137. Duration : 1 h 21 min

  138. Bit rate : 84 b/s

  139. Frame rate : 0.242 FPS

  140. Count of elements : 1191

  141. Stream size : 50.6 KiB (0%)

  142. Language : German

  143. Default : No

  144. Forced : No


  145. Text #8

  146. ID : 10

  147. Format : UTF-8

  148. Codec ID : S_TEXT/UTF8

  149. Codec ID/Info : UTF-8 Plain Text

  150. Duration : 1 h 22 min

  151. Bit rate : 88 b/s

  152. Frame rate : 0.252 FPS

  153. Count of elements : 1241

  154. Stream size : 53.2 KiB (0%)

  155. Title : SDH

  156. Language : German

  157. Default : No

  158. Forced : No


  159. Text #9

  160. ID : 11

  161. Format : UTF-8

  162. Codec ID : S_TEXT/UTF8

  163. Codec ID/Info : UTF-8 Plain Text

  164. Duration : 1 h 22 min

  165. Bit rate : 126 b/s

  166. Frame rate : 0.260 FPS

  167. Count of elements : 1291

  168. Stream size : 77.1 KiB (0%)

  169. Language : Greek

  170. Default : No

  171. Forced : No


  172. Text #10

  173. ID : 12

  174. Format : UTF-8

  175. Codec ID : S_TEXT/UTF8

  176. Codec ID/Info : UTF-8 Plain Text

  177. Duration : 1 h 21 min

  178. Bit rate : 77 b/s

  179. Frame rate : 0.236 FPS

  180. Count of elements : 1160

  181. Stream size : 46.3 KiB (0%)

  182. Language : English

  183. Default : No

  184. Forced : No


  185. Text #11

  186. ID : 13

  187. Format : UTF-8

  188. Codec ID : S_TEXT/UTF8

  189. Codec ID/Info : UTF-8 Plain Text

  190. Duration : 1 h 22 min

  191. Bit rate : 74 b/s

  192. Frame rate : 0.257 FPS

  193. Count of elements : 1277

  194. Stream size : 45.1 KiB (0%)

  195. Language : English

  196. Default : No

  197. Forced : No


  198. Text #12

  199. ID : 14

  200. Format : UTF-8

  201. Codec ID : S_TEXT/UTF8

  202. Codec ID/Info : UTF-8 Plain Text

  203. Duration : 1 h 22 min

  204. Bit rate : 82 b/s

  205. Frame rate : 0.251 FPS

  206. Count of elements : 1236

  207. Stream size : 49.7 KiB (0%)

  208. Title : SDH

  209. Language : English

  210. Default : No

  211. Forced : No


  212. Text #13

  213. ID : 15

  214. Format : UTF-8

  215. Codec ID : S_TEXT/UTF8

  216. Codec ID/Info : UTF-8 Plain Text

  217. Duration : 1 h 22 min

  218. Bit rate : 75 b/s

  219. Frame rate : 0.258 FPS

  220. Count of elements : 1284

  221. Stream size : 45.6 KiB (0%)

  222. Title : Latin American

  223. Language : Spanish

  224. Default : No

  225. Forced : No


  226. Text #14

  227. ID : 16

  228. Format : UTF-8

  229. Codec ID : S_TEXT/UTF8

  230. Codec ID/Info : UTF-8 Plain Text

  231. Duration : 1 h 22 min

  232. Bit rate : 75 b/s

  233. Frame rate : 0.258 FPS

  234. Count of elements : 1285

  235. Stream size : 45.9 KiB (0%)

  236. Language : Spanish

  237. Default : No

  238. Forced : No


  239. Text #15

  240. ID : 17

  241. Format : UTF-8

  242. Codec ID : S_TEXT/UTF8

  243. Codec ID/Info : UTF-8 Plain Text

  244. Duration : 1 h 22 min

  245. Bit rate : 72 b/s

  246. Frame rate : 0.259 FPS

  247. Count of elements : 1287

  248. Stream size : 44.1 KiB (0%)

  249. Language : Finnish

  250. Default : No

  251. Forced : No


  252. Text #16

  253. ID : 18

  254. Format : UTF-8

  255. Codec ID : S_TEXT/UTF8

  256. Codec ID/Info : UTF-8 Plain Text

  257. Duration : 1 h 22 min

  258. Bit rate : 97 b/s

  259. Frame rate : 0.258 FPS

  260. Count of elements : 1283

  261. Stream size : 59.4 KiB (0%)

  262. Language : Hebrew

  263. Default : No

  264. Forced : No


  265. Text #17

  266. ID : 19

  267. Format : UTF-8

  268. Codec ID : S_TEXT/UTF8

  269. Codec ID/Info : UTF-8 Plain Text

  270. Duration : 1 h 22 min

  271. Bit rate : 68 b/s

  272. Frame rate : 0.258 FPS

  273. Count of elements : 1285

  274. Stream size : 41.6 KiB (0%)

  275. Language : Croatian

  276. Default : No

  277. Forced : No


  278. Text #18

  279. ID : 20

  280. Format : UTF-8

  281. Codec ID : S_TEXT/UTF8

  282. Codec ID/Info : UTF-8 Plain Text

  283. Duration : 1 h 22 min

  284. Bit rate : 73 b/s

  285. Frame rate : 0.259 FPS

  286. Count of elements : 1286

  287. Stream size : 44.7 KiB (0%)

  288. Language : Hungarian

  289. Default : No

  290. Forced : No


  291. Text #19

  292. ID : 21

  293. Format : UTF-8

  294. Codec ID : S_TEXT/UTF8

  295. Codec ID/Info : UTF-8 Plain Text

  296. Duration : 1 h 22 min

  297. Bit rate : 76 b/s

  298. Frame rate : 0.259 FPS

  299. Count of elements : 1287

  300. Stream size : 46.2 KiB (0%)

  301. Language : Indonesian

  302. Default : No

  303. Forced : No


  304. Text #20

  305. ID : 22

  306. Format : UTF-8

  307. Codec ID : S_TEXT/UTF8

  308. Codec ID/Info : UTF-8 Plain Text

  309. Duration : 1 h 22 min

  310. Bit rate : 72 b/s

  311. Frame rate : 0.258 FPS

  312. Count of elements : 1284

  313. Stream size : 43.7 KiB (0%)

  314. Language : Italian

  315. Default : No

  316. Forced : No


  317. Text #21

  318. ID : 23

  319. Format : UTF-8

  320. Codec ID : S_TEXT/UTF8

  321. Codec ID/Info : UTF-8 Plain Text

  322. Duration : 1 h 22 min

  323. Bit rate : 87 b/s

  324. Frame rate : 0.264 FPS

  325. Count of elements : 1311

  326. Stream size : 53.0 KiB (0%)

  327. Language : Japanese

  328. Default : No

  329. Forced : No


  330. Text #22

  331. ID : 24

  332. Format : UTF-8

  333. Codec ID : S_TEXT/UTF8

  334. Codec ID/Info : UTF-8 Plain Text

  335. Duration : 1 h 22 min

  336. Bit rate : 102 b/s

  337. Frame rate : 0.265 FPS

  338. Count of elements : 1318

  339. Stream size : 62.0 KiB (0%)

  340. Language : Korean

  341. Default : No

  342. Forced : No


  343. Text #23

  344. ID : 25

  345. Format : UTF-8

  346. Codec ID : S_TEXT/UTF8

  347. Codec ID/Info : UTF-8 Plain Text

  348. Duration : 1 h 22 min

  349. Bit rate : 75 b/s

  350. Frame rate : 0.259 FPS

  351. Count of elements : 1287

  352. Stream size : 45.6 KiB (0%)

  353. Language : Malay

  354. Default : No

  355. Forced : No


  356. Text #24

  357. ID : 26

  358. Format : UTF-8

  359. Codec ID : S_TEXT/UTF8

  360. Codec ID/Info : UTF-8 Plain Text

  361. Duration : 1 h 22 min

  362. Bit rate : 68 b/s

  363. Frame rate : 0.258 FPS

  364. Count of elements : 1285

  365. Stream size : 41.4 KiB (0%)

  366. Language : Norwegian Bokmal

  367. Default : No

  368. Forced : No


  369. Text #25

  370. ID : 27

  371. Format : UTF-8

  372. Codec ID : S_TEXT/UTF8

  373. Codec ID/Info : UTF-8 Plain Text

  374. Duration : 1 h 22 min

  375. Bit rate : 79 b/s

  376. Frame rate : 0.257 FPS

  377. Count of elements : 1276

  378. Stream size : 48.0 KiB (0%)

  379. Language : Dutch

  380. Default : No

  381. Forced : No


  382. Text #26

  383. ID : 28

  384. Format : UTF-8

  385. Codec ID : S_TEXT/UTF8

  386. Codec ID/Info : UTF-8 Plain Text

  387. Duration : 1 h 22 min

  388. Bit rate : 73 b/s

  389. Frame rate : 0.255 FPS

  390. Count of elements : 1270

  391. Stream size : 44.5 KiB (0%)

  392. Language : Polish

  393. Default : No

  394. Forced : No


  395. Text #27

  396. ID : 29

  397. Format : UTF-8

  398. Codec ID : S_TEXT/UTF8

  399. Codec ID/Info : UTF-8 Plain Text

  400. Duration : 1 h 22 min

  401. Bit rate : 78 b/s

  402. Frame rate : 0.255 FPS

  403. Count of elements : 1267

  404. Stream size : 47.8 KiB (0%)

  405. Title : Brazilian

  406. Language : Portuguese

  407. Default : No

  408. Forced : No


  409. Text #28

  410. ID : 30

  411. Format : UTF-8

  412. Codec ID : S_TEXT/UTF8

  413. Codec ID/Info : UTF-8 Plain Text

  414. Duration : 1 h 22 min

  415. Bit rate : 72 b/s

  416. Frame rate : 0.257 FPS

  417. Count of elements : 1278

  418. Stream size : 44.3 KiB (0%)

  419. Language : Portuguese

  420. Default : No

  421. Forced : No


  422. Text #29

  423. ID : 31

  424. Format : UTF-8

  425. Codec ID : S_TEXT/UTF8

  426. Codec ID/Info : UTF-8 Plain Text

  427. Duration : 1 h 22 min

  428. Bit rate : 79 b/s

  429. Frame rate : 0.254 FPS

  430. Count of elements : 1264

  431. Stream size : 48.2 KiB (0%)

  432. Language : Romanian

  433. Default : No

  434. Forced : No


  435. Text #30

  436. ID : 32

  437. Format : UTF-8

  438. Codec ID : S_TEXT/UTF8

  439. Codec ID/Info : UTF-8 Plain Text

  440. Duration : 1 h 22 min

  441. Bit rate : 125 b/s

  442. Frame rate : 0.259 FPS

  443. Count of elements : 1290

  444. Stream size : 76.0 KiB (0%)

  445. Language : Russian

  446. Default : No

  447. Forced : No


  448. Text #31

  449. ID : 33

  450. Format : UTF-8

  451. Codec ID : S_TEXT/UTF8

  452. Codec ID/Info : UTF-8 Plain Text

  453. Duration : 1 h 22 min

  454. Bit rate : 77 b/s

  455. Frame rate : 0.251 FPS

  456. Count of elements : 1250

  457. Stream size : 46.8 KiB (0%)

  458. Language : Swedish

  459. Default : No

  460. Forced : No


  461. Text #32

  462. ID : 34

  463. Format : UTF-8

  464. Codec ID : S_TEXT/UTF8

  465. Codec ID/Info : UTF-8 Plain Text

  466. Duration : 1 h 22 min

  467. Bit rate : 175 b/s

  468. Frame rate : 0.260 FPS

  469. Count of elements : 1293

  470. Stream size : 107 KiB (0%)

  471. Language : Thai

  472. Default : No

  473. Forced : No


  474. Text #33

  475. ID : 35

  476. Format : UTF-8

  477. Codec ID : S_TEXT/UTF8

  478. Codec ID/Info : UTF-8 Plain Text

  479. Duration : 1 h 22 min

  480. Bit rate : 71 b/s

  481. Frame rate : 0.220 FPS

  482. Count of elements : 1093

  483. Stream size : 43.5 KiB (0%)

  484. Language : Turkish

  485. Default : No

  486. Forced : No


  487. Text #34

  488. ID : 36

  489. Format : UTF-8

  490. Codec ID : S_TEXT/UTF8

  491. Codec ID/Info : UTF-8 Plain Text

  492. Duration : 1 h 22 min

  493. Bit rate : 120 b/s

  494. Frame rate : 0.259 FPS

  495. Count of elements : 1290

  496. Stream size : 73.4 KiB (0%)

  497. Language : Ukrainian

  498. Default : No

  499. Forced : No


  500. Text #35

  501. ID : 37

  502. Format : UTF-8

  503. Codec ID : S_TEXT/UTF8

  504. Codec ID/Info : UTF-8 Plain Text

  505. Duration : 1 h 22 min

  506. Bit rate : 106 b/s

  507. Frame rate : 0.259 FPS

  508. Count of elements : 1287

  509. Stream size : 64.6 KiB (0%)

  510. Language : Vietnamese

  511. Default : No

  512. Forced : No


  513. Text #36

  514. ID : 38

  515. Format : UTF-8

  516. Codec ID : S_TEXT/UTF8

  517. Codec ID/Info : UTF-8 Plain Text

  518. Duration : 1 h 22 min

  519. Bit rate : 68 b/s

  520. Frame rate : 0.260 FPS

  521. Count of elements : 1293

  522. Stream size : 41.4 KiB (0%)

  523. Title : Simplified

  524. Language : Chinese

  525. Default : No

  526. Forced : No


  527. Text #37

  528. ID : 39

  529. Format : UTF-8

  530. Codec ID : S_TEXT/UTF8

  531. Codec ID/Info : UTF-8 Plain Text

  532. Duration : 1 h 22 min

  533. Bit rate : 68 b/s

  534. Frame rate : 0.260 FPS

  535. Count of elements : 1293

  536. Stream size : 41.5 KiB (0%)

  537. Title : Traditional

  538. Language : Chinese

  539. Default : No

  540. Forced : No


  541. Menu

  542. 01:22:08.000 : en:Credits

复制代码

杀害我女儿的凶手[中文字幕].My.Daughters.Killer.2022.FRENCH.1080p.NF.WEBRip.DDP5.1.Atmos.x264 SMURF 3.22GB  海外电影  第3张 杀害我女儿的凶手[中文字幕].My.Daughters.Killer.2022.FRENCH.1080p.NF.WEBRip.DDP5.1.Atmos.x264 SMURF 3.22GB  海外电影  第4张 杀害我女儿的凶手[中文字幕].My.Daughters.Killer.2022.FRENCH.1080p.NF.WEBRip.DDP5.1.Atmos.x264 SMURF 3.22GB  海外电影  第5张



文件下载


除非特别注明,本文『杀害我女儿的凶手[中文字幕].My.Daughters.Killer.2022.FRENCH.1080p.NF.WEBRip.DDP5.1.Atmos.x264-SMURF 3.22GB』来源于互联网机器人自动抓取,非本站原创。 浮游电影网不对本文拥有版权,如有侵犯,请联系邮箱:fuyouu#yandex.com[#换成@]投诉。我们会在15个工作日内删除。 但烦请转载时请标明出处:“本文转载于『浮游电影网』,原文地址:https://www.fuyouu.com/22669.html

评论吧骚年!

发表你的见解   

昵称*

E-mail*(建议输入,以便收到博主回复的提示邮件)

验证码*

您可以使用eMule或eMule Mod(Windows)、aMule(Win、Linux、Mac)等软件下载eD2k链接。。
eMule收藏集(.emulecollection)文件是您选中的所有链接的列表文件。eMule可以直接下载它们。
按住SHIFT键选择可以选中多个选择框。
可用文件名和大小选择器来选择文件。
文件名选择器帮您根据文件名称或后缀来选择文件。不分大小写。
符号使用:
和:空格( )、+
不包含:-
或:|
转义:一对英文引号("");
匹配开头:^
匹配结尾:$
例如:
选中所有名称中包含有“eMule”或“0.49c”字眼,但不包含有“exe”字眼的:emule|0.49c -exe
选中所有名称的开头是“eMule”,结尾是“0.49c”的:^emule 0.49c$
选中所有名称中带有“eMule 0.49c”的(必须是“eMule 0.49c”,中间没有别的字符,不能是“eMule fake 0.49c”),需要转义:"emule 0.49c"
大小选择器帮您根据文件大小选择文件。