当前位置: 首页 >> 港台电影 >> 赤脚小子[国语音轨].The.Bare-Footed.Kid.1993.CHINESE.1080p.BluRay.x264.DTS-FGT 7.57GB >> 正文

赤脚小子[国语音轨].The.Bare-Footed.Kid.1993.CHINESE.1080p.BluRay.x264.DTS-FGT 7.57GB

2022年07月12日 15:26:38     电影发布:来源于网络     电影分类:港台电影     评论(0)    

赤脚小子[国语音轨].The.Bare Footed.Kid.1993.CHINESE.1080p.BluRay.x264.DTS FGT 7.57GB  港台电影  第1张

赤脚小子[国语音轨].The.Bare Footed.Kid.1993.CHINESE.1080p.BluRay.x264.DTS FGT 7.57GB  港台电影  第2张

◎译 名 赤脚小子 / 江湖传说 / 义胆大侠 / The Bare-Footed Kid

◎年 代 1993

◎产 地 中国香港

◎类 别 剧情 / 动作 / 武侠 / 古装

◎语 言 粤语

◎上映日期 1993-04-03

◎IMDb链接 https://www.imdb.com/title/tt0106552/

◎豆瓣评分 7.1/10 (6895人评价)

◎豆瓣链接 https://movie.douban.com/subject/1474336/

◎片 长 83分钟

◎导 演 杜琪峯 Johnnie To (id:1160186)

◎编 剧 游乃海 Nai-Hoi Yau (id:1161310)

◎演 员 郭富城 Aaron Kwok (id:1041390)

张曼玉 Maggie Cheung (id:1274231)

狄龙 Lung Ti (id:1025426)

吴倩莲 Chien-lien Wu (id:1166703)

张兆辉 Siu-Fai Cheung (id:1005843)

秦沛 Paul Chun (id:1048476)

曾江 Kenneth Tsang (id:1275451)

黄一飞 Yut Fei Wong (id:1301215)

张荣祥 Cheung Wing-Cheung (id:1326361)

江苗定 Miu Ting Kong (id:1410093)

麦伟章 Wai Cheung Mak (id:1361256)

周树基 Kent Chow Shu-Kei (id:1411711)

谭镇渡 Tony Tam Chun-To (id:1417488)

向叠 Heung Dip (id:1405401)

陈文妤 Man-Hiu Chan (id:1418360)

王章宝 Cheung-Bo Wong (id:1447698)

林华勋 Jameson Wa-Fan Lam (id:1369702)

方逸华 Mona Fong (id:1283933)

胡伟立 Wai Lap Wu (id:1275249)

黄永恒 Wing-Hung Wong (id:1300411)

黎沃 Lai Yu (id:1411067)

刘家良 Kar-Leung Lau (id:1275361)

◎简 介

清朝某年。赤脚小子关丰曜(郭富城 饰)独身入省城闯荡,他一贫如洗,可以依赖的只有自己一身功夫和染坊“四季织”内的父亲故交段青云(狄龙 饰)。

省城内局势颇不宁静,天龙坊主人喀和布(曾江 饰)凭旗人身份独霸一方,用以选拔家丁打手的擂台熙攘不休。新任县令袁天佑(张兆辉 饰)与教师(秦沛 饰)欲铲除喀和布,但立根不稳无计可施。关丰曜于路巧遇四季织女主人白筱君(张曼玉 饰)和袁师之女小莲(吴倩莲 饰),并终与段青云相见,原来段青云为躲避追捕,改名换姓藏身染坊,并与白筱君产生了情意。

喀和布为吞并四季织奸计频出,关丰曜忍无可忍打上门去,反被喀和布收服利用。袁天佑在同喀和布的较量中一再受挫,竟要挟段青云与喀和布拼斗,关丰曜匆匆赶去救援,但为时已晚……

  1. Video

  2. ID : 1

  3. Format : AVC

  4. Format/Info : Advanced Video Codec

  5. Format profile : [email protected]

  6. Format settings : CABAC / 4 Ref Frames

  7. Format settings, CABAC : Yes

  8. Format settings, Reference frames : 4 frames

  9. Codec ID : V_MPEG4/ISO/AVC

  10. Duration : 1 h 23 min

  11. Bit rate : 11.5 Mb/s

  12. Width : 1 920 pixels

  13. Height : 1 028 pixels

  14. Display aspect ratio : 1.85:1

  15. Frame rate mode : Constant

  16. Frame rate : 25.000 FPS

  17. Color space : YUV

  18. Chroma subsampling : 4:2:0

  19. Bit depth : 8 bits

  20. Scan type : Progressive

  21. Bits/(Pixel*Frame) : 0.233

  22. Stream size : 6.69 GiB (88%)

  23. Writing library : x264 core 148 r2748 97eaef2

  24. Encoding settings : cabac=1 / ref=4 / deblock=1:-2:-2 / analyse=0x3:0x113 / me=umh / subme=9 / psy=1 / psy_rd=1.00:0.15 / mixed_ref=1 / me_range=16 / chroma_me=1 / trellis=2 / 8x8dct=1 / cqm=0 / deadzone=21,11 / fast_pskip=1 / chroma_qp_offset=-3 / threads=72 / lookahead_threads=3 / sliced_threads=0 / nr=0 / decimate=1 / interlaced=0 / NTMzNTQ= / bluray_compat=0 / constrained_intra=0 / bframes=3 / b_pyramid=2 / b_adapt=1 / b_bias=0 / direct=3 / weightb=1 / open_gop=0 / weightp=2 / keyint=250 / keyint_min=25 / NTMzNTQ=uuDQuD2mJt9fsCf / scenecut=40 / intra_refresh=0 / rc_lookahead=50 / rc=2pass / mbtree=1 / bitrate=11500 / ratetol=1.0 / qcomp=0.60 / qpmin=0 / qpmax=69 / qpstep=4 / cplxblur=20.0 / qblur=0.5 / vbv_maxrate=31250 / vbv_bufsize=31250 / nal_hrd=none / filler=0 / NTMzNTQ=LmsMAP37EqsCpk / ip_ratio=1.40 / aq=1:1.00

  25. Language : Chinese

  26. Default : Yes

  27. Forced : No


  28. Audio

  29. ID : 2

  30. Format : DTS

  31. Format/Info : Digital Theater Systems

  32. Codec ID : A_DTS

  33. Duration : 1 h 23 min

  34. Bit rate mode : Constant

  35. Bit rate : 1 509 kb/s

  36. Channel(s) : 2 channels

  37. Channel layout : L R

  38. Sampling rate : 48.0 kHz

  39. Frame rate : 93.750 FPS (512 SPF)

  40. Bit depth : 16 bits

  41. Compression mode : Lossy

  42. Stream size : 899 MiB (12%)

  43. Language : Chinese

  44. Default : Yes

  45. Forced : No


  46. Text #1

  47. ID : 3

  48. Format : UTF-8

  49. Codec ID : S_TEXT/UTF8

  50. Codec ID/Info : UTF-8 Plain Text

  51. Duration : 1 h 19 min

  52. Bit rate : 45 b/s

  53. Frame rate : 0.213 FPS

  54. Count of elements : 1017

  55. Stream size : 26.4 KiB (0%)

  56. Language : English

  57. Default : Yes

  58. Forced : No


  59. Text #2

  60. ID : 4

  61. Format : UTF-8

  62. Codec ID : S_TEXT/UTF8

  63. Codec ID/Info : UTF-8 Plain Text

  64. Duration : 1 h 20 min

  65. Bit rate : 47 b/s

  66. Frame rate : 0.210 FPS

  67. Count of elements : 1021

  68. Stream size : 28.3 KiB (0%)

  69. Language : German

  70. Default : No

  71. Forced : No


  72. Text #3

  73. ID : 5

  74. Format : UTF-8

  75. Codec ID : S_TEXT/UTF8

  76. Codec ID/Info : UTF-8 Plain Text

  77. Duration : 1 h 20 min

  78. Bit rate : 45 b/s

  79. Frame rate : 0.210 FPS

  80. Count of elements : 1019

  81. Stream size : 27.1 KiB (0%)

  82. Language : Indonesian

  83. Default : No

  84. Forced : No


  85. Text #4

  86. ID : 6

  87. Format : UTF-8

  88. Codec ID : S_TEXT/UTF8

  89. Codec ID/Info : UTF-8 Plain Text

  90. Duration : 1 h 20 min

  91. Bit rate : 45 b/s

  92. Frame rate : 0.210 FPS

  93. Count of elements : 1021

  94. Stream size : 26.8 KiB (0%)

  95. Language : Spanish

  96. Default : No

  97. Forced : No


  98. Text #5

  99. ID : 7

  100. Format : UTF-8

  101. Codec ID : S_TEXT/UTF8

  102. Codec ID/Info : UTF-8 Plain Text

  103. Duration : 1 h 20 min

  104. Bit rate : 44 b/s

  105. Frame rate : 0.210 FPS

  106. Count of elements : 1018

  107. Stream size : 26.5 KiB (0%)

  108. Title : Brazilian

  109. Language : Portuguese

  110. Default : No

  111. Forced : No


  112. Menu

  113. 00:00:00.000 : en:Chapter 01

  114. 00:10:31.240 : en:Chapter 02

  115. 00:21:41.080 : en:Chapter 03

  116. 00:31:36.800 : en:Chapter 04

  117. 00:40:00.480 : en:Chapter 05

  118. 00:48:32.560 : en:Chapter 06

  119. 00:55:45.520 : en:Chapter 07

  120. 01:02:54.640 : en:Chapter 08

  121. 01:13:57.400 : en:Chapter 09

复制代码

赤脚小子[国语音轨].The.Bare Footed.Kid.1993.CHINESE.1080p.BluRay.x264.DTS FGT 7.57GB  港台电影  第3张 赤脚小子[国语音轨].The.Bare Footed.Kid.1993.CHINESE.1080p.BluRay.x264.DTS FGT 7.57GB  港台电影  第4张 赤脚小子[国语音轨].The.Bare Footed.Kid.1993.CHINESE.1080p.BluRay.x264.DTS FGT 7.57GB  港台电影  第5张



文件下载


除非特别注明,本文『赤脚小子[国语音轨].The.Bare-Footed.Kid.1993.CHINESE.1080p.BluRay.x264.DTS-FGT 7.57GB』来源于互联网机器人自动抓取,非本站原创。 浮游电影网不对本文拥有版权,如有侵犯,请联系邮箱:fuyouu#yandex.com[#换成@]投诉。我们会在15个工作日内删除。 但烦请转载时请标明出处:“本文转载于『浮游电影网』,原文地址:https://www.fuyouu.com/22667.html

评论吧骚年!

发表你的见解   

昵称*

E-mail*(建议输入,以便收到博主回复的提示邮件)

验证码*

您可以使用eMule或eMule Mod(Windows)、aMule(Win、Linux、Mac)等软件下载eD2k链接。。
eMule收藏集(.emulecollection)文件是您选中的所有链接的列表文件。eMule可以直接下载它们。
按住SHIFT键选择可以选中多个选择框。
可用文件名和大小选择器来选择文件。
文件名选择器帮您根据文件名称或后缀来选择文件。不分大小写。
符号使用:
和:空格( )、+
不包含:-
或:|
转义:一对英文引号("");
匹配开头:^
匹配结尾:$
例如:
选中所有名称中包含有“eMule”或“0.49c”字眼,但不包含有“exe”字眼的:emule|0.49c -exe
选中所有名称的开头是“eMule”,结尾是“0.49c”的:^emule 0.49c$
选中所有名称中带有“eMule 0.49c”的(必须是“eMule 0.49c”,中间没有别的字符,不能是“eMule fake 0.49c”),需要转义:"emule 0.49c"
大小选择器帮您根据文件大小选择文件。