当前位置: 首页 >> 港台电影 >> 叱咤风云[国语音轨].Ne.Zha.2021.CHINESE.1080p.BluRay.x264.DTS-FGT 9.52GB >> 正文

叱咤风云[国语音轨].Ne.Zha.2021.CHINESE.1080p.BluRay.x264.DTS-FGT 9.52GB

2022年07月11日 14:02:43     电影发布:来源于网络     电影分类:港台电影     评论(0)    

叱咤风云[国语音轨].Ne.Zha.2021.CHINESE.1080p.BluRay.x264.DTS FGT 9.52GB  港台电影  第1张

叱咤风云[国语音轨].Ne.Zha.2021.CHINESE.1080p.BluRay.x264.DTS FGT 9.52GB  港台电影  第2张

◎译 名 叱咤风云 / Nezha

◎年 代 2021

◎产 地 中国台湾

◎类 别 剧情 / 爱情 / 运动

◎语 言 汉语普通话

◎上映日期 2021-01-15(中国大陆) / 2021-01-16(中国台湾)

◎IMDb链接 https://www.imdb.com/title/tt13767804/

◎豆瓣评分 4.2/10 (4739人评价)

◎豆瓣链接 https://movie.douban.com/subject/30279972/

◎片 长 105分钟

◎导 演 陈奕先 Yixian Chen (id:1325750)

◎演 员 昆凌 Hannah Quinlivan (id:1313866)

曹佑宁 Yu-ning Tsao (id:1339117)

范逸臣 Van Fan (id:1274683)

柯有伦 Alan Kuo (id:1318192)

刘畊宏 Will Liu (id:1316024)

王俊凯 Karry Wang (id:1339594)

周杰伦 Jay Chou (id:1048000)

高英轩 Ven Kao (id:1317617)

林庆台 Ching-tai Lin (id:1316654)

许慧欣 Evonne Hsu (id:1312842)

林暐恒 Ken Lin (id:1326912)

彭康育 Kang-yu Peng (id:1355051)

陈欣健 Philip Chan (id:1007245)

孙协志 Tony Sun (id:1355025)

欧阳龙 Lung Ouyang (id:1323257)

李玉玺 Dino Lee (id:1351984)

周杰伦 Jay Chou (id:1048000)

刘畊宏 Will Liu (id:1316024)

彭康育 Kang-yu Peng (id:1355051)

卢一廷 Yiting Lu (id:1444856)

江秉承 Johnson Chiang (id:1444857)

宫尚义 Freddy Kung (id:1444858)

周毅铨 Sarso Chou (id:1444859)

马天宇 Matianyu (id:1447757)

周杰伦 Jay Chou (id:1048000)

范逸臣 Van Fan (id:1274683)

柯有伦 Alan Kuo (id:1318192)

迪南·道尔 Dylan Doyle (id:1433469)

阿米达·贝尔加比 Amida Belgarbi (id:1444860)

刘政丰 Masa Liou (id:1444861)

梁国祥 Guoxiang Liang (id:1444862)

刘守翔 Shouxiang Liu (id:1444863)

何塞·E·卡尔达拉罗 (id:1462461)

布姆·苏瓦贡达 Boom Suvagondha (id:1462462)

瓦鲁特·奥帕斯瓦塔纳库 Varut Opaswatanakul (id:1462464)

瓦拉特·普拉泽特拉普 Warat Prasertlap (id:1462463)

史蒂夫·米勒 Steve Miller (id:1326658)

陈文辉 Man-Fai Chan (id:1412129)

朱科丰 Ko-Feng Chu (id:1444864)

冯仁稚 Jen-Chih Feng (id:1462466)

◎简 介

曾经叱咤风云的LIONS车队在领队老申过世后逐渐走向没落,不甘愿退休的过气车王李一飞与他的新搭档——联盟历史上第一个女车手莉莉相处得并不融洽,两人互不相让,令车队的处境雪上加霜。

不被人看好的二代新领队阿申,不得已只好把希望寄托在一个只会玩模拟器赛车的宅男杜杰克身上。没有实战经验的杜杰克并不具备参加比赛的实力,但为了追赶自己喜欢的莉莉,他不断努力与成长

车王李一飞面对自己的赛车成绩和家人的牵挂,最终认清事实,决定退居幕后,让莉莉与杜杰克组成搭档。当一切即将步入正轨时,新的矛盾却诞生了。

LIONS车队外有强大的对手宋杰,内有亟需解决的误会与冲突。在激战的赛场上,他们重新找回初心,再次叱咤风云。

  1. Video

  2. ID : 1

  3. Format : AVC

  4. Format/Info : Advanced Video Codec

  5. Format profile : [email protected]

  6. Format settings : CABAC / 4 Ref Frames

  7. Format settings, CABAC : Yes

  8. Format settings, Reference frames : 4 frames

  9. Codec ID : V_MPEG4/ISO/AVC

  10. Duration : 1 h 44 min

  11. Bit rate : 11.5 Mb/s

  12. Width : 1 920 pixels

  13. Height : 804 pixels

  14. Display aspect ratio : 2.40:1

  15. Frame rate mode : Constant

  16. Frame rate : 24.000 FPS

  17. Color space : YUV

  18. Chroma subsampling : 4:2:0

  19. Bit depth : 8 bits

  20. Scan type : Progressive

  21. Bits/(Pixel*Frame) : 0.310

  22. Stream size : 8.41 GiB (88%)

  23. Writing library : x264 core 148 r2795M aaa9aa8

  24. Encoding settings : cabac=1 / ref=4 / deblock=1:-2:-2 / analyse=0x3:0x113 / me=umh / subme=9 / psy=1 / psy_rd=1.00:0.15 / mixed_ref=1 / me_range=16 / chroma_me=1 / trellis=2 / 8x8dct=1 / cqm=0 / deadzone=21,11 / fast_pskip=1 / chroma_qp_offset=-3 / threads=24 / lookahead_threads=3 / sliced_threads=0 / nr=0 / decimate=1 / interlaced=0 / NTMzNTQ= / bluray_compat=0 / constrained_intra=0 / bframes=3 / b_pyramid=2 / b_adapt=1 / b_bias=0 / direct=3 / weightb=1 / open_gop=0 / weightp=2 / keyint=250 / keyint_min=25 / NTMzNTQ=uuDQuD2mJt9fsCf / scenecut=40 / intra_refresh=0 / rc_lookahead=50 / rc=2pass / mbtree=1 / bitrate=11500 / ratetol=1.0 / qcomp=0.60 / qpmin=0 / qpmax=69 / qpstep=4 / cplxblur=20.0 / qblur=0.5 / vbv_maxrate=31250 / vbv_bufsize=31250 / nal_hrd=none / filler=0 / NTMzNTQ=LmsMAP37EqsCpk / ip_ratio=1.40 / aq=1:1.00

  25. Language : Chinese

  26. Default : Yes

  27. Forced : No


  28. Audio

  29. ID : 2

  30. Format : DTS

  31. Format/Info : Digital Theater Systems

  32. Codec ID : A_DTS

  33. Duration : 1 h 44 min

  34. Bit rate mode : Constant

  35. Bit rate : 1 509 kb/s

  36. Channel(s) : 6 channels

  37. Channel layout : C L R Ls Rs LFE

  38. Sampling rate : 48.0 kHz

  39. Frame rate : 93.750 FPS (512 SPF)

  40. Bit depth : 16 bits

  41. Compression mode : Lossy

  42. Stream size : 1.10 GiB (12%)

  43. Language : Chinese

  44. Default : Yes

  45. Forced : No


  46. Text #1

  47. ID : 3

  48. Format : UTF-8

  49. Codec ID : S_TEXT/UTF8

  50. Codec ID/Info : UTF-8 Plain Text

  51. Duration : 1 h 36 min

  52. Bit rate : 56 b/s

  53. Frame rate : 0.208 FPS

  54. Count of elements : 1211

  55. Stream size : 39.8 KiB (0%)

  56. Language : English

  57. Default : Yes

  58. Forced : No


  59. Text #2

  60. ID : 4

  61. Format : UTF-8

  62. Codec ID : S_TEXT/UTF8

  63. Codec ID/Info : UTF-8 Plain Text

  64. Duration : 1 h 36 min

  65. Bit rate : 56 b/s

  66. Frame rate : 0.210 FPS

  67. Count of elements : 1223

  68. Stream size : 40.2 KiB (0%)

  69. Title : SDH

  70. Language : English

  71. Default : No

  72. Forced : No


  73. Menu

  74. 00:00:00.000 : en:Chapter 01

  75. 00:10:24.416 : en:Chapter 02

  76. 00:16:45.166 : en:Chapter 03

  77. 00:25:02.375 : en:Chapter 04

  78. 00:34:23.791 : en:Chapter 05

  79. 00:44:15.041 : en:Chapter 06

  80. 00:53:29.583 : en:Chapter 07

  81. 01:01:50.166 : en:Chapter 08

  82. 01:11:56.416 : en:Chapter 09

  83. 01:19:04.875 : en:Chapter 10

  84. 01:26:38.208 : en:Chapter 11

  85. 01:37:28.708 : en:Chapter 12

复制代码

叱咤风云[国语音轨].Ne.Zha.2021.CHINESE.1080p.BluRay.x264.DTS FGT 9.52GB  港台电影  第3张 叱咤风云[国语音轨].Ne.Zha.2021.CHINESE.1080p.BluRay.x264.DTS FGT 9.52GB  港台电影  第4张 叱咤风云[国语音轨].Ne.Zha.2021.CHINESE.1080p.BluRay.x264.DTS FGT 9.52GB  港台电影  第5张




文件下载


除非特别注明,本文『叱咤风云[国语音轨].Ne.Zha.2021.CHINESE.1080p.BluRay.x264.DTS-FGT 9.52GB』来源于互联网机器人自动抓取,非本站原创。 浮游电影网不对本文拥有版权,如有侵犯,请联系邮箱:fuyouu#yandex.com[#换成@]投诉。我们会在15个工作日内删除。 但烦请转载时请标明出处:“本文转载于『浮游电影网』,原文地址:https://www.fuyouu.com/22660.html

评论吧骚年!

发表你的见解   

昵称*

E-mail*(建议输入,以便收到博主回复的提示邮件)

验证码*

您可以使用eMule或eMule Mod(Windows)、aMule(Win、Linux、Mac)等软件下载eD2k链接。。
eMule收藏集(.emulecollection)文件是您选中的所有链接的列表文件。eMule可以直接下载它们。
按住SHIFT键选择可以选中多个选择框。
可用文件名和大小选择器来选择文件。
文件名选择器帮您根据文件名称或后缀来选择文件。不分大小写。
符号使用:
和:空格( )、+
不包含:-
或:|
转义:一对英文引号("");
匹配开头:^
匹配结尾:$
例如:
选中所有名称中包含有“eMule”或“0.49c”字眼,但不包含有“exe”字眼的:emule|0.49c -exe
选中所有名称的开头是“eMule”,结尾是“0.49c”的:^emule 0.49c$
选中所有名称中带有“eMule 0.49c”的(必须是“eMule 0.49c”,中间没有别的字符,不能是“eMule fake 0.49c”),需要转义:"emule 0.49c"
大小选择器帮您根据文件大小选择文件。