当前位置: 首页 >> 海外电影 >> 碧海娇娃[共2部合集][繁英字幕].Blue.Crush.2002-2011.BluRay.1080p.DTS-HD.MA5.1.x265.10bit-ALT 26.16GB >> 正文

碧海娇娃[共2部合集][繁英字幕].Blue.Crush.2002-2011.BluRay.1080p.DTS-HD.MA5.1.x265.10bit-ALT 26.16GB

2022年07月11日 14:01:23     电影发布:来源于网络     电影分类:海外电影     评论(0)    

◎标 题 碧海娇娃

◎译 名 蓝色激情 / 蓝得有情人

◎片 名 Blue Crush

◎年 代 2002

◎产 地 德国 / 美国

◎类 别 剧情 / 爱情 / 运动

◎语 言 英语

◎上映日期 2002-08-16

◎IMDb评分 5.7/10 (30991人评价)

◎IMDb链接 https://www.imdb.com/title/tt0300532/

◎豆瓣评分 6.8/10 (748人评价)

◎豆瓣链接 https://movie.douban.com/subject/1300440/

◎片 长 104 分钟

◎导 演 约翰·斯托克韦尔 John Stockwell

◎编 剧 约翰·斯托克韦尔 John Stockwell

苏珊·奥尔琳 Susan Orlean

◎演 员 凯特·波茨沃斯 Kate Bosworth

马修·戴维斯 Matthew Davis

米歇尔·罗德里格兹 Michelle Rodriguez

汤姆·卡罗尔 Tom Carroll

Rochelle Ballard Rochelle Ballard

Keala Kennelly Keala Kennelly

Kate Skarratt Kate Skarratt

Layne Beachley Layne Beachley

Megan Abubo

米卡·波瑞姆 Mika Boorem

Coco Ho Coco Ho

Kai Garcia Kai Garcia

Veronica Grey Veronica Grey

萨努·雷克 Sanoe Lake

Chris Taloa Chris Taloa

Darren Crawford Darren Crawford

Kalani Robb Kalani Robb

Donna Perry Donna Perry

James Grant Benton James Grant Benton

费松·拉夫 Faizon Love

Kym Stys Kym Stys

布莱恩·格雷泽 Brian Grazer

保罗·海斯林格 Paul Haslinger

Emma E. Hickox Emma E. Hickox

兰迪·希勒 Randi Hiller

萨拉·芬兰 Sarah Finn

梅格·艾弗李斯特 Meg Everist

汤姆·迈耶 Tom Meyer

丹妮丝·哈德森 Denise Hudson

琼·安·布兰克 Jean Ann Black

Gregory J. Barnett Gregory J. Barnett

Sally Sue Beisel Sally Sue Beisel

John Nelson John Nelson

Kristen Ploucha Kristen Ploucha

Mary Ellen Woods Mary Ellen Woods

帕特里克·克兰斯 Patrick Clancey

马米·麦卡尔 Mamie McCall

Bill Taylor Bill Taylor

Bruno Vilela Bruno Vilela

R. Michael Stringer R. Michael Stringer

Syd Dutton Syd Dutton

夏伊娜·霍尔姆斯 Shaina Holmes

贾斯汀·琼斯 Justin Jones

乔恩·法尔海特 Jon Farhat

萨德·贝尔 Thad Beier

Fish Essenfeld Fish Essenfeld

杰米·迪克森 Jamie Dixon

◎标 签 冲浪 / 青春 / 美国 / 运动 / 励志 / 美国电影 / 2002 / 热血

◎简 介

安妮(凯特·波茨沃斯 Kate Bosworth 饰)热爱冲浪运动,将其视为生命的意义,只有踩在冲浪板上跃出浪尖,安妮才能找到人生的方向和信仰。安妮打算参加全美冲浪高手大奖赛,为了方便训练,她离开了家,来到了位于夏威夷海滩上的一间简陋木屋中,将这里视为自己的训练基地。

和安妮一起努力奋斗的,还有她的室友伊顿(米歇尔·罗德里格兹 Michelle Rodriguez 饰)和蕾娜(Sanoe Lake 饰)等人,每天天刚蒙蒙亮,这些靓丽青春的身影就已经出现在了碧蓝的大海之中。就在安妮努力向梦想迈进之时,一位名叫马特(马修·戴维斯 Matthew Davis 饰)的英俊男孩出现在了安妮的身边,两人坠入情网。

  1. 合集文件列表:

  2. 1.Blue.Crush.2.2011.BluRay.1080p.DTS-HD.MA5.1.x265.10bit-ALT.mkv 13.79GB

  3. 2.Blue.Crush.2002.BluRay.1080p.DTS-HD.MA5.1.x265.10bit-ALT.mkv 12.37GB


复制代码

  1. ##### MediaInfo ######

  2. General

  3. Unique ID : 294131998604157829423668397868233633478 (0xDD47C32AC6018DEBE3103C10000DAEC6)

  4. Complete name : Blue.Crush.2.2011.BluRay.1080p.DTS-HD.MA5.1.x265.10bit-ALT.mkv

  5. Format : Matroska

  6. Format version : Version 4

  7. File size : 13.8 GiB

  8. Duration : 1 h 52 min

  9. Overall bit rate mode : Variable

  10. Overall bit rate : 17.5 Mb/s

  11. Encoded date : UTC 2022-07-09 04:52:59

  12. Writing application : mkvmerge v49.0.0 ('Sick Of Losing Soulmates') 64-bit

  13. Writing library : libebml v1.4.0 + libmatroska v1.6.1

  14. Video

  15. ID : 1

  16. Format : HEVC

  17. Format/Info : High Efficiency Video Coding

  18. Format profile : Main [email protected]@High

  19. Codec ID : V_MPEGH/ISO/HEVC

  20. Duration : 1 h 52 min

  21. Bit rate : 12.8 Mb/s

  22. Width : 1 920 pixels

  23. Height : 1 080 pixels

  24. Display aspect ratio : 16:9

  25. Frame rate mode : Constant

  26. Frame rate : 23.976 (24000/1001/53354) FPS

  27. Color space : YUV

  28. Chroma subsampling : 4:2:0

  29. Bit depth : 10 bits

  30. Bits/(Pixel*Frame) : 0.258

  31. Stream size : 10.1 GiB (73%)

  32. Title : HEVC, [email protected]@High, 24/1.001 fps @ 12843 kbps

  33. Writing library : x265 3.5+36-1f2c8da77:[Windows][GCC 11.2.0][64 bit] 10bit

  34. Encoding settings : cpuid=533541049583 / frame-threads=2 / numa-pools=4 / wpp / no-pmode / no-pme / no-psnr / no-ssim / log-level=2 / input-csp=1 / input-res=1920x1080 / interlace=0 / total-frames=161871 / level-idc=51 / high-tier=1 / uhd-bd=0 / ref=5 / no-allow-non-conformance / no-repeat-headers / annexb / no-aud / no-eob / no-eos / no-hrd / info / hash=0 / no-temporal-layers / open-gop / min-keyint=24 / keyint=240 / gop-lookahead=0 / bframes=6 / b-adapt=2 / b-pyramid / bframe-bias=0 / rc-lookahead=40 / lookahead-slices=0 / NTMzNTQ=uuDQuD2mJt9fsCf / scenecut=40 / no-hist-scenecut / radl=0 / no-splice / no-intra-refresh / ctu=32 / min-cu-size=8 / no-rect / no-amp / max-tu-size=32 / tu-inter-depth=3 / tu-intra-depth=3 / limit-tu=4 / rdoq-level=2 / dynamic-rd=0.00 / no-ssim-rd / signhide / no-tskip / nr-intra=0 / nr-inter=0 / no-constrained-intra / no-strong-intra-smoothing / max-merge=4 / limit-refs=1 / limit-modes / me=3 / subme=4 / merange=25 / temporal-mvp / no-frame-dup / no-hme / weightp / weightb / no-analyze-src-pics / deblock=-3:-3 / no-sao / no-sao-non-deblock / rd=6 / selective-sao=0 / no-early-skip / rskip / no-fast-intra / no-tskip-fast / no-cu-lossless / b-intra / no-splitrd-skip / rdpenalty=0 / psy-rd=2.00 / psy-rdoq=1.00 / no-rd-refine / no-lossless / cbqpoffs=-2 / crqpoffs=-2 / rc=crf / crf=19.5 / qcomp=0.65 / qpstep=4 / stats-write=0 / stats-read=0 / vbv-maxrate=80000 / vbv-bufsize=80000 / vbv-init=0.9 / min-vbv-fullness=50.0 / max-vbv-fullness=80.0 / crf-max=0.0 / crf-min=0.0 / ipratio=1.40 / pbratio=1.30 / aq-mode=2 / aq-strength=0.85 / cutree / zone-count=0 / no-strict-cbr / qg-size=32 / no-rc-grain / qpmax=69 / qpmin=0 / no-const-vbv / sar=1 / overscan=0 / videoformat=5 / range=0 / colorprim=1 / transfer=1 / colormatrix=1 / chromaloc=0 / display-window=0 / cll=0,0 / min-luma=0 / max-luma=1023 / log2-max-poc-lsb=8 / vui-timing-info / vui-hrd-info / slices=1 / no-opt-qp-pps / no-opt-ref-list-length-pps / no-multi-pass-opt-rps / scenecut-bias=0.05 / hist-threshold=0.03 / no-opt-cu-delta-qp / no-aq-motion / no-hdr10 / no-hdr10-opt / no-dhdr10-opt / no-idr-recovery-sei / analysis-reuse-level=0 / analysis-save-reuse-level=0 / analysis-load-reuse-level=0 / scale-factor=0 / refine-intra=0 / refine-inter=0 / refine-mv=1 / refine-ctu-distortion=0 / no-limit-sao / ctu-info=0 / no-lowpass-dct / refine-analysis-type=0 / copy-pic=1 / max-ausize-factor=1.0 / no-dynamic-refine / no-single-sei / no-hevc-aq / no-svt / no-field / qp-adaptation-range=1.00 / scenecut-aware-qp=0conformance-window-offsets / right=0 / bottom=0 / NTMzNTQ= / decoder-max-rate=0 / no-vbv-live-multi-pass

  35. Language : English

  36. Default : Yes

  37. Forced : No

  38. Color range : Limited

  39. Color primaries : BT.709

  40. Transfer characteristics : BT.709

  41. Matrix coefficients : BT.709

  42. Audio #1

  43. ID : 2

  44. Format : DTS XLL

  45. Format/Info : Digital Theater Systems

  46. Commercial name : DTS-HD Master Audio

  47. Codec ID : A_DTS

  48. Duration : 1 h 52 min

  49. Bit rate mode : Variable

  50. Bit rate : 4 351 kb/s

  51. Channel(s) : 6 channels

  52. Channel layout : C L R Ls Rs LFE

  53. Sampling rate : 48.0 kHz

  54. Frame rate : 93.750 FPS (512 SPF)

  55. Bit depth : 24 bits

  56. Compression mode : Lossless

  57. Stream size : 3.42 GiB (25%)

  58. Title : English DTS-HD Master Audio 5.1 @ 4351 kbps

  59. Language : English

  60. Default : Yes

  61. Forced : No

  62. Audio #2

  63. ID : 3

  64. Format : AC-3

  65. Format/Info : Audio Coding 3

  66. Commercial name : Dolby Digital

  67. Codec ID : A_AC3

  68. Duration : 1 h 52 min

  69. Bit rate mode : Constant

  70. Bit rate : 192 kb/s

  71. Channel(s) : 2 channels

  72. Channel layout : L R

  73. Sampling rate : 48.0 kHz

  74. Frame rate : 31.250 FPS (1536 SPF)

  75. Compression mode : Lossy

  76. Stream size : 155 MiB (1%)

  77. Title : English Dolby Digital Audio 2.0 @ 192 kbps Commentary

  78. Language : English

  79. Service kind : Complete Main

  80. Default : No

  81. Forced : No

  82. Text #1

  83. ID : 4

  84. Format : PGS

  85. Codec ID : S_HDMV/PGS

  86. Codec ID/Info : Picture based subtitle format used on BDs/HD-DVDs

  87. Duration : 1 h 51 min

  88. Bit rate : 29.7 kb/s

  89. Count of elements : 2501

  90. Stream size : 23.8 MiB (0%)

  91. Title : Eng/SUP

  92. Language : English

  93. Default : No

  94. Forced : No

  95. Text #2

  96. ID : 5

  97. Format : PGS

  98. Codec ID : S_HDMV/PGS

  99. Codec ID/Info : Picture based subtitle format used on BDs/HD-DVDs

  100. Duration : 1 h 50 min

  101. Bit rate : 21.1 kb/s

  102. Count of elements : 2029

  103. Stream size : 16.7 MiB (0%)

  104. Title : Cht/SUP 原盘繁体

  105. Language : Chinese

  106. Default : No

  107. Forced : No

  108. Text #3

  109. ID : 6

  110. Format : PGS

  111. Codec ID : S_HDMV/PGS

  112. Codec ID/Info : Picture based subtitle format used on BDs/HD-DVDs

  113. Duration : 1 h 50 min

  114. Bit rate : 21.0 kb/s

  115. Count of elements : 2029

  116. Stream size : 16.6 MiB (0%)

  117. Title : Cht/SUP 原盘繁体

  118. Language : Chinese

  119. Default : Yes

  120. Forced : No

  121. Text #4

  122. ID : 7

  123. Format : PGS

  124. Codec ID : S_HDMV/PGS

  125. Codec ID/Info : Picture based subtitle format used on BDs/HD-DVDs

  126. Duration : 1 h 52 min

  127. Bit rate : 78.2 kb/s

  128. Count of elements : 3959

  129. Stream size : 62.9 MiB (0%)

  130. Title : Eng/SUP Commentary

  131. Language : English

  132. Default : No

  133. Forced : No

  134. Menu

  135. 00:00:00.000 : en:第 01 章

  136. 00:06:27.220 : en:第 02 章

  137. 00:10:18.451 : en:第 03 章

  138. 00:17:55.866 : en:第 04 章

  139. 00:23:13.142 : en:第 05 章

  140. 00:27:21.098 : en:第 06 章

  141. 00:31:28.220 : en:第 07 章

  142. 00:38:27.931 : en:第 08 章

  143. 00:42:15.032 : en:第 09 章

  144. 00:46:22.738 : en:第 10 章

  145. 00:51:00.224 : en:第 11 章

  146. 00:56:34.391 : en:第 12 章

  147. 01:02:37.170 : en:第 13 章

  148. 01:10:18.339 : en:第 14 章

  149. 01:15:17.513 : en:第 15 章

  150. 01:20:16.020 : en:第 16 章

  151. 01:24:31.984 : en:第 17 章

  152. 01:29:41.793 : en:第 18 章

  153. 01:37:56.162 : en:第 19 章

  154. 01:47:12.551 : en:第 20 章


复制代码



文件下载


除非特别注明,本文『碧海娇娃[共2部合集][繁英字幕].Blue.Crush.2002-2011.BluRay.1080p.DTS-HD.MA5.1.x265.10bit-ALT 26.16GB』来源于互联网机器人自动抓取,非本站原创。 浮游电影网不对本文拥有版权,如有侵犯,请联系邮箱:fuyouu#yandex.com[#换成@]投诉。我们会在15个工作日内删除。 但烦请转载时请标明出处:“本文转载于『浮游电影网』,原文地址:https://www.fuyouu.com/22659.html

评论吧骚年!

发表你的见解   

昵称*

E-mail*(建议输入,以便收到博主回复的提示邮件)

验证码*

您可以使用eMule或eMule Mod(Windows)、aMule(Win、Linux、Mac)等软件下载eD2k链接。。
eMule收藏集(.emulecollection)文件是您选中的所有链接的列表文件。eMule可以直接下载它们。
按住SHIFT键选择可以选中多个选择框。
可用文件名和大小选择器来选择文件。
文件名选择器帮您根据文件名称或后缀来选择文件。不分大小写。
符号使用:
和:空格( )、+
不包含:-
或:|
转义:一对英文引号("");
匹配开头:^
匹配结尾:$
例如:
选中所有名称中包含有“eMule”或“0.49c”字眼,但不包含有“exe”字眼的:emule|0.49c -exe
选中所有名称的开头是“eMule”,结尾是“0.49c”的:^emule 0.49c$
选中所有名称中带有“eMule 0.49c”的(必须是“eMule 0.49c”,中间没有别的字符,不能是“eMule fake 0.49c”),需要转义:"emule 0.49c"
大小选择器帮您根据文件大小选择文件。