当前位置: 首页 >> 欧美电影 >> 华丽写实—海上花制作旅程[国语音轨].Beautified.Realism.The.Making.of.Flowers.of.Shanghai.2021.CHINESE.ENSUBBED.1080p. >> 正文

华丽写实—海上花制作旅程[国语音轨].Beautified.Realism.The.Making.of.Flowers.of.Shanghai.2021.CHINESE.ENSUBBED.1080p.

2022年07月10日 13:49:33     电影发布:来源于网络     电影分类:欧美电影     评论(0)    

华丽写实—海上花制作旅程[国语音轨].Beautified.Realism.The.Making.of.Flowers.of.Shanghai.2021.CHINESE.ENSUBBED.1080p.WEBRip.AAC2.0.x264-KUCHU 1.32GB

华丽写实—海上花制作旅程[国语音轨].Beautified.Realism.The.Making.of.Flowers.of.Shanghai.2021.CHINESE.ENSUBBED.1080p.  欧美电影  第1张

华丽写实—海上花制作旅程[国语音轨].Beautified.Realism.The.Making.of.Flowers.of.Shanghai.2021.CHINESE.ENSUBBED.1080p.  欧美电影  第2张

◎译 名 华丽写实—海上花制作旅程

◎片 名 Beautified Realism: The Making of Flowers of Shanghai

◎年 代 2021

◎产 地 美国

◎类 别 纪录片 / 短片

◎语 言 汉语普通话

◎上映日期 2021(台北金马影展)

◎IMDb链接 https://www.imdb.com/title/tt14136284/

◎豆瓣评分 8.7/10 (179人评价)

◎豆瓣链接 https://movie.douban.com/subject/35599374/

◎导 演 丹尼尔·瑞姆 Daniel Raim (id:1329214)

◎编 剧 丹尼尔·瑞姆 Daniel Raim (id:1329214)

◎演 员 侯孝贤 Hsiao-hsien Hou (id:1093843)

李屏宾 Mark Lee Ping Bing (id:1274482)

黄文英 Wen-Ying Huang (id:1287054)

杜笃之 Du-Che Tu (id:1275159)

廖庆松 Ching-Song Liao (id:1312523)

◎简 介

《華麗寫實—海上花製作旅程》是以電影幕後紀錄製作見長的奧斯卡金像獎提名導演丹尼爾雷姆,協同製作人孫向辰,透過鏡頭帶領觀眾走入《海上花》華麗又寫實的幕後樣貌。影片除了網羅《海上花》二十年前的資料畫面,貫穿電影製作的前、中、後期,並邀請與侯孝賢導演長年合作的班底黃文英、李屏賓、杜篤之、廖慶松現身說法,在時空交疊中侃侃而談,窺見大師如何在片場運籌帷幄,打造出永世流傳的迷人影像。在眾人回味交織中,經典再度綻放。

  1. Video

  2. ID : 1

  3. Format : AVC

  4. Format/Info : Advanced Video Codec

  5. Format profile : [email protected]

  6. Format settings : CABAC / 5 Ref Frames

  7. Format settings, CABAC : Yes

  8. Format settings, Reference frames : 5 frames

  9. Codec ID : V_MPEG4/ISO/AVC

  10. Duration : 37 min 12 s

  11. Bit rate : 4 805 kb/s

  12. Width : 1 920 pixels

  13. Height : 1 080 pixels

  14. Display aspect ratio : 16:9

  15. Frame rate mode : Constant

  16. Frame rate : 23.976 (24000/1001/53354) FPS

  17. Color space : YUV

  18. Chroma subsampling : 4:2:0

  19. Bit depth : 8 bits

  20. Scan type : Progressive

  21. Bits/(Pixel*Frame) : 0.097

  22. Stream size : 1.25 GiB (95%)

  23. Writing library : x264 core 164 r10 ae03d92

  24. Encoding settings : cabac=1 / ref=5 / deblock=1:0:0 / analyse=0x3:0x113 / me=hex / subme=8 / psy=1 / psy_rd=1.00:0.00 / mixed_ref=1 / me_range=16 / chroma_me=1 / trellis=2 / 8x8dct=1 / cqm=0 / deadzone=21,11 / fast_pskip=1 / chroma_qp_offset=-2 / threads=34 / lookahead_threads=5 / sliced_threads=0 / nr=0 / decimate=1 / interlaced=0 / NTMzNTQ= / bluray_compat=0 / stitchable=1 / constrained_intra=0 / bframes=3 / b_pyramid=2 / b_adapt=2 / b_bias=0 / direct=3 / weightb=1 / open_gop=0 / weightp=2 / keyint=infinite / keyint_min=23 / NTMzNTQ=uuDQuD2mJt9fsCf / scenecut=40 / intra_refresh=0 / rc_lookahead=50 / rc=crf / mbtree=1 / crf=20.0 / qcomp=0.60 / qpmin=5 / qpmax=69 / qpstep=4 / vbv_maxrate=5500 / vbv_bufsize=15000 / crf_max=0.0 / nal_hrd=none / filler=0 / NTMzNTQ=LmsMAP37EqsCpk / ip_ratio=1.40 / aq=1:1.00

  25. Default : Yes

  26. Forced : No

  27. Color range : Limited

  28. Color primaries : BT.709

  29. Transfer characteristics : BT.709

  30. Matrix coefficients : BT.709


  31. Audio

  32. ID : 2

  33. Format : AAC LC

  34. Format/Info : Advanced Audio Codec Low Complexity

  35. Codec ID : A_AAC-2

  36. Duration : 37 min 12 s

  37. Bit rate : 253 kb/s

  38. Channel(s) : 2 channels

  39. Channel layout : L R

  40. Sampling rate : 48.0 kHz

  41. Frame rate : 46.875 FPS (1024 SPF)

  42. Compression mode : Lossy

  43. Stream size : 67.4 MiB (5%)

  44. Language : Chinese

  45. Default : Yes

  46. Forced : No

复制代码

华丽写实—海上花制作旅程[国语音轨].Beautified.Realism.The.Making.of.Flowers.of.Shanghai.2021.CHINESE.ENSUBBED.1080p.  欧美电影  第3张 华丽写实—海上花制作旅程[国语音轨].Beautified.Realism.The.Making.of.Flowers.of.Shanghai.2021.CHINESE.ENSUBBED.1080p.  欧美电影  第4张 华丽写实—海上花制作旅程[国语音轨].Beautified.Realism.The.Making.of.Flowers.of.Shanghai.2021.CHINESE.ENSUBBED.1080p.  欧美电影  第5张



文件下载


除非特别注明,本文『华丽写实—海上花制作旅程[国语音轨].Beautified.Realism.The.Making.of.Flowers.of.Shanghai.2021.CHINESE.ENSUBBED.1080p.』来源于互联网机器人自动抓取,非本站原创。 浮游电影网不对本文拥有版权,如有侵犯,请联系邮箱:fuyouu#yandex.com[#换成@]投诉。我们会在15个工作日内删除。 但烦请转载时请标明出处:“本文转载于『浮游电影网』,原文地址:https://www.fuyouu.com/22655.html

评论吧骚年!

发表你的见解   

昵称*

E-mail*(建议输入,以便收到博主回复的提示邮件)

验证码*

您可以使用eMule或eMule Mod(Windows)、aMule(Win、Linux、Mac)等软件下载eD2k链接。。
eMule收藏集(.emulecollection)文件是您选中的所有链接的列表文件。eMule可以直接下载它们。
按住SHIFT键选择可以选中多个选择框。
可用文件名和大小选择器来选择文件。
文件名选择器帮您根据文件名称或后缀来选择文件。不分大小写。
符号使用:
和:空格( )、+
不包含:-
或:|
转义:一对英文引号("");
匹配开头:^
匹配结尾:$
例如:
选中所有名称中包含有“eMule”或“0.49c”字眼,但不包含有“exe”字眼的:emule|0.49c -exe
选中所有名称的开头是“eMule”,结尾是“0.49c”的:^emule 0.49c$
选中所有名称中带有“eMule 0.49c”的(必须是“eMule 0.49c”,中间没有别的字符,不能是“eMule fake 0.49c”),需要转义:"emule 0.49c"
大小选择器帮您根据文件大小选择文件。