当前位置: 首页 >> 海外电影 >> 危险关系[中文字幕].Dangerous.Liaisons.2022.FRENCH.1080p.NF.WEBRip.DDP5.1.Atmos.x264-SMURF 4.03GB >> 正文

危险关系[中文字幕].Dangerous.Liaisons.2022.FRENCH.1080p.NF.WEBRip.DDP5.1.Atmos.x264-SMURF 4.03GB

2022年07月09日 15:13:36     电影发布:来源于网络     电影分类:海外电影     评论(0)    

危险关系[中文字幕].Dangerous.Liaisons.2022.FRENCH.1080p.NF.WEBRip.DDP5.1.Atmos.x264 SMURF 4.03GB  海外电影  第1张

◎译 名 危险关系 / Dangerous Liaisons

◎片 名 Les Liaisons Dangereuses

◎年 代 2022

◎产 地 法国

◎类 别 剧情 / 爱情

◎语 言 法语

◎上映日期 2022-07-08(法国网络)

◎IMDb链接 https://www.imdb.com/title/tt15548032/

◎豆瓣链接 https://movie.douban.com/subject/35800465/

◎片 长 109分钟

◎导 演 蕾切尔·苏伊萨 Rachel Suissa (id:1471639)

◎编 剧 斯利曼-巴普蒂斯特·贝尔洪 Slimane-Baptiste Berhoun (id:1471640)

蕾切尔·苏伊萨 Rachel Suissa (id:1471639)

拉克洛 Choderlos de Laclos (id:1028214)

◎演 员 保拉·洛卡特利 Paola Locatelli (id:1471630)

西蒙·雷洛尔 Simon Rérolle (id:1471631)

艾拉·佩莱格里尼 Ella Pellegrini (id:1471633)

亚力克西斯·马沙利克 Alexis·Michalik (id:1357801)

奥斯卡·莱斯格 Oscar Lesage (id:1427423)

毛瑾轩 Jin Xuan Mao (id:1466496)

卡蜜尔·莱昂·福辰 Camille Léon-Fucien (id:1471632)

朱利安·洛佩兹 Julien Lopez (id:1471638)

特里斯坦·赞奇 Tristan Zanchi (id:1471634)

艾默里克·福杰隆 Aymeric Fougeron (id:1471635)

艾洛伊斯·扬哈德 Hélo?se Janjaud (id:1471636)

艾尔莎·杜切 Elsa Duchez (id:1471637)

◎简 介

As the innocent Célène (Paola Locatelli) falls in love with popular surfer Tristan (Simon Rérolle) in her new school, she has no idea that she’s the object of a cruel bet between Tristan and Instagram queen Vanessa (Ella Pellegrini) Dangerous Liaisons, a film starring Paola Locatelli and Simon Rérolle, only on Netflix, July 8th.

  1. Video

  2. ID : 1

  3. Format : AVC

  4. Format/Info : Advanced Video Codec

  5. Format profile : [email protected]

  6. Format settings : CABAC / 3 Ref Frames

  7. Format settings, CABAC : Yes

  8. Format settings, Reference frames : 3 frames

  9. Codec ID : V_MPEG4/ISO/AVC

  10. Duration : 1 h 49 min

  11. Bit rate mode : Variable

  12. Bit rate : 3 872 kb/s

  13. Nominal bit rate : 4 640 kb/s

  14. Maximum bit rate : 6 960 kb/s

  15. Width : 1 920 pixels

  16. Height : 1 080 pixels

  17. Display aspect ratio : 16:9

  18. Frame rate mode : Constant

  19. Frame rate : 24.000 FPS

  20. Color space : YUV

  21. Chroma subsampling : 4:2:0

  22. Bit depth : 8 bits

  23. Scan type : Progressive

  24. Bits/(Pixel*Frame) : 0.078

  25. Stream size : 2.95 GiB (73%)

  26. Writing library : x264 core 148 r2727 7d026e8

  27. Encoding settings : cabac=1 / ref=3 / deblock=1:0:0 / analyse=0x1:0x111 / me=umh / subme=10 / psy=1 / psy_rd=1.00:0.00 / mixed_ref=1 / me_range=24 / chroma_me=1 / trellis=2 / 8x8dct=0 / cqm=0 / deadzone=21,11 / fast_pskip=1 / chroma_qp_offset=-2 / threads=8 / lookahead_threads=1 / sliced_threads=0 / nr=0 / decimate=1 / interlaced=0 / NTMzNTQ= / bluray_compat=0 / stitchable=1 / constrained_intra=0 / bframes=2 / b_pyramid=0 / b_adapt=2 / b_bias=0 / direct=3 / weightb=1 / open_gop=0 / weightp=2 / keyint=250 / keyint_min=24 / scenecut=0 / intra_refresh=0 / rc_lookahead=48 / rc=2pass / mbtree=1 / bitrate=4640 / ratetol=1.0 / qcomp=0.50 / qpmin=6 / qpmax=51 / qpstep=4 / cplxblur=20.0 / qblur=0.5 / vbv_maxrate=6960 / vbv_bufsize=9280 / nal_hrd=vbr / filler=0 / NTMzNTQ=LmsMAP37EqsCpk / ip_ratio=1.40 / aq=1:1.00

  28. Default : Yes

  29. Forced : No


  30. Audio #1

  31. ID : 2

  32. Format : E-AC-3 JOC

  33. Format/Info : Enhanced AC-3 with Joint Object Coding

  34. Commercial name : Dolby Digital Plus with Dolby Atmos

  35. Codec ID : A_EAC3

  36. Duration : 1 h 49 min

  37. Bit rate mode : Constant

  38. Bit rate : 768 kb/s

  39. Channel(s) : 6 channels

  40. Channel layout : L R C LFE Ls Rs

  41. Sampling rate : 48.0 kHz

  42. Frame rate : 31.250 FPS (1536 SPF)

  43. Compression mode : Lossy

  44. Stream size : 599 MiB (15%)

  45. Language : French

  46. Service kind : Complete Main

  47. Default : Yes

  48. Forced : No

  49. Complexity index : 16

  50. Number of dynamic objects : 15

  51. Bed channel count : 1 channel

  52. Bed channel configuration : LFE


  53. Audio #2

  54. ID : 3

  55. Format : E-AC-3

  56. Format/Info : Enhanced AC-3

  57. Commercial name : Dolby Digital Plus

  58. Codec ID : A_EAC3

  59. Duration : 1 h 49 min

  60. Bit rate mode : Constant

  61. Bit rate : 640 kb/s

  62. Channel(s) : 6 channels

  63. Channel layout : L R C LFE Ls Rs

  64. Sampling rate : 48.0 kHz

  65. Frame rate : 31.250 FPS (1536 SPF)

  66. Compression mode : Lossy

  67. Stream size : 499 MiB (12%)

  68. Language : English

  69. Service kind : Complete Main

  70. Default : No

  71. Forced : No


  72. Text #1

  73. ID : 4

  74. Format : UTF-8

  75. Codec ID : S_TEXT/UTF8

  76. Codec ID/Info : UTF-8 Plain Text

  77. Duration : 1 h 42 min

  78. Bit rate : 3 b/s

  79. Count of elements : 67

  80. Stream size : 2.93 KiB (0%)

  81. Title : Forced

  82. Language : French

  83. Default : Yes

  84. Forced : Yes


  85. Text #2

  86. ID : 5

  87. Format : UTF-8

  88. Codec ID : S_TEXT/UTF8

  89. Codec ID/Info : UTF-8 Plain Text

  90. Duration : 1 h 45 min

  91. Bit rate : 2 b/s

  92. Count of elements : 46

  93. Stream size : 1.80 KiB (0%)

  94. Title : Forced

  95. Language : English

  96. Default : No

  97. Forced : No


  98. Text #3

  99. ID : 6

  100. Format : UTF-8

  101. Codec ID : S_TEXT/UTF8

  102. Codec ID/Info : UTF-8 Plain Text

  103. Duration : 1 h 45 min

  104. Bit rate : 63 b/s

  105. Count of elements : 1454

  106. Stream size : 49.5 KiB (0%)

  107. Title : SDH

  108. Language : French

  109. Default : No

  110. Forced : No


  111. Text #4

  112. ID : 7

  113. Format : UTF-8

  114. Codec ID : S_TEXT/UTF8

  115. Codec ID/Info : UTF-8 Plain Text

  116. Duration : 1 h 45 min

  117. Bit rate : 87 b/s

  118. Count of elements : 1297

  119. Stream size : 67.6 KiB (0%)

  120. Language : Arabic

  121. Default : No

  122. Forced : No


  123. Text #5

  124. ID : 8

  125. Format : UTF-8

  126. Codec ID : S_TEXT/UTF8

  127. Codec ID/Info : UTF-8 Plain Text

  128. Duration : 1 h 45 min

  129. Bit rate : 56 b/s

  130. Count of elements : 1022

  131. Stream size : 44.0 KiB (0%)

  132. Language : Czech

  133. Default : No

  134. Forced : No


  135. Text #6

  136. ID : 9

  137. Format : UTF-8

  138. Codec ID : S_TEXT/UTF8

  139. Codec ID/Info : UTF-8 Plain Text

  140. Duration : 1 h 47 min

  141. Bit rate : 51 b/s

  142. Count of elements : 1251

  143. Stream size : 40.7 KiB (0%)

  144. Language : Danish

  145. Default : No

  146. Forced : No


  147. Text #7

  148. ID : 10

  149. Format : UTF-8

  150. Codec ID : S_TEXT/UTF8

  151. Codec ID/Info : UTF-8 Plain Text

  152. Duration : 1 h 47 min

  153. Bit rate : 53 b/s

  154. Count of elements : 1279

  155. Stream size : 41.9 KiB (0%)

  156. Language : German

  157. Default : No

  158. Forced : No


  159. Text #8

  160. ID : 11

  161. Format : UTF-8

  162. Codec ID : S_TEXT/UTF8

  163. Codec ID/Info : UTF-8 Plain Text

  164. Duration : 1 h 47 min

  165. Bit rate : 88 b/s

  166. Count of elements : 1324

  167. Stream size : 69.5 KiB (0%)

  168. Language : Greek

  169. Default : No

  170. Forced : No


  171. Text #9

  172. ID : 12

  173. Format : UTF-8

  174. Codec ID : S_TEXT/UTF8

  175. Codec ID/Info : UTF-8 Plain Text

  176. Duration : 1 h 45 min

  177. Bit rate : 60 b/s

  178. Count of elements : 1266

  179. Stream size : 46.7 KiB (0%)

  180. Language : English

  181. Default : No

  182. Forced : No


  183. Text #10

  184. ID : 13

  185. Format : UTF-8

  186. Codec ID : S_TEXT/UTF8

  187. Codec ID/Info : UTF-8 Plain Text

  188. Duration : 1 h 47 min

  189. Bit rate : 51 b/s

  190. Count of elements : 1223

  191. Stream size : 40.1 KiB (0%)

  192. Language : English

  193. Default : No

  194. Forced : No


  195. Text #11

  196. ID : 14

  197. Format : UTF-8

  198. Codec ID : S_TEXT/UTF8

  199. Codec ID/Info : UTF-8 Plain Text

  200. Duration : 1 h 47 min

  201. Bit rate : 92 b/s

  202. Count of elements : 1764

  203. Stream size : 72.4 KiB (0%)

  204. Title : SDH

  205. Language : English

  206. Default : No

  207. Forced : No


  208. Text #12

  209. ID : 15

  210. Format : UTF-8

  211. Codec ID : S_TEXT/UTF8

  212. Codec ID/Info : UTF-8 Plain Text

  213. Duration : 1 h 45 min

  214. Bit rate : 53 b/s

  215. Count of elements : 1293

  216. Stream size : 41.8 KiB (0%)

  217. Title : Latin American

  218. Language : Spanish

  219. Default : No

  220. Forced : No


  221. Text #13

  222. ID : 16

  223. Format : UTF-8

  224. Codec ID : S_TEXT/UTF8

  225. Codec ID/Info : UTF-8 Plain Text

  226. Duration : 1 h 47 min

  227. Bit rate : 51 b/s

  228. Count of elements : 1334

  229. Stream size : 40.2 KiB (0%)

  230. Title : Latin American

  231. Language : Spanish

  232. Default : No

  233. Forced : No


  234. Text #14

  235. ID : 17

  236. Format : UTF-8

  237. Codec ID : S_TEXT/UTF8

  238. Codec ID/Info : UTF-8 Plain Text

  239. Duration : 1 h 47 min

  240. Bit rate : 51 b/s

  241. Count of elements : 1289

  242. Stream size : 40.8 KiB (0%)

  243. Language : Spanish

  244. Default : No

  245. Forced : No


  246. Text #15

  247. ID : 18

  248. Format : UTF-8

  249. Codec ID : S_TEXT/UTF8

  250. Codec ID/Info : UTF-8 Plain Text

  251. Duration : 1 h 47 min

  252. Bit rate : 53 b/s

  253. Count of elements : 1285

  254. Stream size : 42.1 KiB (0%)

  255. Language : Finnish

  256. Default : No

  257. Forced : No


  258. Text #16

  259. ID : 19

  260. Format : UTF-8

  261. Codec ID : S_TEXT/UTF8

  262. Codec ID/Info : UTF-8 Plain Text

  263. Duration : 1 h 45 min

  264. Bit rate : 84 b/s

  265. Count of elements : 1306

  266. Stream size : 65.6 KiB (0%)

  267. Language : Hebrew

  268. Default : No

  269. Forced : No


  270. Text #17

  271. ID : 20

  272. Format : UTF-8

  273. Codec ID : S_TEXT/UTF8

  274. Codec ID/Info : UTF-8 Plain Text

  275. Duration : 1 h 47 min

  276. Bit rate : 48 b/s

  277. Count of elements : 1288

  278. Stream size : 38.1 KiB (0%)

  279. Language : Croatian

  280. Default : No

  281. Forced : No


  282. Text #18

  283. ID : 21

  284. Format : UTF-8

  285. Codec ID : S_TEXT/UTF8

  286. Codec ID/Info : UTF-8 Plain Text

  287. Duration : 1 h 45 min

  288. Bit rate : 53 b/s

  289. Count of elements : 1299

  290. Stream size : 41.3 KiB (0%)

  291. Language : Hungarian

  292. Default : No

  293. Forced : No


  294. Text #19

  295. ID : 22

  296. Format : UTF-8

  297. Codec ID : S_TEXT/UTF8

  298. Codec ID/Info : UTF-8 Plain Text

  299. Duration : 1 h 47 min

  300. Bit rate : 57 b/s

  301. Count of elements : 1302

  302. Stream size : 44.8 KiB (0%)

  303. Language : Indonesian

  304. Default : No

  305. Forced : No


  306. Text #20

  307. ID : 23

  308. Format : UTF-8

  309. Codec ID : S_TEXT/UTF8

  310. Codec ID/Info : UTF-8 Plain Text

  311. Duration : 1 h 47 min

  312. Bit rate : 53 b/s

  313. Count of elements : 1293

  314. Stream size : 42.0 KiB (0%)

  315. Language : Italian

  316. Default : No

  317. Forced : No


  318. Text #21

  319. ID : 24

  320. Format : UTF-8

  321. Codec ID : S_TEXT/UTF8

  322. Codec ID/Info : UTF-8 Plain Text

  323. Duration : 1 h 47 min

  324. Bit rate : 53 b/s

  325. Count of elements : 1371

  326. Stream size : 42.0 KiB (0%)

  327. Language : Japanese

  328. Default : No

  329. Forced : No


  330. Text #22

  331. ID : 25

  332. Format : UTF-8

  333. Codec ID : S_TEXT/UTF8

  334. Codec ID/Info : UTF-8 Plain Text

  335. Duration : 1 h 47 min

  336. Bit rate : 62 b/s

  337. Count of elements : 1306

  338. Stream size : 48.8 KiB (0%)

  339. Language : Korean

  340. Default : No

  341. Forced : No


  342. Text #23

  343. ID : 26

  344. Format : UTF-8

  345. Codec ID : S_TEXT/UTF8

  346. Codec ID/Info : UTF-8 Plain Text

  347. Duration : 1 h 47 min

  348. Bit rate : 52 b/s

  349. Count of elements : 1294

  350. Stream size : 40.8 KiB (0%)

  351. Language : Malay

  352. Default : No

  353. Forced : No


  354. Text #24

  355. ID : 27

  356. Format : UTF-8

  357. Codec ID : S_TEXT/UTF8

  358. Codec ID/Info : UTF-8 Plain Text

  359. Duration : 1 h 47 min

  360. Bit rate : 51 b/s

  361. Count of elements : 1226

  362. Stream size : 40.2 KiB (0%)

  363. Language : Norwegian Bokmal

  364. Default : No

  365. Forced : No


  366. Text #25

  367. ID : 28

  368. Format : UTF-8

  369. Codec ID : S_TEXT/UTF8

  370. Codec ID/Info : UTF-8 Plain Text

  371. Duration : 1 h 47 min

  372. Bit rate : 52 b/s

  373. Count of elements : 1259

  374. Stream size : 41.0 KiB (0%)

  375. Language : Dutch

  376. Default : No

  377. Forced : No


  378. Text #26

  379. ID : 29

  380. Format : UTF-8

  381. Codec ID : S_TEXT/UTF8

  382. Codec ID/Info : UTF-8 Plain Text

  383. Duration : 1 h 45 min

  384. Bit rate : 50 b/s

  385. Count of elements : 1291

  386. Stream size : 39.1 KiB (0%)

  387. Language : Polish

  388. Default : No

  389. Forced : No


  390. Text #27

  391. ID : 30

  392. Format : UTF-8

  393. Codec ID : S_TEXT/UTF8

  394. Codec ID/Info : UTF-8 Plain Text

  395. Duration : 1 h 45 min

  396. Bit rate : 55 b/s

  397. Count of elements : 1403

  398. Stream size : 43.3 KiB (0%)

  399. Title : Brazilian

  400. Language : Portuguese

  401. Default : No

  402. Forced : No


  403. Text #28

  404. ID : 31

  405. Format : UTF-8

  406. Codec ID : S_TEXT/UTF8

  407. Codec ID/Info : UTF-8 Plain Text

  408. Duration : 1 h 45 min

  409. Bit rate : 52 b/s

  410. Count of elements : 1299

  411. Stream size : 40.3 KiB (0%)

  412. Title : Brazilian

  413. Language : Portuguese

  414. Default : No

  415. Forced : No


  416. Text #29

  417. ID : 32

  418. Format : UTF-8

  419. Codec ID : S_TEXT/UTF8

  420. Codec ID/Info : UTF-8 Plain Text

  421. Duration : 1 h 47 min

  422. Bit rate : 67 b/s

  423. Count of elements : 1641

  424. Stream size : 53.1 KiB (0%)

  425. Title : Brazilian (SDH)

  426. Language : Portuguese

  427. Default : No

  428. Forced : No


  429. Text #30

  430. ID : 33

  431. Format : UTF-8

  432. Codec ID : S_TEXT/UTF8

  433. Codec ID/Info : UTF-8 Plain Text

  434. Duration : 1 h 47 min

  435. Bit rate : 54 b/s

  436. Count of elements : 1296

  437. Stream size : 42.9 KiB (0%)

  438. Language : Portuguese

  439. Default : No

  440. Forced : No


  441. Text #31

  442. ID : 34

  443. Format : UTF-8

  444. Codec ID : S_TEXT/UTF8

  445. Codec ID/Info : UTF-8 Plain Text

  446. Duration : 1 h 47 min

  447. Bit rate : 60 b/s

  448. Count of elements : 1269

  449. Stream size : 47.5 KiB (0%)

  450. Language : Romanian

  451. Default : No

  452. Forced : No


  453. Text #32

  454. ID : 35

  455. Format : UTF-8

  456. Codec ID : S_TEXT/UTF8

  457. Codec ID/Info : UTF-8 Plain Text

  458. Duration : 1 h 47 min

  459. Bit rate : 85 b/s

  460. Count of elements : 1316

  461. Stream size : 67.1 KiB (0%)

  462. Language : Russian

  463. Default : No

  464. Forced : No


  465. Text #33

  466. ID : 36

  467. Format : UTF-8

  468. Codec ID : S_TEXT/UTF8

  469. Codec ID/Info : UTF-8 Plain Text

  470. Duration : 1 h 47 min

  471. Bit rate : 51 b/s

  472. Count of elements : 1177

  473. Stream size : 40.3 KiB (0%)

  474. Language : Swedish

  475. Default : No

  476. Forced : No


  477. Text #34

  478. ID : 37

  479. Format : UTF-8

  480. Codec ID : S_TEXT/UTF8

  481. Codec ID/Info : UTF-8 Plain Text

  482. Duration : 1 h 47 min

  483. Bit rate : 141 b/s

  484. Count of elements : 1299

  485. Stream size : 111 KiB (0%)

  486. Language : Thai

  487. Default : No

  488. Forced : No


  489. Text #35

  490. ID : 38

  491. Format : UTF-8

  492. Codec ID : S_TEXT/UTF8

  493. Codec ID/Info : UTF-8 Plain Text

  494. Duration : 1 h 47 min

  495. Bit rate : 52 b/s

  496. Count of elements : 1280

  497. Stream size : 41.1 KiB (0%)

  498. Language : Turkish

  499. Default : No

  500. Forced : No


  501. Text #36

  502. ID : 39

  503. Format : UTF-8

  504. Codec ID : S_TEXT/UTF8

  505. Codec ID/Info : UTF-8 Plain Text

  506. Duration : 1 h 47 min

  507. Bit rate : 81 b/s

  508. Count of elements : 1284

  509. Stream size : 64.2 KiB (0%)

  510. Language : Ukrainian

  511. Default : No

  512. Forced : No


  513. Text #37

  514. ID : 40

  515. Format : UTF-8

  516. Codec ID : S_TEXT/UTF8

  517. Codec ID/Info : UTF-8 Plain Text

  518. Duration : 1 h 47 min

  519. Bit rate : 72 b/s

  520. Count of elements : 1328

  521. Stream size : 57.0 KiB (0%)

  522. Language : Vietnamese

  523. Default : No

  524. Forced : No


  525. Text #38

  526. ID : 41

  527. Format : UTF-8

  528. Codec ID : S_TEXT/UTF8

  529. Codec ID/Info : UTF-8 Plain Text

  530. Duration : 1 h 47 min

  531. Bit rate : 55 b/s

  532. Count of elements : 1297

  533. Stream size : 43.6 KiB (0%)

  534. Title : Simplified

  535. Language : Chinese

  536. Default : No

  537. Forced : No


  538. Text #39

  539. ID : 42

  540. Format : UTF-8

  541. Codec ID : S_TEXT/UTF8

  542. Codec ID/Info : UTF-8 Plain Text

  543. Duration : 1 h 47 min

  544. Bit rate : 53 b/s

  545. Count of elements : 1307

  546. Stream size : 41.6 KiB (0%)

  547. Title : Traditional

  548. Language : Chinese

  549. Default : No

  550. Forced : No


  551. Menu

  552. 01:45:47.000 : en:Credits

复制代码

危险关系[中文字幕].Dangerous.Liaisons.2022.FRENCH.1080p.NF.WEBRip.DDP5.1.Atmos.x264 SMURF 4.03GB  海外电影  第2张 危险关系[中文字幕].Dangerous.Liaisons.2022.FRENCH.1080p.NF.WEBRip.DDP5.1.Atmos.x264 SMURF 4.03GB  海外电影  第3张 危险关系[中文字幕].Dangerous.Liaisons.2022.FRENCH.1080p.NF.WEBRip.DDP5.1.Atmos.x264 SMURF 4.03GB  海外电影  第4张



文件下载


除非特别注明,本文『危险关系[中文字幕].Dangerous.Liaisons.2022.FRENCH.1080p.NF.WEBRip.DDP5.1.Atmos.x264-SMURF 4.03GB』来源于互联网机器人自动抓取,非本站原创。 浮游电影网不对本文拥有版权,如有侵犯,请联系邮箱:fuyouu#yandex.com[#换成@]投诉。我们会在15个工作日内删除。 但烦请转载时请标明出处:“本文转载于『浮游电影网』,原文地址:https://www.fuyouu.com/22653.html

评论吧骚年!

发表你的见解   

昵称*

E-mail*(建议输入,以便收到博主回复的提示邮件)

验证码*

您可以使用eMule或eMule Mod(Windows)、aMule(Win、Linux、Mac)等软件下载eD2k链接。。
eMule收藏集(.emulecollection)文件是您选中的所有链接的列表文件。eMule可以直接下载它们。
按住SHIFT键选择可以选中多个选择框。
可用文件名和大小选择器来选择文件。
文件名选择器帮您根据文件名称或后缀来选择文件。不分大小写。
符号使用:
和:空格( )、+
不包含:-
或:|
转义:一对英文引号("");
匹配开头:^
匹配结尾:$
例如:
选中所有名称中包含有“eMule”或“0.49c”字眼,但不包含有“exe”字眼的:emule|0.49c -exe
选中所有名称的开头是“eMule”,结尾是“0.49c”的:^emule 0.49c$
选中所有名称中带有“eMule 0.49c”的(必须是“eMule 0.49c”,中间没有别的字符,不能是“eMule fake 0.49c”),需要转义:"emule 0.49c"
大小选择器帮您根据文件大小选择文件。