当前位置: 首页 >> 动画电影 >> 海兽猎人[中文字幕].The.Sea.Beast.2022.1080p.NF.WEBRip.DDP5.1.Atmos.x264-SMURF 4.84GB >> 正文

海兽猎人[中文字幕].The.Sea.Beast.2022.1080p.NF.WEBRip.DDP5.1.Atmos.x264-SMURF 4.84GB

2022年07月09日 15:12:45     电影发布:来源于网络     电影分类:动画电影     评论(0)    

海兽猎人[中文字幕].The.Sea.Beast.2022.1080p.NF.WEBRip.DDP5.1.Atmos.x264 SMURF 4.84GB  动画电影  第1张

海兽猎人[中文字幕].The.Sea.Beast.2022.1080p.NF.WEBRip.DDP5.1.Atmos.x264 SMURF 4.84GB  动画电影  第2张

◎译 名 海兽猎人 / 海兽 / 雅各与海兽 / Jacob and the Sea Beast

◎片 名 The Sea Beast

◎年 代 2022

◎产 地 美国

◎类 别 喜剧 / 动画 / 冒险

◎语 言 英语

◎上映日期 2022-06-15(安锡国际动画节) / 2022-07-08(美国网络)

◎IMDb链接 https://www.imdb.com/title/tt9288046/

◎豆瓣链接 https://movie.douban.com/subject/33418682/

◎片 长 115分钟

◎导 演 克里斯·威廉姆斯 Chris Williams (id:1300949)

◎编 剧 克里斯·威廉姆斯 Chris Williams (id:1300949)

◎演 员 卡尔·厄本 Karl Urban (id:1017903)

萨里斯-安奇·哈托 Zaris-Angel Hator (id:1473009)

杰瑞德·哈里斯 Jared Harris (id:1049700)

丹·史蒂文斯 Dan Stevens (id:1027527)

玛丽安娜·琼-巴普蒂斯特 Marianne Jean-Baptiste (id:1055527)

凯西·伯克 Kathy Burke (id:1018250)

米歇尔·克莱普顿 Michele Clapton (id:1280832)

◎简 介

《海兽猎人》为金像导演克里斯·威廉姆斯(《魔海奇缘》《大英雄联盟》)最新力作,带领我们走到世界尽头,开展真正的冒险。本片由卡尔·厄本、杰瑞德·哈里斯、玛丽安娜·琼-巴普蒂斯特、丹·史蒂文斯、凯西·伯克领衔声演。

在骇人海兽肆虐的年代,凡是成功斩除怪物的猎人都会受到英雄般的对待。他们当中,最受人爱戴的就是伟大的雅各霍兰德。某天,年少的麦茜布兰伯偷偷溜上雅各传说中的船,意外成为他的得力助手。两人一起踏上精彩刺激的冒险,航向未知的水域,大笔写下历史

  1. Video

  2. ID : 1

  3. Format : AVC

  4. Format/Info : Advanced Video Codec

  5. Format profile : [email protected]

  6. Format settings : CABAC / 3 Ref Frames

  7. Format settings, CABAC : Yes

  8. Format settings, Reference frames : 3 frames

  9. Codec ID : V_MPEG4/ISO/AVC

  10. Duration : 1 h 59 min

  11. Bit rate mode : Variable

  12. Bit rate : 5 031 kb/s

  13. Nominal bit rate : 4 392 kb/s

  14. Maximum bit rate : 10.7 Mb/s

  15. Width : 1 920 pixels

  16. Height : 1 080 pixels

  17. Display aspect ratio : 16:9

  18. Frame rate mode : Constant

  19. Frame rate : 24.000 FPS

  20. Color space : YUV

  21. Chroma subsampling : 4:2:0

  22. Bit depth : 8 bits

  23. Scan type : Progressive

  24. Bits/(Pixel*Frame) : 0.101

  25. Stream size : 4.20 GiB (87%)

  26. Writing library : x264 core 148 r2727 7d026e8

  27. Encoding settings : cabac=1 / ref=3 / deblock=1:0:0 / analyse=0x1:0x111 / me=umh / subme=10 / psy=1 / psy_rd=1.00:0.00 / mixed_ref=1 / me_range=24 / chroma_me=1 / trellis=2 / 8x8dct=0 / cqm=0 / deadzone=21,11 / fast_pskip=1 / chroma_qp_offset=-2 / threads=8 / lookahead_threads=1 / sliced_threads=0 / nr=0 / decimate=1 / interlaced=0 / NTMzNTQ= / bluray_compat=0 / stitchable=1 / constrained_intra=0 / bframes=2 / b_pyramid=0 / b_adapt=2 / b_bias=0 / direct=3 / weightb=1 / open_gop=0 / weightp=2 / keyint=250 / keyint_min=24 / scenecut=0 / intra_refresh=0 / rc_lookahead=48 / rc=2pass / mbtree=1 / bitrate=4392 / ratetol=1.0 / qcomp=0.50 / qpmin=6 / qpmax=51 / qpstep=4 / cplxblur=20.0 / qblur=0.5 / vbv_maxrate=10725 / vbv_bufsize=14300 / nal_hrd=vbr / filler=0 / NTMzNTQ=LmsMAP37EqsCpk / ip_ratio=1.40 / aq=1:1.00

  28. Default : Yes

  29. Forced : No


  30. Audio

  31. ID : 2

  32. Format : E-AC-3 JOC

  33. Format/Info : Enhanced AC-3 with Joint Object Coding

  34. Commercial name : Dolby Digital Plus with Dolby Atmos

  35. Codec ID : A_EAC3

  36. Duration : 1 h 59 min

  37. Bit rate mode : Constant

  38. Bit rate : 768 kb/s

  39. Channel(s) : 6 channels

  40. Channel layout : L R C LFE Ls Rs

  41. Sampling rate : 48.0 kHz

  42. Frame rate : 31.250 FPS (1536 SPF)

  43. Compression mode : Lossy

  44. Stream size : 656 MiB (13%)

  45. Language : English

  46. Service kind : Complete Main

  47. Default : Yes

  48. Forced : No

  49. Complexity index : 16

  50. Number of dynamic objects : 15

  51. Bed channel count : 1 channel

  52. Bed channel configuration : LFE


  53. Text #1

  54. ID : 3

  55. Format : UTF-8

  56. Codec ID : S_TEXT/UTF8

  57. Codec ID/Info : UTF-8 Plain Text

  58. Duration : 1 h 45 min

  59. Bit rate : 39 b/s

  60. Count of elements : 1039

  61. Stream size : 30.4 KiB (0%)

  62. Language : English

  63. Default : No

  64. Forced : No


  65. Text #2

  66. ID : 4

  67. Format : UTF-8

  68. Codec ID : S_TEXT/UTF8

  69. Codec ID/Info : UTF-8 Plain Text

  70. Duration : 1 h 54 min

  71. Bit rate : 56 b/s

  72. Count of elements : 1856

  73. Stream size : 47.8 KiB (0%)

  74. Title : SDH

  75. Language : English

  76. Default : No

  77. Forced : No


  78. Text #3

  79. ID : 5

  80. Format : UTF-8

  81. Codec ID : S_TEXT/UTF8

  82. Codec ID/Info : UTF-8 Plain Text

  83. Duration : 1 h 54 min

  84. Bit rate : 62 b/s

  85. Count of elements : 1077

  86. Stream size : 52.2 KiB (0%)

  87. Language : Arabic

  88. Default : No

  89. Forced : No


  90. Text #4

  91. ID : 6

  92. Format : UTF-8

  93. Codec ID : S_TEXT/UTF8

  94. Codec ID/Info : UTF-8 Plain Text

  95. Duration : 1 h 54 min

  96. Bit rate : 36 b/s

  97. Count of elements : 1024

  98. Stream size : 30.3 KiB (0%)

  99. Language : Catalan

  100. Default : No

  101. Forced : No


  102. Text #5

  103. ID : 7

  104. Format : UTF-8

  105. Codec ID : S_TEXT/UTF8

  106. Codec ID/Info : UTF-8 Plain Text

  107. Duration : 1 h 54 min

  108. Bit rate : 37 b/s

  109. Count of elements : 1042

  110. Stream size : 31.8 KiB (0%)

  111. Language : Czech

  112. Default : No

  113. Forced : No


  114. Text #6

  115. ID : 8

  116. Format : UTF-8

  117. Codec ID : S_TEXT/UTF8

  118. Codec ID/Info : UTF-8 Plain Text

  119. Duration : 1 h 54 min

  120. Bit rate : 35 b/s

  121. Count of elements : 997

  122. Stream size : 30.0 KiB (0%)

  123. Language : Danish

  124. Default : No

  125. Forced : No


  126. Text #7

  127. ID : 9

  128. Format : UTF-8

  129. Codec ID : S_TEXT/UTF8

  130. Codec ID/Info : UTF-8 Plain Text

  131. Duration : 1 h 54 min

  132. Bit rate : 40 b/s

  133. Count of elements : 1026

  134. Stream size : 33.7 KiB (0%)

  135. Language : German

  136. Default : No

  137. Forced : No


  138. Text #8

  139. ID : 10

  140. Format : UTF-8

  141. Codec ID : S_TEXT/UTF8

  142. Codec ID/Info : UTF-8 Plain Text

  143. Duration : 1 h 47 min

  144. Bit rate : 46 b/s

  145. Count of elements : 1092

  146. Stream size : 36.5 KiB (0%)

  147. Language : German

  148. Default : No

  149. Forced : No


  150. Text #9

  151. ID : 11

  152. Format : UTF-8

  153. Codec ID : S_TEXT/UTF8

  154. Codec ID/Info : UTF-8 Plain Text

  155. Duration : 1 h 54 min

  156. Bit rate : 56 b/s

  157. Count of elements : 1602

  158. Stream size : 47.7 KiB (0%)

  159. Title : SDH

  160. Language : German

  161. Default : No

  162. Forced : No


  163. Text #10

  164. ID : 12

  165. Format : UTF-8

  166. Codec ID : S_TEXT/UTF8

  167. Codec ID/Info : UTF-8 Plain Text

  168. Duration : 1 h 54 min

  169. Bit rate : 65 b/s

  170. Count of elements : 1041

  171. Stream size : 55.4 KiB (0%)

  172. Language : Greek

  173. Default : No

  174. Forced : No


  175. Text #11

  176. ID : 13

  177. Format : UTF-8

  178. Codec ID : S_TEXT/UTF8

  179. Codec ID/Info : UTF-8 Plain Text

  180. Duration : 1 h 54 min

  181. Bit rate : 37 b/s

  182. Count of elements : 1066

  183. Stream size : 31.8 KiB (0%)

  184. Title : Latin American

  185. Language : Spanish

  186. Default : No

  187. Forced : No


  188. Text #12

  189. ID : 14

  190. Format : UTF-8

  191. Codec ID : S_TEXT/UTF8

  192. Codec ID/Info : UTF-8 Plain Text

  193. Duration : 1 h 54 min

  194. Bit rate : 37 b/s

  195. Count of elements : 1052

  196. Stream size : 31.8 KiB (0%)

  197. Title : Latin American

  198. Language : Spanish

  199. Default : No

  200. Forced : No


  201. Text #13

  202. ID : 15

  203. Format : UTF-8

  204. Codec ID : S_TEXT/UTF8

  205. Codec ID/Info : UTF-8 Plain Text

  206. Duration : 1 h 54 min

  207. Bit rate : 47 b/s

  208. Count of elements : 1451

  209. Stream size : 40.1 KiB (0%)

  210. Title : Latin American (SDH)

  211. Language : Spanish

  212. Default : No

  213. Forced : No


  214. Text #14

  215. ID : 16

  216. Format : UTF-8

  217. Codec ID : S_TEXT/UTF8

  218. Codec ID/Info : UTF-8 Plain Text

  219. Duration : 1 h 54 min

  220. Bit rate : 38 b/s

  221. Count of elements : 1062

  222. Stream size : 32.4 KiB (0%)

  223. Language : Spanish

  224. Default : No

  225. Forced : No


  226. Text #15

  227. ID : 17

  228. Format : UTF-8

  229. Codec ID : S_TEXT/UTF8

  230. Codec ID/Info : UTF-8 Plain Text

  231. Duration : 1 h 54 min

  232. Bit rate : 37 b/s

  233. Count of elements : 1047

  234. Stream size : 31.3 KiB (0%)

  235. Language : Basque

  236. Default : No

  237. Forced : No


  238. Text #16

  239. ID : 18

  240. Format : UTF-8

  241. Codec ID : S_TEXT/UTF8

  242. Codec ID/Info : UTF-8 Plain Text

  243. Duration : 1 h 54 min

  244. Bit rate : 35 b/s

  245. Count of elements : 809

  246. Stream size : 29.8 KiB (0%)

  247. Language : Finnish

  248. Default : No

  249. Forced : No


  250. Text #17

  251. ID : 19

  252. Format : UTF-8

  253. Codec ID : S_TEXT/UTF8

  254. Codec ID/Info : UTF-8 Plain Text

  255. Duration : 1 h 54 min

  256. Bit rate : 40 b/s

  257. Count of elements : 1009

  258. Stream size : 34.0 KiB (0%)

  259. Language : fil

  260. Default : No

  261. Forced : No


  262. Text #18

  263. ID : 20

  264. Format : UTF-8

  265. Codec ID : S_TEXT/UTF8

  266. Codec ID/Info : UTF-8 Plain Text

  267. Duration : 1 h 54 min

  268. Bit rate : 39 b/s

  269. Count of elements : 1034

  270. Stream size : 33.5 KiB (0%)

  271. Language : French

  272. Default : No

  273. Forced : No


  274. Text #19

  275. ID : 21

  276. Format : UTF-8

  277. Codec ID : S_TEXT/UTF8

  278. Codec ID/Info : UTF-8 Plain Text

  279. Duration : 1 h 54 min

  280. Bit rate : 44 b/s

  281. Count of elements : 1074

  282. Stream size : 37.7 KiB (0%)

  283. Language : French

  284. Default : No

  285. Forced : No


  286. Text #20

  287. ID : 22

  288. Format : UTF-8

  289. Codec ID : S_TEXT/UTF8

  290. Codec ID/Info : UTF-8 Plain Text

  291. Duration : 1 h 54 min

  292. Bit rate : 65 b/s

  293. Count of elements : 1786

  294. Stream size : 55.4 KiB (0%)

  295. Title : SDH

  296. Language : French

  297. Default : No

  298. Forced : No


  299. Text #21

  300. ID : 23

  301. Format : UTF-8

  302. Codec ID : S_TEXT/UTF8

  303. Codec ID/Info : UTF-8 Plain Text

  304. Duration : 1 h 54 min

  305. Bit rate : 29 b/s

  306. Count of elements : 1060

  307. Stream size : 25.1 KiB (0%)

  308. Language : Galician

  309. Default : No

  310. Forced : No


  311. Text #22

  312. ID : 24

  313. Format : UTF-8

  314. Codec ID : S_TEXT/UTF8

  315. Codec ID/Info : UTF-8 Plain Text

  316. Duration : 1 h 54 min

  317. Bit rate : 59 b/s

  318. Count of elements : 1063

  319. Stream size : 50.2 KiB (0%)

  320. Language : Hebrew

  321. Default : No

  322. Forced : No


  323. Text #23

  324. ID : 25

  325. Format : UTF-8

  326. Codec ID : S_TEXT/UTF8

  327. Codec ID/Info : UTF-8 Plain Text

  328. Duration : 1 h 54 min

  329. Bit rate : 33 b/s

  330. Count of elements : 1029

  331. Stream size : 28.1 KiB (0%)

  332. Language : Croatian

  333. Default : No

  334. Forced : No


  335. Text #24

  336. ID : 26

  337. Format : UTF-8

  338. Codec ID : S_TEXT/UTF8

  339. Codec ID/Info : UTF-8 Plain Text

  340. Duration : 1 h 54 min

  341. Bit rate : 38 b/s

  342. Count of elements : 1033

  343. Stream size : 32.2 KiB (0%)

  344. Language : Hungarian

  345. Default : No

  346. Forced : No


  347. Text #25

  348. ID : 27

  349. Format : UTF-8

  350. Codec ID : S_TEXT/UTF8

  351. Codec ID/Info : UTF-8 Plain Text

  352. Duration : 1 h 54 min

  353. Bit rate : 36 b/s

  354. Count of elements : 1051

  355. Stream size : 30.6 KiB (0%)

  356. Language : Indonesian

  357. Default : No

  358. Forced : No


  359. Text #26

  360. ID : 28

  361. Format : UTF-8

  362. Codec ID : S_TEXT/UTF8

  363. Codec ID/Info : UTF-8 Plain Text

  364. Duration : 1 h 54 min

  365. Bit rate : 37 b/s

  366. Count of elements : 978

  367. Stream size : 31.7 KiB (0%)

  368. Language : Italian

  369. Default : No

  370. Forced : No


  371. Text #27

  372. ID : 29

  373. Format : UTF-8

  374. Codec ID : S_TEXT/UTF8

  375. Codec ID/Info : UTF-8 Plain Text

  376. Duration : 1 h 54 min

  377. Bit rate : 41 b/s

  378. Count of elements : 1093

  379. Stream size : 34.7 KiB (0%)

  380. Language : Japanese

  381. Default : No

  382. Forced : No


  383. Text #28

  384. ID : 30

  385. Format : UTF-8

  386. Codec ID : S_TEXT/UTF8

  387. Codec ID/Info : UTF-8 Plain Text

  388. Duration : 1 h 54 min

  389. Bit rate : 45 b/s

  390. Count of elements : 1098

  391. Stream size : 38.7 KiB (0%)

  392. Language : Korean

  393. Default : No

  394. Forced : No


  395. Text #29

  396. ID : 31

  397. Format : UTF-8

  398. Codec ID : S_TEXT/UTF8

  399. Codec ID/Info : UTF-8 Plain Text

  400. Duration : 1 h 54 min

  401. Bit rate : 35 b/s

  402. Count of elements : 1048

  403. Stream size : 29.8 KiB (0%)

  404. Language : Malay

  405. Default : No

  406. Forced : No


  407. Text #30

  408. ID : 32

  409. Format : UTF-8

  410. Codec ID : S_TEXT/UTF8

  411. Codec ID/Info : UTF-8 Plain Text

  412. Duration : 1 h 54 min

  413. Bit rate : 34 b/s

  414. Count of elements : 879

  415. Stream size : 28.8 KiB (0%)

  416. Language : Norwegian Bokmal

  417. Default : No

  418. Forced : No


  419. Text #31

  420. ID : 33

  421. Format : UTF-8

  422. Codec ID : S_TEXT/UTF8

  423. Codec ID/Info : UTF-8 Plain Text

  424. Duration : 1 h 54 min

  425. Bit rate : 37 b/s

  426. Count of elements : 946

  427. Stream size : 31.8 KiB (0%)

  428. Language : Dutch

  429. Default : No

  430. Forced : No


  431. Text #32

  432. ID : 34

  433. Format : UTF-8

  434. Codec ID : S_TEXT/UTF8

  435. Codec ID/Info : UTF-8 Plain Text

  436. Duration : 1 h 54 min

  437. Bit rate : 34 b/s

  438. Count of elements : 1002

  439. Stream size : 28.9 KiB (0%)

  440. Language : Polish

  441. Default : No

  442. Forced : No


  443. Text #33

  444. ID : 35

  445. Format : UTF-8

  446. Codec ID : S_TEXT/UTF8

  447. Codec ID/Info : UTF-8 Plain Text

  448. Duration : 1 h 48 min

  449. Bit rate : 41 b/s

  450. Count of elements : 1124

  451. Stream size : 33.1 KiB (0%)

  452. Title : Brazilian

  453. Language : Portuguese

  454. Default : No

  455. Forced : No


  456. Text #34

  457. ID : 36

  458. Format : UTF-8

  459. Codec ID : S_TEXT/UTF8

  460. Codec ID/Info : UTF-8 Plain Text

  461. Duration : 1 h 54 min

  462. Bit rate : 37 b/s

  463. Count of elements : 1040

  464. Stream size : 31.3 KiB (0%)

  465. Title : Brazilian

  466. Language : Portuguese

  467. Default : No

  468. Forced : No


  469. Text #35

  470. ID : 37

  471. Format : UTF-8

  472. Codec ID : S_TEXT/UTF8

  473. Codec ID/Info : UTF-8 Plain Text

  474. Duration : 1 h 49 min

  475. Bit rate : 53 b/s

  476. Count of elements : 1541

  477. Stream size : 42.6 KiB (0%)

  478. Title : Brazilian (SDH)

  479. Language : Portuguese

  480. Default : No

  481. Forced : No


  482. Text #36

  483. ID : 38

  484. Format : UTF-8

  485. Codec ID : S_TEXT/UTF8

  486. Codec ID/Info : UTF-8 Plain Text

  487. Duration : 1 h 54 min

  488. Bit rate : 37 b/s

  489. Count of elements : 1029

  490. Stream size : 31.8 KiB (0%)

  491. Language : Portuguese

  492. Default : No

  493. Forced : No


  494. Text #37

  495. ID : 39

  496. Format : UTF-8

  497. Codec ID : S_TEXT/UTF8

  498. Codec ID/Info : UTF-8 Plain Text

  499. Duration : 1 h 54 min

  500. Bit rate : 42 b/s

  501. Count of elements : 1001

  502. Stream size : 35.5 KiB (0%)

  503. Language : Romanian

  504. Default : No

  505. Forced : No


  506. Text #38

  507. ID : 40

  508. Format : UTF-8

  509. Codec ID : S_TEXT/UTF8

  510. Codec ID/Info : UTF-8 Plain Text

  511. Duration : 1 h 54 min

  512. Bit rate : 62 b/s

  513. Count of elements : 1055

  514. Stream size : 52.6 KiB (0%)

  515. Language : Russian

  516. Default : No

  517. Forced : No


  518. Text #39

  519. ID : 41

  520. Format : UTF-8

  521. Codec ID : S_TEXT/UTF8

  522. Codec ID/Info : UTF-8 Plain Text

  523. Duration : 1 h 54 min

  524. Bit rate : 37 b/s

  525. Count of elements : 938

  526. Stream size : 31.5 KiB (0%)

  527. Language : Swedish

  528. Default : No

  529. Forced : No


  530. Text #40

  531. ID : 42

  532. Format : UTF-8

  533. Codec ID : S_TEXT/UTF8

  534. Codec ID/Info : UTF-8 Plain Text

  535. Duration : 1 h 54 min

  536. Bit rate : 94 b/s

  537. Count of elements : 1057

  538. Stream size : 79.2 KiB (0%)

  539. Language : Thai

  540. Default : No

  541. Forced : No


  542. Text #41

  543. ID : 43

  544. Format : UTF-8

  545. Codec ID : S_TEXT/UTF8

  546. Codec ID/Info : UTF-8 Plain Text

  547. Duration : 1 h 54 min

  548. Bit rate : 38 b/s

  549. Count of elements : 1013

  550. Stream size : 32.3 KiB (0%)

  551. Language : Turkish

  552. Default : No

  553. Forced : No


  554. Text #42

  555. ID : 44

  556. Format : UTF-8

  557. Codec ID : S_TEXT/UTF8

  558. Codec ID/Info : UTF-8 Plain Text

  559. Duration : 1 h 54 min

  560. Bit rate : 58 b/s

  561. Count of elements : 1050

  562. Stream size : 49.4 KiB (0%)

  563. Language : Ukrainian

  564. Default : No

  565. Forced : No


  566. Text #43

  567. ID : 45

  568. Format : UTF-8

  569. Codec ID : S_TEXT/UTF8

  570. Codec ID/Info : UTF-8 Plain Text

  571. Duration : 1 h 54 min

  572. Bit rate : 54 b/s

  573. Count of elements : 1076

  574. Stream size : 45.8 KiB (0%)

  575. Language : Vietnamese

  576. Default : No

  577. Forced : No


  578. Text #44

  579. ID : 46

  580. Format : UTF-8

  581. Codec ID : S_TEXT/UTF8

  582. Codec ID/Info : UTF-8 Plain Text

  583. Duration : 1 h 54 min

  584. Bit rate : 37 b/s

  585. Count of elements : 1061

  586. Stream size : 31.7 KiB (0%)

  587. Title : Simplified

  588. Language : Chinese

  589. Default : No

  590. Forced : No


  591. Text #45

  592. ID : 47

  593. Format : UTF-8

  594. Codec ID : S_TEXT/UTF8

  595. Codec ID/Info : UTF-8 Plain Text

  596. Duration : 1 h 54 min

  597. Bit rate : 37 b/s

  598. Count of elements : 1142

  599. Stream size : 31.4 KiB (0%)

  600. Title : Traditional

  601. Language : Chinese

  602. Default : No

  603. Forced : No


  604. Menu

  605. 01:49:21.000 : en:Credits

复制代码

海兽猎人[中文字幕].The.Sea.Beast.2022.1080p.NF.WEBRip.DDP5.1.Atmos.x264 SMURF 4.84GB  动画电影  第3张 海兽猎人[中文字幕].The.Sea.Beast.2022.1080p.NF.WEBRip.DDP5.1.Atmos.x264 SMURF 4.84GB  动画电影  第4张 海兽猎人[中文字幕].The.Sea.Beast.2022.1080p.NF.WEBRip.DDP5.1.Atmos.x264 SMURF 4.84GB  动画电影  第5张



文件下载


除非特别注明,本文『海兽猎人[中文字幕].The.Sea.Beast.2022.1080p.NF.WEBRip.DDP5.1.Atmos.x264-SMURF 4.84GB』来源于互联网机器人自动抓取,非本站原创。 浮游电影网不对本文拥有版权,如有侵犯,请联系邮箱:fuyouu#yandex.com[#换成@]投诉。我们会在15个工作日内删除。 但烦请转载时请标明出处:“本文转载于『浮游电影网』,原文地址:https://www.fuyouu.com/22652.html

评论吧骚年!

发表你的见解   

昵称*

E-mail*(建议输入,以便收到博主回复的提示邮件)

验证码*

您可以使用eMule或eMule Mod(Windows)、aMule(Win、Linux、Mac)等软件下载eD2k链接。。
eMule收藏集(.emulecollection)文件是您选中的所有链接的列表文件。eMule可以直接下载它们。
按住SHIFT键选择可以选中多个选择框。
可用文件名和大小选择器来选择文件。
文件名选择器帮您根据文件名称或后缀来选择文件。不分大小写。
符号使用:
和:空格( )、+
不包含:-
或:|
转义:一对英文引号("");
匹配开头:^
匹配结尾:$
例如:
选中所有名称中包含有“eMule”或“0.49c”字眼,但不包含有“exe”字眼的:emule|0.49c -exe
选中所有名称的开头是“eMule”,结尾是“0.49c”的:^emule 0.49c$
选中所有名称中带有“eMule 0.49c”的(必须是“eMule 0.49c”,中间没有别的字符,不能是“eMule fake 0.49c”),需要转义:"emule 0.49c"
大小选择器帮您根据文件大小选择文件。