当前位置: 首页 >> 欧美电影 >> 蝙蝠侠与罗宾[国英多音轨/简繁英字幕].Batman.and.Robin.1997.UHD.BluRay.2160p.2Audio.TrueHD(Atmos).7.1.x265.10bit.HDR-A >> 正文

蝙蝠侠与罗宾[国英多音轨/简繁英字幕].Batman.and.Robin.1997.UHD.BluRay.2160p.2Audio.TrueHD(Atmos).7.1.x265.10bit.HDR-A

2022年07月09日 15:11:51     电影发布:来源于网络     电影分类:欧美电影     评论(0)    

蝙蝠侠与罗宾[国英多音轨/简繁英字幕].Batman.and.Robin.1997.UHD.BluRay.2160p.2Audio.TrueHD(Atmos).7.1.x265.10bit.HDR-ALT 27.28GB

◎标 题 蝙蝠侠与罗宾

◎译 名 蝙蝠侠4 / 蝙蝠侠4:急冻人(台) / 蝙蝠侠4:蝙蝠侠与罗宾

◎片 名 Batman & Robin

◎年 代 1997

◎产 地 美国 / 英国

◎类 别 动作 / 科幻

◎语 言 英语

◎上映日期 1997-06-20

◎IMDb评分 3.8/10 (242823人评价)

◎IMDb链接 https://www.imdb.com/title/tt0118688/

◎豆瓣评分 6.1/10 (31725人评价)

◎豆瓣链接 https://movie.douban.com/subject/1294519/

◎片 长 125 分钟

◎导 演 乔·舒马赫 Joel Schumacher

◎编 剧 鲍勃·凯恩 Bob Kane

阿齐瓦·高斯曼 Akiva Goldsman

◎演 员 阿诺·施瓦辛格 Arnold Schwarzenegger

乔治·克鲁尼 George Clooney

克里斯·奥唐纳 Chris O'Donnell

乌玛·瑟曼 Uma Thurman

艾丽西亚·希尔维斯通 Alicia Silverstone

迈克尔·高夫 Michael Gough

帕特·亨格尔 Pat Hingle

约翰·格洛弗 John Glover

艾拉·麦克弗森 Elle Macpherson

薇薇卡·福克斯 Vivica A. Fox

温德拉·科斯伯姆 Vendela Kirsebom Thomessen

吉普·斯温森 Jeep Swenson

约翰·芬克 John Fink

迈克尔·雷德·麦基 Michael Reid MacKay

艾力克·洛伊德 Eric Lloyd

格雷格·劳伦 Greg Lauren

道格·休切逊 Doug Hutchison

托比亚斯·耶利内克 Tobias Jelinek

哈里·范·戈库姆 Harry Van Gorkum

户田惠子 Keiko Toda

陆建艺 Jianyi Lu

Steven Ito Steven Ito

Cory M. Miller Cory M. Miller

吉姆·帕尔默 Jim Palmer

Robert Powell Robert Powell

Mark Chadwick Mark Chadwick

Steve Blalock Steve Blalock

杰克·贝茨 Jack Betts

保罗·斯凯勒 Paul Sklar

Gabriela Tollman Gabriela Tollman

Khristian Lupo Khristian Lupo

Peter Macgregor-Scott Peter Macgregor-Scott

艾略特·戈登塞尔 Elliot Goldenthal

斯蒂芬·戈德布拉特 Stephen Goldblatt

丹尼斯·弗尔克勒 Dennis Virkler

Geoff Hubbard Geoff Hubbard

多里·库珀 Dorree Cooper

Ingrid Ferrin Ingrid Ferrin

Brian Penikas Brian Penikas

James MacKinnon James MacKinnon

马特·罗斯 Matt Rose

约兰达·塔辛 Yolanda Toussieng

里克·斯特拉顿 Rick Stratton

爱德华·F.·恩里克斯 Edouard F. Henriques

David B. Miller David B. Miller

Barbara Ronci Barbara Ronci

吉尔·罗考 Jill Rockow

维·尼尔 Ve Neill

Jim Kail Jim Kail

Dayne Johnson Dayne Johnson

比尔·科尔索 Bill Corso

托尼·加德纳 Tony Gardner

杰夫·道恩 Jeff Dawn

莱昂纳德·恩格尔曼 Leonard Engelman

Peter Tothpal Peter Tothpal

彼得·麦克唐纳德 Peter MacDonald

阿诺德·拉莫莱蒂 Arnauld Lamorlette

罗杰·库帕里安 Roger Kupelian

Scott Beverly Scott Beverly

温迪·罗杰斯 Wendy Rogers

Tim Donahue Tim Donahue

Eric Durst Eric Durst

兰斯·汉默 Lance Hammer

James Hegedus James Hegedus

塞斯·毛里 Seth Maury

伊恩·亨特 Ian Hunter

Michael Kory Michael Kory

Olivier Sarda Olivier Sarda

David A. Smith David A. Smith

David Stump David Stump

Pasquale Croce Pasquale Croce

Philippe Rebours Philippe Rebours

Dobbie Schiff Dobbie Schiff

Iain Kennedy Iain Kennedy

罗伯特·斯普尔洛克 Robert Spurlock

Ellen Somers Ellen Somers

安德鲁·亚当森 Andrew Adamson

尼克·戴维斯 Nick Davis

◎标 签 科幻 / 美国 / 蝙蝠侠 / 动作 / 漫画改编 / 1997 / 美国电影 / DC

◎简 介

蝙蝠侠(乔治•克鲁尼 George Clooney 饰)和罗宾(克里斯•奥唐纳 Chris O'Donnell 饰)这次遇到有生以来最大的挑战:“急冻人”(阿诺•施瓦辛格 Arnold Schwarzenegger 饰)!

“急冻人”原是一个科学奇才,但一次意外却令他只能靠急救机器为生。更为糟糕的是,除非他将整个高谭市的温度保持在零度以下,否则他心爱的妻子将永远不能醒来。“急冻人”开始一步步建立自己的冷冻王国,蝙蝠侠将是这个计划的最大阻碍,“急冻人”迫切需要除掉这个眼中钉。

罗宾逐渐成为蝙蝠侠的得力助手,两人合力化解了“急冻人”的一次次阴谋。但美艳的“毒藤女”(乌玛•瑟曼 Uma Thurman 饰)的出现给罗宾和蝙蝠侠彼此之间的关系带来了危机:“毒藤女”利用罗宾对她的心意,一步步设下陷阱,诱使两人互相猜疑。

蝙蝠侠和罗宾最终能否化解心结,战胜“急冻...

  1. ##### MediaInfo ######

  2. General

  3. Unique ID : 129299887191745835552380657369608408996 (0x614640A0E181B2944E1AFCFED524CFA4)

  4. Complete name : Batman.and.Robin.1997.UHD.BluRay.2160p.2Audio.TrueHD(Atmos).7.1.x265.10bit.HDR-ALT.mkv

  5. Format : Matroska

  6. Format version : Version 4

  7. File size : 27.3 GiB

  8. Duration : 2 h 4 min

  9. Overall bit rate mode : Variable

  10. Overall bit rate : 31.3 Mb/s

  11. Encoded date : UTC 2019-06-10 06:28:16

  12. Writing application : mkvmerge v34.0.0 ('Sight and Seen') 64-bit

  13. Writing library : libebml v1.3.7 + libmatroska v1.5.0

  14. Video

  15. ID : 1

  16. Format : HEVC

  17. Format/Info : High Efficiency Video Coding

  18. Format profile : Main [email protected]@High

  19. HDR format : SMPTE ST 2086, HDR10 compatible

  20. Codec ID : V_MPEGH/ISO/HEVC

  21. Duration : 2 h 4 min

  22. Bit rate : 26.0 Mb/s

  23. Width : 3 840 pixels

  24. Height : 2 076 pixels

  25. Display aspect ratio : 1.85:1

  26. Frame rate mode : Constant

  27. Frame rate : 23.976 (24000/1001/53354) FPS

  28. Color space : YUV

  29. Chroma subsampling : 4:2:0 (Type 2)

  30. Bit depth : 10 bits

  31. Bits/(Pixel*Frame) : 0.136

  32. Stream size : 22.7 GiB (83%)

  33. Title : HEVC, [email protected]@High, 24/1.001 fps @ 26000 kbps

  34. Writing library : x265 3.0_Au+4-dcbec33bfb0f:[Windows][GCC 8.2.1][64 bit] 10bit

  35. Encoding settings : cpuid=533541111039 / frame-threads=6 / numa-pools=44,44 / wpp / no-pmode / no-pme / no-psnr / no-ssim / log-level=2 / input-csp=1 / input-res=3840x2076 / interlace=0 / total-frames=179624 / level-idc=51 / high-tier=1 / uhd-bd=0 / ref=4 / no-allow-non-conformance / repeat-headers / annexb / no-aud / hrd / info / hash=0 / no-temporal-layers / no-open-gop / min-keyint=24 / keyint=240 / gop-lookahead=0 / bframes=8 / b-adapt=2 / b-pyramid / bframe-bias=0 / rc-lookahead=25 / lookahead-slices=0 / NTMzNTQ=uuDQuD2mJt9fsCf / scenecut=40 / radl=0 / no-splice / no-intra-refresh / ctu=64 / min-cu-size=8 / no-rect / no-amp / max-tu-size=32 / tu-inter-depth=3 / tu-intra-depth=3 / limit-tu=4 / rdoq-level=2 / dynamic-rd=0.00 / no-ssim-rd / signhide / no-tskip / nr-intra=0 / nr-inter=0 / no-constrained-intra / no-strong-intra-smoothing / max-merge=4 / limit-refs=1 / limit-modes / me=3 / subme=4 / merange=57 / temporal-mvp / weightp / weightb / no-analyze-src-pics / deblock=-3:-3 / no-sao / no-sao-non-deblock / rd=6 / no-early-skip / rskip / no-fast-intra / no-tskip-fast / no-cu-lossless / b-intra / no-splitrd-skip / rdpenalty=0 / psy-rd=2.00 / psy-rdoq=1.00 / no-rd-refine / no-lossless / cbqpoffs=0 / crqpoffs=0 / rc=abr / bitrate=26000 / qcomp=0.65 / qpstep=4 / stats-write=0 / stats-read=2 / cplxblur=20.0 / qblur=0.5 / vbv-maxrate=160000 / vbv-bufsize=160000 / vbv-init=0.9 / ipratio=1.30 / pbratio=1.20 / aq-mode=3 / aq-strength=0.85 / cutree / zone-count=0 / no-strict-cbr / qg-size=32 / no-rc-grain / qpmax=69 / qpmin=0 / no-const-vbv / sar=1 / overscan=0 / videoformat=5 / range=0 / colorprim=9 / transfer=16 / colormatrix=9 / chromaloc=1 / chromaloc-top=2 / chromaloc-bottom=2 / display-window=0 / master-display=G(13250,34500)B(7500,3000)R(34000,16000)WP(15635,16450)L(10000000,50) / max-cll=1000,400 / min-luma=0 / max-luma=1023 / log2-max-poc-lsb=8 / vui-timing-info / vui-hrd-info / slices=1 / no-opt-qp-pps / no-opt-ref-list-length-pps / no-multi-pass-opt-rps / scenecut-bias=0.05 / no-opt-cu-delta-qp / no-aq-motion / hdr / hdr-opt / no-dhdr10-opt / no-idr-recovery-sei / analysis-reuse-level=5 / scale-factor=0 / refine-intra=0 / refine-inter=0 / refine-mv=0 / refine-ctu-distortion=0 / no-limit-sao / ctu-info=0 / no-lowpass-dct / refine-analysis-type=0 / copy-pic=1 / max-ausize-factor=1.0 / no-dynamic-refine / no-single-sei / no-hevc-aq / qp-adaptation-range=1.00

  36. Default : Yes

  37. Forced : No

  38. Color range : Limited

  39. Color primaries : BT.2020

  40. Transfer characteristics : PQ

  41. Matrix coefficients : BT.2020 non-constant

  42. Mastering display color primaries : Display P3

  43. Mastering display luminance : min: 0.0050 cd/m2, max: 1000 cd/m2

  44. Maximum Content Light Level : 1000 cd/m2

  45. Maximum Frame-Average Light Level : 400 cd/m2

  46. Audio #1

  47. ID : 2

  48. Format : MLP FBA 16-ch

  49. Format/Info : Meridian Lossless Packing FBA with 16-channel presentation

  50. Commercial name : Dolby TrueHD with Dolby Atmos

  51. Codec ID : A_TRUEHD

  52. Duration : 2 h 4 min

  53. Bit rate mode : Variable

  54. Bit rate : 4 153 kb/s

  55. Maximum bit rate : 7 032 kb/s

  56. Channel(s) : 8 channels

  57. Channel layout : L R C LFE Ls Rs Lb Rb

  58. Sampling rate : 48.0 kHz

  59. Frame rate : 1 200.000 FPS (40 SPF)

  60. Compression mode : Lossless

  61. Stream size : 3.62 GiB (13%)

  62. Title : English Dolby TrueHD 7.1 (Atmos) @ 4153 kbps

  63. Language : English

  64. Default : Yes

  65. Forced : No

  66. Number of dynamic objects : 15

  67. Bed channel count : 1 channel

  68. Bed channel configuration : LFE

  69. Audio #2

  70. ID : 3

  71. Format : AC-3

  72. Format/Info : Audio Coding 3

  73. Commercial name : Dolby Digital

  74. Codec ID : A_AC3

  75. Duration : 2 h 4 min

  76. Bit rate mode : Constant

  77. Bit rate : 640 kb/s

  78. Channel(s) : 6 channels

  79. Channel layout : L R C LFE Ls Rs

  80. Sampling rate : 48.0 kHz

  81. Frame rate : 31.250 FPS (1536 SPF)

  82. Compression mode : Lossy

  83. Stream size : 572 MiB (2%)

  84. Title : English Dolby Digital Audio 5.1 @ 640 kbps

  85. Language : English

  86. Service kind : Complete Main

  87. Default : No

  88. Forced : No

  89. Audio #3

  90. ID : 4

  91. Format : AC-3

  92. Format/Info : Audio Coding 3

  93. Commercial name : Dolby Digital

  94. Codec ID : A_AC3

  95. Duration : 2 h 4 min

  96. Bit rate mode : Constant

  97. Bit rate : 192 kb/s

  98. Channel(s) : 2 channels

  99. Channel layout : L R

  100. Sampling rate : 48.0 kHz

  101. Frame rate : 31.250 FPS (1536 SPF)

  102. Compression mode : Lossy

  103. Stream size : 171 MiB (1%)

  104. Title : Mandarin Dolby Digital Audio 2.0 @ 192 kbps 国语

  105. Language : Chinese

  106. Service kind : Complete Main

  107. Default : No

  108. Forced : No

  109. Audio #4

  110. ID : 5

  111. Format : AC-3

  112. Format/Info : Audio Coding 3

  113. Commercial name : Dolby Digital

  114. Codec ID : A_AC3

  115. Duration : 2 h 4 min

  116. Bit rate mode : Constant

  117. Bit rate : 192 kb/s

  118. Channel(s) : 2 channels

  119. Channel layout : L R

  120. Sampling rate : 48.0 kHz

  121. Frame rate : 31.250 FPS (1536 SPF)

  122. Compression mode : Lossy

  123. Stream size : 171 MiB (1%)

  124. Title : English Dolby Digital Audio 2.0 @ 192 kbps Commentary

  125. Language : English

  126. Service kind : Complete Main

  127. Default : No

  128. Forced : No

  129. Text #1

  130. ID : 6

  131. Format : PGS

  132. Codec ID : S_HDMV/PGS

  133. Codec ID/Info : Picture based subtitle format used on BDs/HD-DVDs

  134. Duration : 1 h 57 min

  135. Bit rate : 23.2 kb/s

  136. Count of elements : 2562

  137. Stream size : 19.5 MiB (0%)

  138. Title : Eng/SUP

  139. Language : English

  140. Default : No

  141. Forced : No

  142. Text #2

  143. ID : 7

  144. Format : PGS

  145. Codec ID : S_HDMV/PGS

  146. Codec ID/Info : Picture based subtitle format used on BDs/HD-DVDs

  147. Duration : 2 h 3 min

  148. Bit rate : 18.2 kb/s

  149. Count of elements : 2358

  150. Stream size : 16.1 MiB (0%)

  151. Title : Cht/SUP 原盘繁体

  152. Language : Chinese

  153. Default : No

  154. Forced : No

  155. Text #3

  156. ID : 8

  157. Format : PGS

  158. Codec ID : S_HDMV/PGS

  159. Codec ID/Info : Picture based subtitle format used on BDs/HD-DVDs

  160. Duration : 2 h 4 min

  161. Bit rate : 17.9 kb/s

  162. Count of elements : 2370

  163. Stream size : 15.9 MiB (0%)

  164. Title : Chs/SUP 原盘简体

  165. Language : Chinese

  166. Default : Yes

  167. Forced : No

  168. Menu

  169. 00:00:00.000 : :绗?01 绔?

  170. 00:03:51.064 : :绗?02 绔?

  171. 00:09:12.385 : :绗?03 绔?

  172. 00:13:25.847 : :绗?04 绔?

  173. 00:15:11.577 : :绗?05 绔?

  174. 00:19:09.357 : :绗?06 绔?

  175. 00:21:00.926 : :绗?07 绔?

  176. 00:24:03.442 : :绗?08 绔?

  177. 00:26:35.719 : :绗?09 绔?

  178. 00:29:13.085 : :绗?10 绔?

  179. 00:31:41.608 : :绗?11 绔?

  180. 00:33:59.204 : :绗?12 绔?

  181. 00:38:42.111 : :绗?13 绔?

  182. 00:39:54.517 : :绗?14 绔?

  183. 00:45:32.104 : :绗?15 绔?

  184. 00:48:47.842 : :绗?16 绔?

  185. 00:50:53.425 : :绗?17 绔?

  186. 00:54:27.890 : :绗?18 绔?

  187. 00:56:23.380 : :绗?19 绔?

  188. 00:59:29.649 : :绗?20 绔?

  189. 01:01:05.120 : :绗?21 绔?

  190. 01:06:00.790 : :绗?22 绔?

  191. 01:07:47.438 : :绗?23 绔?

  192. 01:12:16.707 : :绗?24 绔?

  193. 01:15:59.013 : :绗?25 绔?

  194. 01:20:16.437 : :绗?26 绔?

  195. 01:22:59.766 : :绗?27 绔?

  196. 01:25:40.385 : :绗?28 绔?

  197. 01:28:47.447 : :绗?29 绔?

  198. 01:32:02.016 : :绗?30 绔?

  199. 01:33:25.225 : :绗?31 绔?

  200. 01:35:15.835 : :绗?32 绔?

  201. 01:36:25.113 : :绗?33 绔?

  202. 01:41:21.117 : :绗?34 绔?

  203. 01:44:21.380 : :绗?35 绔?

  204. 01:48:36.510 : :绗?36 绔?

  205. 01:49:53.754 : :绗?37 绔?

  206. 01:51:43.572 : :绗?38 绔?

  207. 01:53:33.598 : :绗?39 绔?

  208. 01:56:29.191 : :绗?40 绔?

  209. 01:57:25.413 : :绗?41 绔?

  210. 01:59:41.716 : :绗?42 绔?


复制代码



文件下载


除非特别注明,本文『蝙蝠侠与罗宾[国英多音轨/简繁英字幕].Batman.and.Robin.1997.UHD.BluRay.2160p.2Audio.TrueHD(Atmos).7.1.x265.10bit.HDR-A』来源于互联网机器人自动抓取,非本站原创。 浮游电影网不对本文拥有版权,如有侵犯,请联系邮箱:fuyouu#yandex.com[#换成@]投诉。我们会在15个工作日内删除。 但烦请转载时请标明出处:“本文转载于『浮游电影网』,原文地址:https://www.fuyouu.com/22651.html

评论吧骚年!

发表你的见解   

昵称*

E-mail*(建议输入,以便收到博主回复的提示邮件)

验证码*

您可以使用eMule或eMule Mod(Windows)、aMule(Win、Linux、Mac)等软件下载eD2k链接。。
eMule收藏集(.emulecollection)文件是您选中的所有链接的列表文件。eMule可以直接下载它们。
按住SHIFT键选择可以选中多个选择框。
可用文件名和大小选择器来选择文件。
文件名选择器帮您根据文件名称或后缀来选择文件。不分大小写。
符号使用:
和:空格( )、+
不包含:-
或:|
转义:一对英文引号("");
匹配开头:^
匹配结尾:$
例如:
选中所有名称中包含有“eMule”或“0.49c”字眼,但不包含有“exe”字眼的:emule|0.49c -exe
选中所有名称的开头是“eMule”,结尾是“0.49c”的:^emule 0.49c$
选中所有名称中带有“eMule 0.49c”的(必须是“eMule 0.49c”,中间没有别的字符,不能是“eMule fake 0.49c”),需要转义:"emule 0.49c"
大小选择器帮您根据文件大小选择文件。