当前位置: 首页 >> 欧美电影 >> 回到未来[共3部合集][国英多音轨/简繁英字幕].Back.to.the.Future.1-3.1985-1990.UHD.BluRay.2160p.2Audio.TrueHD.Atmos.7.1.x >> 正文

回到未来[共3部合集][国英多音轨/简繁英字幕].Back.to.the.Future.1-3.1985-1990.UHD.BluRay.2160p.2Audio.TrueHD.Atmos.7.1.x

2022年07月09日 15:10:26     电影发布:来源于网络     电影分类:欧美电影     评论(0)    

回到未来[共3部合集][国英多音轨/简繁英字幕].Back.to.the.Future.1-3.1985-1990.UHD.BluRay.2160p.2Audio.TrueHD.Atmos.7.1.x265.10bit.HDR-ALT 81.72GB

◎标 题 回到未来

◎译 名 回到未来第一集

◎片 名 Back to the Future

◎年 代 1985

◎产 地 美国

◎类 别 喜剧 / 科幻 / 冒险

◎语 言 英语

◎上映日期 1985-07-03(美国)

◎IMDb评分 8.5/10 (1126441人评价)

◎IMDb链接 https://www.imdb.com/title/tt0088763/

◎豆瓣评分 8.7/10 (177040人评价)

◎豆瓣链接 https://movie.douban.com/subject/1300555/

◎片 长 116分钟

◎导 演 罗伯特·泽米吉斯 Robert Zemeckis

◎编 剧 罗伯特·泽米吉斯 Robert Zemeckis

鲍勃·盖尔 Bob Gale

◎演 员 迈克尔·J·福克斯 Michael J. Fox

克里斯托弗·洛伊德 Christopher Lloyd

莉·汤普森 Lea Thompson

克里斯平·格洛弗 Crispin Glover

托马斯·F·威尔森 Thomas F. Wilson

克劳迪娅·韦尔斯 Claudia Wells

马克·麦克卢尔 Marc McClure

温迪·乔·斯佩博 Wendie Jo Sperber

乔治·第桑佐 George DiCenzo

弗兰西斯·李·麦克凯恩 Frances Lee McCain

詹姆斯·托根 James Tolkan

J·J·科恩 J.J. Cohen

凯西·希玛兹科 Casey Siemaszko

比利·赞恩 Billy Zane

小哈利·沃特斯 Harry Waters Jr.

唐纳德·富利洛夫 Donald Fullilove

丽萨·弗里曼 Lisa Freeman

克里斯滕·考夫曼 Cristen Kauffman

萨奇·帕克 Sachi Parker

玛丽艾伦泰勒 Mary Ellen Trainor

麦娅·布鲁顿 Maia Brewton

加里·莱利 Gary Riley

艾尔莎·瑞雯 Elsa Raven

休易·路易斯 Huey Lewis

Tiger Tiger

德博拉·哈蒙 Deborah Harmon

诺曼·阿尔登 Norman Alden

考特尼·盖恩斯 Courtney Gains

乔治·“巴克”·弗劳尔 George 'Buck' Flower

艾薇·贝瑟恩 Ivy Bethune

罗伯特·克兰茨 Robert Krantz

Tom Willett Tom Willett

查尔斯·L·坎贝尔 Charles L. Campbell

贾森·赫维 Jason Hervey

Jeff O'Haco Jeff O'Haco

Will Hare Will Hare

Tom Tangen Tom Tangen

Jason Marin Jason Marin

Tommy Thomas Tommy Thomas

Read Morgan Read Morgan

Karen Petrasek Karen Petrasek

凯瑟琳·肯尼迪 Kathleen Kennedy

弗兰克·马歇尔 Frank Marshall

鲍勃·盖尔 Bob Gale

尼尔. 卡顿 Neil Canton

亚伦·史维斯查 Alan Silvestri

迪恩·康迪 Dean Cundey

阿瑟·施密特 Arthur Schmidt

Harry Keramidas Harry Keramidas

迈克·芬顿 Mike Fenton

朱迪·泰勒 Judy Taylor

劳伦斯·G·波尔 Lawrence G. Paull

Todd Hallowell Todd Hallowell

哈尔·高斯曼 Hal Gausman

德博拉·林恩·斯科特 Deborah Lynn Scott

肯·切斯 Ken Chase

弗兰克·马歇尔 Frank Marshall

David McGiffert David McGiffert

Pamela M. Eilerson Pamela M. Eilerson

比尔·瓦尼 Bill Varney

肯·拉斯顿 Ken Ralston

史蒂夫·高利 Steve Gawley

托马斯·罗塞特 Thomas Rosseter

Ned Gorman Ned Gorman

◎标 签 科幻 / 美国 / 经典 / 喜剧 / 回到未来 / 1985 / 穿越 / 时间旅行

◎简 介

布朗博士(克里斯托弗•洛伊德 Christopher Lloyd 饰)总是有些稀奇古怪的发明。在一次试验他发明的时光机器时,他找来了忘年交高中生马丁(迈克尔•J•福克斯 Michael J. Fox 饰)。岂料实验过程中博士被歹徒杀害了,马丁慌乱中架着时光机逃跑,回到了30年前。

马丁遇到了30年前的父亲乔治(克利斯丁•格拉夫 Crispin Glover 饰)和母亲洛莲(莉•汤普森 Lea Thompson 饰)。马丁一边找寻30年前的布朗博士,好让自己回到未来;一边尽力撮合乔治和洛莲,以免自己在以后消失了。但乔治为人懦弱,马丁在撮合过程中弄巧成拙让洛莲爱上了自己。还有令人讨厌的贝夫从中作梗,令马丁恼怒不已。

马丁周旋在他的双亲之间,还要尽快找到博士,想办法回到未来……

  1. 合集文件列表:

  2. 1.Back.to.the.Future.1985.UHD.BluRay.2160p.2Audio.TrueHD.Atmos.7.1.x265.10bit.HDR-ALT.mkv 30.24GB

  3. 2.Back.to.the.Future.Part.II.1989.UHD.BluRay.2160p.2Audio.TrueHD.Atmos.7.1.x265.10bit.HDR-ALT.mkv 25.01GB

  4. 3.Back.to.the.Future.Part.III.1990.UHD.BluRay.2160p.2Audio.TrueHD.Atmos.7.1.x265.10bit.HDR-ALT.mkv 26.47GB


复制代码

  1. ##### MediaInfo ######

  2. General

  3. Unique ID : 181070155052201599326653386177204422927 (0x8838D7E6C48FD155CDFAE8DA8C23890F)

  4. Complete name : Back.to.the.Future.1985.UHD.BluRay.2160p.2Audio.TrueHD.Atmos.7.1.x265.10bit.HDR-ALT.mkv

  5. Format : Matroska

  6. Format version : Version 4

  7. File size : 30.2 GiB

  8. Duration : 1 h 56 min

  9. Overall bit rate mode : Variable

  10. Overall bit rate : 37.3 Mb/s

  11. Encoded date : UTC 2020-10-29 01:08:18

  12. Writing application : mkvmerge v49.0.0 ('Sick Of Losing Soulmates') 64-bit

  13. Writing library : libebml v1.4.0 + libmatroska v1.6.1

  14. Video

  15. ID : 1

  16. Format : HEVC

  17. Format/Info : High Efficiency Video Coding

  18. Format profile : Main [email protected]@High

  19. HDR format : SMPTE ST 2086, HDR10 compatible

  20. Codec ID : V_MPEGH/ISO/HEVC

  21. Duration : 1 h 56 min

  22. Bit rate : 27.2 Mb/s

  23. Width : 3 840 pixels

  24. Height : 2 076 pixels

  25. Display aspect ratio : 1.85:1

  26. Frame rate mode : Constant

  27. Frame rate : 23.976 (24000/1001/53354) FPS

  28. Color space : YUV

  29. Chroma subsampling : 4:2:0 (Type 2)

  30. Bit depth : 10 bits

  31. Bits/(Pixel*Frame) : 0.143

  32. Stream size : 22.1 GiB (73%)

  33. Title : HEVC, [email protected]@High, 24/1.001 fps @ 29060 kbps

  34. Writing library : x265 3.4+14-gd419c7152:[Windows][GCC 10.2.0][64 bit] 10bit

  35. Encoding settings : cpuid=533541111039 / frame-threads=4 / numa-pools=16 / wpp / pmode / pme / no-psnr / no-ssim / log-level=2 / input-csp=1 / input-res=3840x2076 / interlace=0 / total-frames=166928 / level-idc=51 / high-tier=1 / uhd-bd=0 / ref=4 / no-allow-non-conformance / repeat-headers / annexb / no-aud / hrd / info / hash=0 / no-temporal-layers / no-open-gop / min-keyint=24 / keyint=240 / gop-lookahead=0 / bframes=8 / b-adapt=2 / b-pyramid / bframe-bias=0 / rc-lookahead=25 / lookahead-slices=0 / NTMzNTQ=uuDQuD2mJt9fsCf / scenecut=40 / hist-scenecut=0 / radl=0 / no-splice / no-intra-refresh / ctu=64 / min-cu-size=8 / no-rect / no-amp / max-tu-size=32 / tu-inter-depth=3 / tu-intra-depth=3 / limit-tu=4 / rdoq-level=2 / dynamic-rd=0.00 / no-ssim-rd / signhide / no-tskip / nr-intra=0 / nr-inter=0 / no-constrained-intra / no-strong-intra-smoothing / max-merge=4 / limit-refs=1 / limit-modes / me=3 / subme=4 / merange=25 / temporal-mvp / no-frame-dup / no-hme / weightp / weightb / no-analyze-src-pics / deblock=-3:-3 / no-sao / no-sao-non-deblock / rd=6 / selective-sao=0 / no-early-skip / rskip / no-fast-intra / no-tskip-fast / no-cu-lossless / b-intra / no-splitrd-skip / rdpenalty=0 / psy-rd=2.00 / psy-rdoq=1.00 / no-rd-refine / no-lossless / cbqpoffs=0 / crqpoffs=0 / rc=crf / crf=19.5 / qcomp=0.65 / qpstep=4 / stats-write=0 / stats-read=0 / vbv-maxrate=160000 / vbv-bufsize=160000 / vbv-init=0.9 / crf-max=0.0 / crf-min=0.0 / ipratio=1.30 / pbratio=1.20 / aq-mode=3 / aq-strength=0.85 / cutree / zone-count=0 / no-strict-cbr / qg-size=32 / no-rc-grain / qpmax=69 / qpmin=0 / no-const-vbv / sar=1 / overscan=0 / videoformat=5 / range=0 / colorprim=9 / transfer=16 / colormatrix=9 / chromaloc=1 / chromaloc-top=2 / chromaloc-bottom=2 / display-window=0 / master-display=G(13250,34500)B(7500,3000)R(34000,16000)WP(15635,16450)L(40000000,50) / cll=1000,755 / min-luma=0 / max-luma=1023 / log2-max-poc-lsb=8 / vui-timing-info / vui-hrd-info / slices=1 / no-opt-qp-pps / no-opt-ref-list-length-pps / no-multi-pass-opt-rps / scenecut-bias=0.05 / hist-threshold=0.03 / no-opt-cu-delta-qp / no-aq-motion / hdr10 / hdr10-opt / no-dhdr10-opt / no-idr-recovery-sei / analysis-reuse-level=0 / analysis-save-reuse-level=0 / analysis-load-reuse-level=0 / scale-factor=0 / refine-intra=0 / refine-inter=0 / refine-mv=1 / refine-ctu-distortion=0 / no-limit-sao / ctu-info=0 / no-lowpass-dct / refine-analysis-type=0 / copy-pic=1 / max-ausize-factor=1.0 / no-dynamic-refine / no-single-sei / no-hevc-aq / no-svt / no-field / qp-adaptation-range=1.00 / no-scenecut-aware-qpconformance-window-offsets / right=0 / bottom=0 / NTMzNTQ= / decoder-max-rate=0

  36. Language : English

  37. Default : Yes

  38. Forced : No

  39. Color range : Limited

  40. Color primaries : BT.2020

  41. Transfer characteristics : PQ

  42. Matrix coefficients : BT.2020 non-constant

  43. Mastering display color primaries : Display P3

  44. Mastering display luminance : min: 0.0050 cd/m2, max: 4000 cd/m2

  45. Maximum Content Light Level : 1000 cd/m2

  46. Maximum Frame-Average Light Level : 755 cd/m2

  47. Audio #1

  48. ID : 2

  49. Format : MLP FBA 16-ch

  50. Format/Info : Meridian Lossless Packing FBA with 16-channel presentation

  51. Commercial name : Dolby TrueHD with Dolby Atmos

  52. Codec ID : A_TRUEHD

  53. Duration : 1 h 56 min

  54. Bit rate mode : Variable

  55. Bit rate : 4 213 kb/s

  56. Maximum bit rate : 7 626 kb/s

  57. Channel(s) : 8 channels

  58. Channel layout : L R C LFE Ls Rs Lb Rb

  59. Sampling rate : 48.0 kHz

  60. Frame rate : 1 200.000 FPS (40 SPF)

  61. Compression mode : Lossless

  62. Stream size : 3.41 GiB (11%)

  63. Title : English Dolby TrueHD 7.1 (Atmos) @ 4661 kbps

  64. Language : English

  65. Default : Yes

  66. Forced : No

  67. Number of dynamic objects : 11

  68. Bed channel count : 1 channel

  69. Bed channel configuration : LFE

  70. Audio #2

  71. ID : 3

  72. Format : AC-3

  73. Format/Info : Audio Coding 3

  74. Commercial name : Dolby Digital

  75. Codec ID : A_AC3

  76. Duration : 1 h 56 min

  77. Bit rate mode : Constant

  78. Bit rate : 448 kb/s

  79. Channel(s) : 6 channels

  80. Channel layout : L R C LFE Ls Rs

  81. Sampling rate : 48.0 kHz

  82. Frame rate : 31.250 FPS (1536 SPF)

  83. Compression mode : Lossy

  84. Stream size : 372 MiB (1%)

  85. Title : English Dolby Digital Audio 5.1 @ 448 kbps

  86. Language : English

  87. Service kind : Complete Main

  88. Default : No

  89. Forced : No

  90. Audio #3

  91. ID : 4

  92. Format : AC-3

  93. Format/Info : Audio Coding 3

  94. Commercial name : Dolby Digital

  95. Codec ID : A_AC3

  96. Duration : 1 h 56 min

  97. Bit rate mode : Constant

  98. Bit rate : 192 kb/s

  99. Channel(s) : 2 channels

  100. Channel layout : L R

  101. Sampling rate : 48.0 kHz

  102. Frame rate : 31.250 FPS (1536 SPF)

  103. Compression mode : Lossy

  104. Stream size : 159 MiB (1%)

  105. Title : English Dolby Digital Audio 2.0 @ 192 kbps Commentary 1

  106. Language : English

  107. Service kind : Complete Main

  108. Default : No

  109. Forced : No

  110. Audio #4

  111. ID : 5

  112. Format : AC-3

  113. Format/Info : Audio Coding 3

  114. Commercial name : Dolby Digital

  115. Codec ID : A_AC3

  116. Duration : 1 h 56 min

  117. Bit rate mode : Constant

  118. Bit rate : 192 kb/s

  119. Channel(s) : 2 channels

  120. Channel layout : L R

  121. Sampling rate : 48.0 kHz

  122. Frame rate : 31.250 FPS (1536 SPF)

  123. Compression mode : Lossy

  124. Stream size : 159 MiB (1%)

  125. Title : English Dolby Digital Audio 2.0 @ 192 kbps Commentary 2

  126. Language : English

  127. Service kind : Complete Main

  128. Default : No

  129. Forced : No

  130. Audio #5

  131. ID : 6

  132. Format : DTS XLL

  133. Format/Info : Digital Theater Systems

  134. Commercial name : DTS-HD Master Audio

  135. Codec ID : A_DTS

  136. Duration : 1 h 56 min

  137. Bit rate mode : Variable

  138. Bit rate : 4 825 kb/s

  139. Channel(s) : 8 channels

  140. Channel layout : C L R LFE Lb Rb Lss Rss

  141. Sampling rate : 48.0 kHz

  142. Frame rate : 93.750 FPS (512 SPF)

  143. Bit depth : 24 bits

  144. Compression mode : Lossless

  145. Stream size : 3.91 GiB (13%)

  146. Title : Mandarin DTS-HD Master Audio 7.1 @ 4825 kbps

  147. Language : Chinese

  148. Default : No

  149. Forced : No

  150. Text #1

  151. ID : 7

  152. Format : PGS

  153. Codec ID : S_HDMV/PGS

  154. Codec ID/Info : Picture based subtitle format used on BDs/HD-DVDs

  155. Duration : 1 h 51 min

  156. Bit rate : 43.3 kb/s

  157. Count of elements : 3552

  158. Stream size : 34.5 MiB (0%)

  159. Title : Eng/SUP

  160. Language : English

  161. Default : No

  162. Forced : No

  163. Text #2

  164. ID : 8

  165. Format : PGS

  166. Codec ID : S_HDMV/PGS

  167. Codec ID/Info : Picture based subtitle format used on BDs/HD-DVDs

  168. Duration : 1 h 52 min

  169. Bit rate : 41.5 kb/s

  170. Count of elements : 3081

  171. Stream size : 33.4 MiB (0%)

  172. Title : Chs/SUP 简英双语

  173. Language : Chinese

  174. Default : Yes

  175. Forced : No

  176. Text #3

  177. ID : 9

  178. Format : PGS

  179. Codec ID : S_HDMV/PGS

  180. Codec ID/Info : Picture based subtitle format used on BDs/HD-DVDs

  181. Duration : 1 h 52 min

  182. Bit rate : 42.4 kb/s

  183. Count of elements : 3081

  184. Stream size : 34.2 MiB (0%)

  185. Title : Cht/SUP 繁英双语

  186. Language : Chinese

  187. Default : No

  188. Forced : No

  189. Menu

  190. 00:00:00.000 : :第 01 章

  191. 00:04:13.545 : :第 02 章

  192. 00:06:47.282 : :第 03 章

  193. 00:11:45.246 : :第 04 章

  194. 00:18:04.166 : :第 05 章

  195. 00:28:12.274 : :第 06 章

  196. 00:31:30.680 : :第 07 章

  197. 00:38:40.693 : :第 08 章

  198. 00:41:22.313 : :第 09 章

  199. 00:47:53.370 : :第 10 章

  200. 00:55:53.141 : :第 11 章

  201. 00:58:49.860 : :第 12 章

  202. 01:05:16.788 : :第 13 章

  203. 01:16:40.304 : :第 14 章

  204. 01:20:14.643 : :第 15 章

  205. 01:27:23.321 : :第 16 章

  206. 01:31:12.050 : :第 17 章

  207. 01:41:40.553 : :第 18 章

  208. 01:46:41.437 : :第 19 章

  209. 01:51:24.511 : :第 20 章


复制代码



文件下载


除非特别注明,本文『回到未来[共3部合集][国英多音轨/简繁英字幕].Back.to.the.Future.1-3.1985-1990.UHD.BluRay.2160p.2Audio.TrueHD.Atmos.7.1.x』来源于互联网机器人自动抓取,非本站原创。 浮游电影网不对本文拥有版权,如有侵犯,请联系邮箱:fuyouu#yandex.com[#换成@]投诉。我们会在15个工作日内删除。 但烦请转载时请标明出处:“本文转载于『浮游电影网』,原文地址:https://www.fuyouu.com/22650.html

评论吧骚年!

发表你的见解   

昵称*

E-mail*(建议输入,以便收到博主回复的提示邮件)

验证码*

您可以使用eMule或eMule Mod(Windows)、aMule(Win、Linux、Mac)等软件下载eD2k链接。。
eMule收藏集(.emulecollection)文件是您选中的所有链接的列表文件。eMule可以直接下载它们。
按住SHIFT键选择可以选中多个选择框。
可用文件名和大小选择器来选择文件。
文件名选择器帮您根据文件名称或后缀来选择文件。不分大小写。
符号使用:
和:空格( )、+
不包含:-
或:|
转义:一对英文引号("");
匹配开头:^
匹配结尾:$
例如:
选中所有名称中包含有“eMule”或“0.49c”字眼,但不包含有“exe”字眼的:emule|0.49c -exe
选中所有名称的开头是“eMule”,结尾是“0.49c”的:^emule 0.49c$
选中所有名称中带有“eMule 0.49c”的(必须是“eMule 0.49c”,中间没有别的字符,不能是“eMule fake 0.49c”),需要转义:"emule 0.49c"
大小选择器帮您根据文件大小选择文件。