当前位置: 首页 >> 欧美电影 >> 憨豆特工2[中文字幕].Johnny.English.Reborn.2011.iNTERNAL.1080p.BluRay.x264-LUBRiCATE 11.20GB >> 正文

憨豆特工2[中文字幕].Johnny.English.Reborn.2011.iNTERNAL.1080p.BluRay.x264-LUBRiCATE 11.20GB

2022年07月08日 14:33:19     电影发布:来源于网络     电影分类:欧美电影     评论(0)    

憨豆特工2[中文字幕].Johnny.English.Reborn.2011.iNTERNAL.1080p.BluRay.x264 LUBRiCATE 11.20GB  欧美电影  第1张

憨豆特工2[中文字幕].Johnny.English.Reborn.2011.iNTERNAL.1080p.BluRay.x264 LUBRiCATE 11.20GB  欧美电影  第2张

◎译 名 憨豆特工2 / 憨豆特派员2 / 特务戆J之救国大业(港) / 凸捶特派员:二度出包(台) / 憨探奇案2

◎片 名 Johnny English Reborn

◎年 代 2011

◎产 地 美国 / 法国 / 英国

◎类 别 喜剧

◎语 言 英语

◎上映日期 2011-10-07(英国)

◎IMDb链接 https://www.imdb.com/title/tt1634122/

◎豆瓣评分 7.2/10 (79143人评价)

◎豆瓣链接 https://movie.douban.com/subject/4767216/

◎片 长 100分钟

◎导 演 奥利弗·帕克 Oliver Parker (id:1049978)

◎编 剧 哈密斯·麦克尔 Hamish McColl (id:1321615)

威廉姆·戴维斯 William Davies (id:1312517)

William Davies William Davies (id:1013636)

◎演 员 罗温·艾金森 Rowan Atkinson (id:1040996)

吉莲·安德森 Gillian Anderson (id:1022623)

多米尼克·韦斯特 Dominic West (id:1027173)

裴淳华 Rosamund Pike (id:1040989)

丹尼尔·卡卢亚 Daniel Kaluuya (id:1316928)

伊川东吾 Togo Igawa (id:1027483)

克里斯蒂娜·钟 Christina Chong (id:1321616)

蒂姆·麦克纳尼 Tim McInnerny (id:1049860)

利沙华 Courtney Wu (id:1034049)

斯蒂芬·坎贝尔·莫尔 Stephen Campbell Moore (id:1274878)

约翰·马尔科维奇 John Malkovich (id:1041013)

克拉拉·佩吉特 Clara Paget (id:1337556)

洛博·陈 Lobo Chan (id:1370256)

艾伦·托马斯 Ellen Thomas (id:1386609)

威廉姆斯·贝拉 Williams Belle (id:1394281)

莉莉 阿特金森 Lily Atkinson (id:1423170)

伯恩·戈曼 Burn Gorman (id:1049809)

马克·伊瓦涅 Mark Ivanir (id:1105743)

约瑟芬·德·拉·波美 Joséphine de La Baume (id:1317471)

林碧笙 Pik Sen Lim (id:1317468)

车保罗 Paul Che (id:1315269)

李小鸿 Siu Hun Li (id:1433148)

扎克·尼科尔森 Zac Nicholson (id:1340600)

杨亮 Liang Yang (id:1398252)

◎简 介

英国军情七处顶级特工约翰·英格利士(罗温·艾金森 Rowan Atkinson 饰)自5年前在莫桑比克的行动中失手后,从此销声匿迹,隐居在深山的寺院中修炼身心。但是他的人生注定充满波澜,受军情七处的召唤,约翰返回阔别已久的伦敦。此时他的老东家早已改组,新任领导帕梅拉(吉莲·安德森 Gillian Anderson 饰)命令他前往香港,阻止针对中国领导人的暗杀计划。令他意想不到的是,他的对手是一支名为“旋风”的全顶尖杀手的暗杀集团。5年时间让世界发生天翻地覆的变化,但约翰凭借修行得来的坚韧意志和智慧与杀手集团进行连番精彩刺激的较量,当然在这一过程中也闹出不少笑话。

道高一尺,魔高一丈,约翰能否拯救前所未有的危机呢……

◎获奖情况 (共1项)

第11届凤凰城影评人协会奖 (2011)

最佳原创歌曲(提名)

  1. Video

  2. ID : 1

  3. Format : AVC

  4. Format/Info : Advanced Video Codec

  5. Format profile : [email protected]

  6. Format settings : CABAC / 5 Ref Frames

  7. Format settings, CABAC : Yes

  8. Format settings, Reference frames : 5 frames

  9. Codec ID : V_MPEG4/ISO/AVC

  10. Duration : 1 h 41 min

  11. Bit rate : 11.4 Mb/s

  12. Width : 1 920 pixels

  13. Height : 800 pixels

  14. Display aspect ratio : 2.40:1

  15. Frame rate mode : Constant

  16. Frame rate : 23.976 (24000/1001/53354) FPS

  17. Color space : YUV

  18. Chroma subsampling : 4:2:0

  19. Bit depth : 8 bits

  20. Scan type : Progressive

  21. Bits/(Pixel*Frame) : 0.309

  22. Stream size : 8.05 GiB (73%)

  23. Writing library : x264 core 164 r3095 baee400

  24. Encoding settings : cabac=1 / ref=5 / deblock=1:-3:-3 / analyse=0x3:0x133 / me=umh / subme=9 / psy=1 / psy_rd=1.00:0.00 / mixed_ref=1 / me_range=16 / chroma_me=1 / trellis=2 / 8x8dct=1 / cqm=0 / deadzone=21,11 / fast_pskip=1 / chroma_qp_offset=-2 / threads=24 / lookahead_threads=2 / sliced_threads=0 / nr=0 / decimate=1 / interlaced=0 / NTMzNTQ= / bluray_compat=0 / constrained_intra=0 / bframes=3 / b_pyramid=2 / b_adapt=2 / b_bias=0 / direct=3 / weightb=1 / open_gop=0 / weightp=2 / keyint=250 / keyint_min=23 / NTMzNTQ=uuDQuD2mJt9fsCf / scenecut=40 / intra_refresh=0 / rc_lookahead=60 / rc=crf / mbtree=1 / crf=16.0 / qcomp=0.60 / qpmin=0 / qpmax=69 / qpstep=4 / NTMzNTQ=LmsMAP37EqsCpk / ip_ratio=1.40 / aq=3:0.80

  25. Default : Yes

  26. Forced : No


  27. Audio

  28. ID : 2

  29. Format : DTS XLL

  30. Format/Info : Digital Theater Systems

  31. Commercial name : DTS-HD Master Audio

  32. Codec ID : A_DTS

  33. Duration : 1 h 41 min

  34. Bit rate mode : Variable

  35. Bit rate : 3 915 kb/s

  36. Channel(s) : 6 channels

  37. Channel layout : C L R Ls Rs LFE

  38. Sampling rate : 48.0 kHz

  39. Frame rate : 93.750 FPS (512 SPF)

  40. Bit depth : 24 bits

  41. Compression mode : Lossless

  42. Stream size : 2.77 GiB (25%)

  43. Title : English

  44. Language : English

  45. Default : Yes

  46. Forced : No


  47. Text #1

  48. ID : 3

  49. Format : PGS

  50. Codec ID : S_HDMV/PGS

  51. Codec ID/Info : Picture based subtitle format used on BDs/HD-DVDs

  52. Duration : 1 h 37 min

  53. Bit rate : 25.1 kb/s

  54. Count of elements : 1887

  55. Stream size : 17.6 MiB (0%)

  56. Title : Catalan

  57. Language : Catalan

  58. Default : No

  59. Forced : No


  60. Text #2

  61. ID : 4

  62. Format : PGS

  63. Codec ID : S_HDMV/PGS

  64. Codec ID/Info : Picture based subtitle format used on BDs/HD-DVDs

  65. Duration : 1 h 38 min

  66. Bit rate : 20.4 kb/s

  67. Count of elements : 1909

  68. Stream size : 14.3 MiB (0%)

  69. Title : Chinese

  70. Language : Chinese

  71. Default : No

  72. Forced : No


  73. Text #3

  74. ID : 5

  75. Format : PGS

  76. Codec ID : S_HDMV/PGS

  77. Codec ID/Info : Picture based subtitle format used on BDs/HD-DVDs

  78. Duration : 1 h 38 min

  79. Bit rate : 19.4 kb/s

  80. Count of elements : 2193

  81. Stream size : 13.6 MiB (0%)

  82. Title : Chinese

  83. Language : Chinese

  84. Default : No

  85. Forced : No


  86. Text #4

  87. ID : 6

  88. Format : PGS

  89. Codec ID : S_HDMV/PGS

  90. Codec ID/Info : Picture based subtitle format used on BDs/HD-DVDs

  91. Duration : 1 h 37 min

  92. Bit rate : 25.2 kb/s

  93. Count of elements : 1873

  94. Stream size : 17.6 MiB (0%)

  95. Title : Danish

  96. Language : Danish

  97. Default : No

  98. Forced : No


  99. Text #5

  100. ID : 7

  101. Format : PGS

  102. Codec ID : S_HDMV/PGS

  103. Codec ID/Info : Picture based subtitle format used on BDs/HD-DVDs

  104. Duration : 1 h 37 min

  105. Bit rate : 24.6 kb/s

  106. Count of elements : 1881

  107. Stream size : 17.2 MiB (0%)

  108. Title : Dutch

  109. Language : Dutch

  110. Default : No

  111. Forced : No


  112. Text #6

  113. ID : 8

  114. Format : PGS

  115. Codec ID : S_HDMV/PGS

  116. Codec ID/Info : Picture based subtitle format used on BDs/HD-DVDs

  117. Duration : 1 h 38 min

  118. Bit rate : 28.8 kb/s

  119. Count of elements : 2069

  120. Stream size : 20.3 MiB (0%)

  121. Title : English SDH

  122. Language : English

  123. Default : No

  124. Forced : No


  125. Text #7

  126. ID : 9

  127. Format : UTF-8

  128. Codec ID : S_TEXT/UTF8

  129. Codec ID/Info : UTF-8 Plain Text

  130. Duration : 1 h 38 min

  131. Bit rate : 43 b/s

  132. Count of elements : 1034

  133. Stream size : 31.5 KiB (0%)

  134. Title : English SDH SRT

  135. Language : English

  136. Default : No

  137. Forced : No


  138. Text #8

  139. ID : 10

  140. Format : PGS

  141. Codec ID : S_HDMV/PGS

  142. Codec ID/Info : Picture based subtitle format used on BDs/HD-DVDs

  143. Duration : 1 h 37 min

  144. Bit rate : 24.3 kb/s

  145. Count of elements : 1881

  146. Stream size : 17.0 MiB (0%)

  147. Title : Finnish

  148. Language : Finnish

  149. Default : No

  150. Forced : No


  151. Text #9

  152. ID : 11

  153. Format : PGS

  154. Codec ID : S_HDMV/PGS

  155. Codec ID/Info : Picture based subtitle format used on BDs/HD-DVDs

  156. Duration : 1 h 37 min

  157. Bit rate : 27.8 kb/s

  158. Count of elements : 1873

  159. Stream size : 19.4 MiB (0%)

  160. Title : German

  161. Language : German

  162. Default : No

  163. Forced : No


  164. Text #10

  165. ID : 12

  166. Format : PGS

  167. Codec ID : S_HDMV/PGS

  168. Codec ID/Info : Picture based subtitle format used on BDs/HD-DVDs

  169. Duration : 1 h 37 min

  170. Bit rate : 27.6 kb/s

  171. Count of elements : 2115

  172. Stream size : 19.3 MiB (0%)

  173. Title : Greek

  174. Language : Greek

  175. Default : No

  176. Forced : No


  177. Text #11

  178. ID : 13

  179. Format : PGS

  180. Codec ID : S_HDMV/PGS

  181. Codec ID/Info : Picture based subtitle format used on BDs/HD-DVDs

  182. Duration : 1 h 37 min

  183. Bit rate : 26.7 kb/s

  184. Count of elements : 1897

  185. Stream size : 18.7 MiB (0%)

  186. Title : Icelandic

  187. Language : Icelandic

  188. Default : No

  189. Forced : No


  190. Text #12

  191. ID : 14

  192. Format : PGS

  193. Codec ID : S_HDMV/PGS

  194. Codec ID/Info : Picture based subtitle format used on BDs/HD-DVDs

  195. Duration : 1 h 37 min

  196. Bit rate : 25.8 kb/s

  197. Count of elements : 1881

  198. Stream size : 18.1 MiB (0%)

  199. Title : Italian

  200. Language : Italian

  201. Default : No

  202. Forced : No


  203. Text #13

  204. ID : 15

  205. Format : PGS

  206. Codec ID : S_HDMV/PGS

  207. Codec ID/Info : Picture based subtitle format used on BDs/HD-DVDs

  208. Duration : 1 h 38 min

  209. Bit rate : 17.6 kb/s

  210. Count of elements : 1909

  211. Stream size : 12.4 MiB (0%)

  212. Title : Korean

  213. Language : Korean

  214. Default : No

  215. Forced : No


  216. Text #14

  217. ID : 16

  218. Format : PGS

  219. Codec ID : S_HDMV/PGS

  220. Codec ID/Info : Picture based subtitle format used on BDs/HD-DVDs

  221. Duration : 1 h 37 min

  222. Bit rate : 25.0 kb/s

  223. Count of elements : 1887

  224. Stream size : 17.5 MiB (0%)

  225. Title : Norwegian

  226. Language : Norwegian

  227. Default : No

  228. Forced : No


  229. Text #15

  230. ID : 17

  231. Format : PGS

  232. Codec ID : S_HDMV/PGS

  233. Codec ID/Info : Picture based subtitle format used on BDs/HD-DVDs

  234. Duration : 1 h 37 min

  235. Bit rate : 26.6 kb/s

  236. Count of elements : 1887

  237. Stream size : 18.6 MiB (0%)

  238. Title : Portuguese

  239. Language : Portuguese

  240. Default : No

  241. Forced : No


  242. Text #16

  243. ID : 18

  244. Format : PGS

  245. Codec ID : S_HDMV/PGS

  246. Codec ID/Info : Picture based subtitle format used on BDs/HD-DVDs

  247. Duration : 1 h 37 min

  248. Bit rate : 25.4 kb/s

  249. Count of elements : 2102

  250. Stream size : 17.7 MiB (0%)

  251. Title : Spanish

  252. Language : Spanish

  253. Default : No

  254. Forced : No


  255. Text #17

  256. ID : 19

  257. Format : PGS

  258. Codec ID : S_HDMV/PGS

  259. Codec ID/Info : Picture based subtitle format used on BDs/HD-DVDs

  260. Duration : 1 h 37 min

  261. Bit rate : 23.6 kb/s

  262. Count of elements : 1881

  263. Stream size : 16.5 MiB (0%)

  264. Title : Swedish

  265. Language : Swedish

  266. Default : No

  267. Forced : No


  268. Menu

  269. 00:00:00.000 : :Chapter 01

  270. 00:05:39.464 : :Chapter 02

  271. 00:09:06.921 : :Chapter 03

  272. 00:13:00.363 : :Chapter 04

  273. 00:15:28.553 : :Chapter 05

  274. 00:18:44.790 : :Chapter 06

  275. 00:25:35.784 : :Chapter 07

  276. 00:33:09.946 : :Chapter 08

  277. 00:37:35.420 : :Chapter 09

  278. 00:46:32.415 : :Chapter 10

  279. 00:49:09.113 : :Chapter 11

  280. 00:55:58.313 : :Chapter 12

  281. 01:01:22.554 : :Chapter 13

  282. 01:05:00.772 : :Chapter 14

  283. 01:11:47.762 : :Chapter 15

  284. 01:15:24.311 : :Chapter 16

  285. 01:20:28.365 : :Chapter 17

  286. 01:28:18.376 : :Chapter 18

  287. 01:33:02.535 : :Chapter 19

  288. 01:35:07.201 : :Chapter 20

复制代码

憨豆特工2[中文字幕].Johnny.English.Reborn.2011.iNTERNAL.1080p.BluRay.x264 LUBRiCATE 11.20GB  欧美电影  第3张




文件下载


除非特别注明,本文『憨豆特工2[中文字幕].Johnny.English.Reborn.2011.iNTERNAL.1080p.BluRay.x264-LUBRiCATE 11.20GB』来源于互联网机器人自动抓取,非本站原创。 浮游电影网不对本文拥有版权,如有侵犯,请联系邮箱:fuyouu#yandex.com[#换成@]投诉。我们会在15个工作日内删除。 但烦请转载时请标明出处:“本文转载于『浮游电影网』,原文地址:https://www.fuyouu.com/22641.html

评论吧骚年!

发表你的见解   

昵称*

E-mail*(建议输入,以便收到博主回复的提示邮件)

验证码*

您可以使用eMule或eMule Mod(Windows)、aMule(Win、Linux、Mac)等软件下载eD2k链接。。
eMule收藏集(.emulecollection)文件是您选中的所有链接的列表文件。eMule可以直接下载它们。
按住SHIFT键选择可以选中多个选择框。
可用文件名和大小选择器来选择文件。
文件名选择器帮您根据文件名称或后缀来选择文件。不分大小写。
符号使用:
和:空格( )、+
不包含:-
或:|
转义:一对英文引号("");
匹配开头:^
匹配结尾:$
例如:
选中所有名称中包含有“eMule”或“0.49c”字眼,但不包含有“exe”字眼的:emule|0.49c -exe
选中所有名称的开头是“eMule”,结尾是“0.49c”的:^emule 0.49c$
选中所有名称中带有“eMule 0.49c”的(必须是“eMule 0.49c”,中间没有别的字符,不能是“eMule fake 0.49c”),需要转义:"emule 0.49c"
大小选择器帮您根据文件大小选择文件。