当前位置: 首页 >> 日韩电影 >> 玉子[中文字幕].Okja.2017.1080p.BluRay.REMUX.AVC.DTS-HD.MA.TrueHD.7.1.Atmos-FGT 35.79GB >> 正文

玉子[中文字幕].Okja.2017.1080p.BluRay.REMUX.AVC.DTS-HD.MA.TrueHD.7.1.Atmos-FGT 35.79GB

2022年07月07日 10:01:45     电影发布:来源于网络     电影分类:日韩电影     评论(0)    

玉子[中文字幕].Okja.2017.1080p.BluRay.REMUX.AVC.DTS HD.MA.TrueHD.7.1.Atmos FGT 35.79GB  日韩电影  第1张

玉子[中文字幕].Okja.2017.1080p.BluRay.REMUX.AVC.DTS HD.MA.TrueHD.7.1.Atmos FGT 35.79GB  日韩电影  第2张

◎译 名 玉子 / Okja

◎片 名 ??

◎年 代 2017

◎产 地 韩国 / 美国

◎类 别 剧情 / 动作 / 科幻 / 冒险

◎语 言 英语 / 韩语 / 西班牙语

◎上映日期 2017-05-19(戛纳电影节) / 2017-06-28(韩国)

◎IMDb链接 https://www.imdb.com/title/tt3967856/

◎豆瓣评分 6.7/10 (37999人评价)

◎豆瓣链接 https://movie.douban.com/subject/26365236/

◎片 长 120分钟

◎导 演 奉俊昊 Joon-ho Bong (id:1062919)

◎编 剧 奉俊昊 Joon-ho Bong (id:1062919)

乔恩·容森 Jon Ronson (id:1045422)

◎演 员 安瑞贤 Seo-Hyun An (id:1318722)

蒂尔达·斯文顿 Tilda Swinton (id:1025152)

保罗·达诺 Paul Dano (id:1027774)

边希峰 Hie-bong Byeon (id:1180723)

史蒂文·延 Steven Yeun (id:1275960)

莉莉·柯林斯 Lily Collins (id:1018977)

尹宰文 Je-mun Yun (id:1315556)

雪莉·亨德森 Shirley Henderson (id:1036426)

丹尼尔·亨绍尔 Daniel Henshall (id:1319891)

戴文·博斯蒂克 Devon Bostick (id:1040655)

崔宇植 Choi Woo-shik (id:1319427)

吉安卡罗·埃斯波西托 Giancarlo Esposito (id:1048143)

杰克·吉伦哈尔 Jake Gyllenhaal (id:1048002)

李姃垠 Jung-eun Lee (id:1356030)

崔嬉序 Moon Choi (id:1372599)

尹敬浩 Kyung-ho Yoon (id:1355317)

赵莞基 Wan-gi Jo (id:1383541)

迈克尔·米尔顿 Michael Mitton (id:1231990)

凯瑟琳·柯克帕特里克 Kathryn Kirkpatrick (id:1377663)

李凤莲 Lee Bong-ryeon (id:1381910)

朴根禄 Keun-rok Park (id:1366649)

埃里克·德·波尔 Erik De Boer (id:1281992)

科里·格鲁特-安德鲁 Cory Gruter-Andrew (id:1391109)

亚当·奥斯兰德 Adam Auslander (id:1221768)

瓦里丝·阿卢瓦利亚 Waris Ahluwalia (id:1327732)

T· 撒哈拉·米尔 T. Sahara Meer (id:1196085)

安德烈亚斯·弗龙克 Andreas Fronk (id:1381796)

迈尔斯·哈姆帕斯 Myles Humphus (id:1371369)

朴智勋 Park Ji-hoon (id:1383729)

韩利进 Yi-jin Han (id:1384384)

金文学 Moon-hak Kim (id:1398062)

白基善 Gi Seon Bak (id:1385921)

布拉德·皮特 Brad Pitt (id:1054452)

奉俊昊 Joon-ho Bong (id:1062919)

蒂尔达·斯文顿 Tilda Swinton (id:1025152)

迪·加德纳 Dede Gardner (id:1284552)

杰瑞米·克莱纳 Jeremy Kleiner (id:1336137)

金泰完 Lewis Taewan Kim (id:1458736)

克里斯蒂娜·吴 Christina Oh (id:1453590)

郑在日 Jae-il Jung (id:1444357)

达吕斯·康第 Darius Khondji (id:1028011)

金智龙 Ji-yong Kim (id:1328079)

杨劲莫 Yang Jin-mo (id:1366924)

韩美妍 Meeyeon Han (id:1449454)

李河俊 Ha-jun Lee (id:1420712)

凯文·汤普森 Kevin Thompson (id:1299181)

韩珍元 Jin-won Han (id:1421042)

崔太永 Tae-young Choi (id:1386962)

奥·布里克 Ed Ulbrich (id:1410103)

◎简 介

电影讲述了小女孩美子的故事,她必须以身涉险阻止强大的跨国公司绑架自己最好的朋友 — 巨兽“玉子”。

◎获奖情况 (共1项)

第70届戛纳电影节 (2017)

主竞赛单元 金棕榈奖(提名)

└──奉俊昊 (id:1062919)

  1. Video

  2. ID : 1

  3. ID in the original source medium : 4113 (0x1011)

  4. Format : AVC

  5. Format/Info : Advanced Video Codec

  6. Format profile : [email protected]

  7. Format settings : CABAC / 4 Ref Frames

  8. Format settings, CABAC : Yes

  9. Format settings, Reference frames : 4 frames

  10. Codec ID : V_MPEG4/ISO/AVC

  11. Duration : 2 h 0 min

  12. Bit rate mode : Variable

  13. Bit rate : 33.3 Mb/s

  14. Maximum bit rate : 37.0 Mb/s

  15. Width : 1 920 pixels

  16. Height : 1 080 pixels

  17. Display aspect ratio : 16:9

  18. Frame rate mode : Constant

  19. Frame rate : 23.976 (24000/1001/53354) FPS

  20. Color space : YUV

  21. Chroma subsampling : 4:2:0

  22. Bit depth : 8 bits

  23. Scan type : Progressive

  24. Bits/(Pixel*Frame) : 0.670

  25. Stream size : 28.1 GiB (79%)

  26. Language : English

  27. Default : No

  28. Forced : No

  29. Original source medium : Blu-ray


  30. Audio #1

  31. ID : 2

  32. ID in the original source medium : 4352 (0x1100)

  33. Format : MLP FBA 16-ch

  34. Format/Info : Meridian Lossless Packing FBA with 16-channel presentation

  35. Commercial name : Dolby TrueHD with Dolby Atmos

  36. Codec ID : A_TRUEHD

  37. Duration : 2 h 0 min

  38. Bit rate mode : Variable

  39. Bit rate : 4 231 kb/s

  40. Maximum bit rate : 7 347 kb/s

  41. Channel(s) : 8 channels

  42. Channel layout : L R C LFE Ls Rs Lb Rb

  43. Sampling rate : 48.0 kHz

  44. Frame rate : 1 200.000 FPS (40 SPF)

  45. Bit depth : 24 bits

  46. Compression mode : Lossless

  47. Stream size : 3.57 GiB (10%)

  48. Title : TrueHD 7.1 Atmos

  49. Language : English

  50. Default : Yes

  51. Forced : No

  52. Original source medium : Blu-ray

  53. Number of dynamic objects : 11

  54. Bed channel count : 1 channel

  55. Bed channel configuration : LFE


  56. Audio #2

  57. ID : 3

  58. Format : DTS XLL

  59. Format/Info : Digital Theater Systems

  60. Commercial name : DTS-HD Master Audio

  61. Codec ID : A_DTS

  62. Duration : 2 h 0 min

  63. Bit rate mode : Variable

  64. Bit rate : 4 095 kb/s

  65. Channel(s) : 8 channels

  66. Channel layout : C L R LFE Lb Rb Lss Rss

  67. Sampling rate : 48.0 kHz

  68. Frame rate : 93.750 FPS (512 SPF)

  69. Bit depth : 24 bits

  70. Compression mode : Lossless

  71. Stream size : 3.46 GiB (10%)

  72. Title : DTS-HD MA 7.1

  73. Language : English

  74. Default : No

  75. Forced : No


  76. Audio #3

  77. ID : 4

  78. ID in the original source medium : 4352 (0x1100)

  79. Format : AC-3

  80. Format/Info : Audio Coding 3

  81. Commercial name : Dolby Digital

  82. Codec ID : A_AC3

  83. Duration : 2 h 0 min

  84. Bit rate mode : Constant

  85. Bit rate : 640 kb/s

  86. Channel(s) : 6 channels

  87. Channel layout : L R C LFE Ls Rs

  88. Sampling rate : 48.0 kHz

  89. Frame rate : 31.250 FPS (1536 SPF)

  90. Compression mode : Lossy

  91. Stream size : 554 MiB (2%)

  92. Title : DD 5.1

  93. Language : English

  94. Service kind : Complete Main

  95. Default : No

  96. Forced : No

  97. Original source medium : Blu-ray


  98. Text #1

  99. ID : 5

  100. Format : UTF-8

  101. Codec ID : S_TEXT/UTF8

  102. Codec ID/Info : UTF-8 Plain Text

  103. Duration : 1 h 53 min

  104. Bit rate : 7 b/s

  105. Count of elements : 285

  106. Stream size : 6.58 KiB (0%)

  107. Title : FORCED

  108. Language : English

  109. Default : No

  110. Forced : Yes


  111. Text #2

  112. ID : 6

  113. Format : UTF-8

  114. Codec ID : S_TEXT/UTF8

  115. Codec ID/Info : UTF-8 Plain Text

  116. Duration : 1 h 59 min

  117. Bit rate : 41 b/s

  118. Count of elements : 1097

  119. Stream size : 36.1 KiB (0%)

  120. Language : English

  121. Default : Yes

  122. Forced : No


  123. Text #3

  124. ID : 7

  125. Format : UTF-8

  126. Codec ID : S_TEXT/UTF8

  127. Codec ID/Info : UTF-8 Plain Text

  128. Duration : 1 h 59 min

  129. Bit rate : 51 b/s

  130. Count of elements : 1440

  131. Stream size : 45.3 KiB (0%)

  132. Title : SDH

  133. Language : English

  134. Default : No

  135. Forced : No


  136. Text #4

  137. ID : 8

  138. Format : UTF-8

  139. Codec ID : S_TEXT/UTF8

  140. Codec ID/Info : UTF-8 Plain Text

  141. Duration : 2 h 0 min

  142. Bit rate : 76 b/s

  143. Count of elements : 1156

  144. Stream size : 67.0 KiB (0%)

  145. Language : Arabic

  146. Default : No

  147. Forced : No


  148. Text #5

  149. ID : 9

  150. Format : UTF-8

  151. Codec ID : S_TEXT/UTF8

  152. Codec ID/Info : UTF-8 Plain Text

  153. Duration : 1 h 59 min

  154. Bit rate : 64 b/s

  155. Count of elements : 1166

  156. Stream size : 56.6 KiB (0%)

  157. Language : Bulgarian

  158. Default : No

  159. Forced : No


  160. Text #6

  161. ID : 10

  162. Format : UTF-8

  163. Codec ID : S_TEXT/UTF8

  164. Codec ID/Info : UTF-8 Plain Text

  165. Duration : 2 h 0 min

  166. Bit rate : 37 b/s

  167. Count of elements : 1144

  168. Stream size : 33.2 KiB (0%)

  169. Title : Simplified

  170. Language : Chinese

  171. Default : No

  172. Forced : No


  173. Text #7

  174. ID : 11

  175. Format : UTF-8

  176. Codec ID : S_TEXT/UTF8

  177. Codec ID/Info : UTF-8 Plain Text

  178. Duration : 2 h 0 min

  179. Bit rate : 32 b/s

  180. Count of elements : 1147

  181. Stream size : 28.8 KiB (0%)

  182. Title : Traditional

  183. Language : Chinese

  184. Default : No

  185. Forced : No


  186. Text #8

  187. ID : 12

  188. Format : UTF-8

  189. Codec ID : S_TEXT/UTF8

  190. Codec ID/Info : UTF-8 Plain Text

  191. Duration : 2 h 0 min

  192. Bit rate : 38 b/s

  193. Count of elements : 1089

  194. Stream size : 33.9 KiB (0%)

  195. Language : Danish

  196. Default : No

  197. Forced : No


  198. Text #9

  199. ID : 13

  200. Format : UTF-8

  201. Codec ID : S_TEXT/UTF8

  202. Codec ID/Info : UTF-8 Plain Text

  203. Duration : 2 h 0 min

  204. Bit rate : 37 b/s

  205. Count of elements : 978

  206. Stream size : 33.3 KiB (0%)

  207. Language : Dutch

  208. Default : No

  209. Forced : No


  210. Text #10

  211. ID : 14

  212. Format : UTF-8

  213. Codec ID : S_TEXT/UTF8

  214. Codec ID/Info : UTF-8 Plain Text

  215. Duration : 2 h 0 min

  216. Bit rate : 35 b/s

  217. Count of elements : 1068

  218. Stream size : 31.1 KiB (0%)

  219. Language : Finnish

  220. Default : No

  221. Forced : No


  222. Text #11

  223. ID : 15

  224. Format : UTF-8

  225. Codec ID : S_TEXT/UTF8

  226. Codec ID/Info : UTF-8 Plain Text

  227. Duration : 2 h 0 min

  228. Bit rate : 40 b/s

  229. Count of elements : 1089

  230. Stream size : 35.2 KiB (0%)

  231. Language : French

  232. Default : No

  233. Forced : No


  234. Text #12

  235. ID : 16

  236. Format : UTF-8

  237. Codec ID : S_TEXT/UTF8

  238. Codec ID/Info : UTF-8 Plain Text

  239. Duration : 2 h 0 min

  240. Bit rate : 39 b/s

  241. Count of elements : 1042

  242. Stream size : 34.7 KiB (0%)

  243. Language : German

  244. Default : No

  245. Forced : No


  246. Text #13

  247. ID : 17

  248. Format : UTF-8

  249. Codec ID : S_TEXT/UTF8

  250. Codec ID/Info : UTF-8 Plain Text

  251. Duration : 2 h 0 min

  252. Bit rate : 71 b/s

  253. Count of elements : 1182

  254. Stream size : 62.8 KiB (0%)

  255. Language : Greek

  256. Default : No

  257. Forced : No


  258. Text #14

  259. ID : 18

  260. Format : UTF-8

  261. Codec ID : S_TEXT/UTF8

  262. Codec ID/Info : UTF-8 Plain Text

  263. Duration : 2 h 0 min

  264. Bit rate : 67 b/s

  265. Count of elements : 1126

  266. Stream size : 59.1 KiB (0%)

  267. Language : Hebrew

  268. Default : No

  269. Forced : No


  270. Text #15

  271. ID : 19

  272. Format : UTF-8

  273. Codec ID : S_TEXT/UTF8

  274. Codec ID/Info : UTF-8 Plain Text

  275. Duration : 2 h 0 min

  276. Bit rate : 97 b/s

  277. Count of elements : 1116

  278. Stream size : 85.6 KiB (0%)

  279. Language : Hindi

  280. Default : No

  281. Forced : No


  282. Text #16

  283. ID : 20

  284. Format : UTF-8

  285. Codec ID : S_TEXT/UTF8

  286. Codec ID/Info : UTF-8 Plain Text

  287. Duration : 2 h 0 min

  288. Bit rate : 39 b/s

  289. Count of elements : 1178

  290. Stream size : 34.9 KiB (0%)

  291. Language : Indonesian

  292. Default : No

  293. Forced : No


  294. Text #17

  295. ID : 21

  296. Format : UTF-8

  297. Codec ID : S_TEXT/UTF8

  298. Codec ID/Info : UTF-8 Plain Text

  299. Duration : 2 h 0 min

  300. Bit rate : 39 b/s

  301. Count of elements : 1109

  302. Stream size : 34.4 KiB (0%)

  303. Language : Italian

  304. Default : No

  305. Forced : No


  306. Text #18

  307. ID : 22

  308. Format : UTF-8

  309. Codec ID : S_TEXT/UTF8

  310. Codec ID/Info : UTF-8 Plain Text

  311. Duration : 2 h 0 min

  312. Bit rate : 42 b/s

  313. Count of elements : 1187

  314. Stream size : 37.5 KiB (0%)

  315. Language : Japanese

  316. Default : No

  317. Forced : No


  318. Text #19

  319. ID : 23

  320. Format : UTF-8

  321. Codec ID : S_TEXT/UTF8

  322. Codec ID/Info : UTF-8 Plain Text

  323. Duration : 1 h 59 min

  324. Bit rate : 33 b/s

  325. Count of elements : 919

  326. Stream size : 29.6 KiB (0%)

  327. Language : Korean

  328. Default : No

  329. Forced : No


  330. Text #20

  331. ID : 24

  332. Format : UTF-8

  333. Codec ID : S_TEXT/UTF8

  334. Codec ID/Info : UTF-8 Plain Text

  335. Duration : 1 h 59 min

  336. Bit rate : 71 b/s

  337. Count of elements : 1808

  338. Stream size : 63.1 KiB (0%)

  339. Title : SDH

  340. Language : Korean

  341. Default : No

  342. Forced : No


  343. Text #21

  344. ID : 25

  345. Format : UTF-8

  346. Codec ID : S_TEXT/UTF8

  347. Codec ID/Info : UTF-8 Plain Text

  348. Duration : 2 h 0 min

  349. Bit rate : 37 b/s

  350. Count of elements : 1060

  351. Stream size : 33.0 KiB (0%)

  352. Language : Norwegian Bokmal

  353. Default : No

  354. Forced : No


  355. Text #22

  356. ID : 26

  357. Format : UTF-8

  358. Codec ID : S_TEXT/UTF8

  359. Codec ID/Info : UTF-8 Plain Text

  360. Duration : 2 h 0 min

  361. Bit rate : 36 b/s

  362. Count of elements : 1104

  363. Stream size : 32.4 KiB (0%)

  364. Language : Polish

  365. Default : No

  366. Forced : No


  367. Text #23

  368. ID : 27

  369. Format : UTF-8

  370. Codec ID : S_TEXT/UTF8

  371. Codec ID/Info : UTF-8 Plain Text

  372. Duration : 2 h 0 min

  373. Bit rate : 39 b/s

  374. Count of elements : 1119

  375. Stream size : 35.1 KiB (0%)

  376. Title : Brazilian

  377. Language : Portuguese

  378. Default : No

  379. Forced : No


  380. Text #24

  381. ID : 28

  382. Format : UTF-8

  383. Codec ID : S_TEXT/UTF8

  384. Codec ID/Info : UTF-8 Plain Text

  385. Duration : 2 h 0 min

  386. Bit rate : 42 b/s

  387. Count of elements : 1122

  388. Stream size : 37.7 KiB (0%)

  389. Title : European

  390. Language : Portuguese

  391. Default : No

  392. Forced : No


  393. Text #25

  394. ID : 29

  395. Format : UTF-8

  396. Codec ID : S_TEXT/UTF8

  397. Codec ID/Info : UTF-8 Plain Text

  398. Duration : 2 h 0 min

  399. Bit rate : 40 b/s

  400. Count of elements : 1125

  401. Stream size : 35.3 KiB (0%)

  402. Language : Romanian

  403. Default : No

  404. Forced : No


  405. Text #26

  406. ID : 30

  407. Format : UTF-8

  408. Codec ID : S_TEXT/UTF8

  409. Codec ID/Info : UTF-8 Plain Text

  410. Duration : 2 h 0 min

  411. Bit rate : 63 b/s

  412. Count of elements : 1117

  413. Stream size : 55.9 KiB (0%)

  414. Language : Russian

  415. Default : No

  416. Forced : No


  417. Text #27

  418. ID : 31

  419. Format : UTF-8

  420. Codec ID : S_TEXT/UTF8

  421. Codec ID/Info : UTF-8 Plain Text

  422. Duration : 2 h 0 min

  423. Bit rate : 40 b/s

  424. Count of elements : 1122

  425. Stream size : 35.2 KiB (0%)

  426. Title : Castilian

  427. Language : Spanish

  428. Default : No

  429. Forced : No


  430. Text #28

  431. ID : 32

  432. Format : UTF-8

  433. Codec ID : S_TEXT/UTF8

  434. Codec ID/Info : UTF-8 Plain Text

  435. Duration : 2 h 0 min

  436. Bit rate : 40 b/s

  437. Count of elements : 1133

  438. Stream size : 35.3 KiB (0%)

  439. Title : Latin American

  440. Language : Spanish

  441. Default : No

  442. Forced : No


  443. Text #29

  444. ID : 33

  445. Format : UTF-8

  446. Codec ID : S_TEXT/UTF8

  447. Codec ID/Info : UTF-8 Plain Text

  448. Duration : 2 h 0 min

  449. Bit rate : 37 b/s

  450. Count of elements : 1074

  451. Stream size : 32.8 KiB (0%)

  452. Language : Swedish

  453. Default : No

  454. Forced : No


  455. Text #30

  456. ID : 34

  457. Format : UTF-8

  458. Codec ID : S_TEXT/UTF8

  459. Codec ID/Info : UTF-8 Plain Text

  460. Duration : 2 h 0 min

  461. Bit rate : 102 b/s

  462. Count of elements : 1137

  463. Stream size : 90.5 KiB (0%)

  464. Language : Thai

  465. Default : No

  466. Forced : No


  467. Text #31

  468. ID : 35

  469. Format : UTF-8

  470. Codec ID : S_TEXT/UTF8

  471. Codec ID/Info : UTF-8 Plain Text

  472. Duration : 2 h 0 min

  473. Bit rate : 41 b/s

  474. Count of elements : 1134

  475. Stream size : 36.3 KiB (0%)

  476. Language : Turkish

  477. Default : No

  478. Forced : No


  479. Text #32

  480. ID : 36

  481. Format : UTF-8

  482. Codec ID : S_TEXT/UTF8

  483. Codec ID/Info : UTF-8 Plain Text

  484. Duration : 2 h 0 min

  485. Bit rate : 48 b/s

  486. Count of elements : 1128

  487. Stream size : 43.0 KiB (0%)

  488. Language : Vietnamese

  489. Default : No

  490. Forced : No


  491. Text #33

  492. ID : 37

  493. ID in the original source medium : 4608 (0x1200)

  494. Format : PGS

  495. Muxing mode : zlib

  496. Codec ID : S_HDMV/PGS

  497. Codec ID/Info : Picture based subtitle format used on BDs/HD-DVDs

  498. Duration : 1 h 53 min

  499. Bit rate : 6 963 b/s

  500. Count of elements : 572

  501. Stream size : 5.66 MiB (0%)

  502. Language : English

  503. Default : No

  504. Forced : No

  505. Original source medium : Blu-ray


  506. Text #34

  507. ID : 38

  508. ID in the original source medium : 4609 (0x1201)

  509. Format : PGS

  510. Muxing mode : zlib

  511. Codec ID : S_HDMV/PGS

  512. Codec ID/Info : Picture based subtitle format used on BDs/HD-DVDs

  513. Duration : 1 h 59 min

  514. Bit rate : 44.3 kb/s

  515. Count of elements : 2874

  516. Stream size : 37.9 MiB (0%)

  517. Language : English

  518. Default : No

  519. Forced : No

  520. Original source medium : Blu-ray


  521. Menu

  522. 00:00:00.000 : en:Chapter 01

  523. 00:05:47.805 : en:Chapter 02

  524. 00:10:00.766 : en:Chapter 03

  525. 00:19:11.775 : en:Chapter 04

  526. 00:26:12.821 : en:Chapter 05

  527. 00:31:39.606 : en:Chapter 06

  528. 00:34:39.744 : en:Chapter 07

  529. 00:39:24.070 : en:Chapter 08

  530. 00:46:40.631 : en:Chapter 09

  531. 00:50:19.016 : en:Chapter 10

  532. 01:00:00.638 : en:Chapter 11

  533. 01:07:20.077 : en:Chapter 12

  534. 01:09:27.413 : en:Chapter 13

  535. 01:10:19.048 : en:Chapter 14

  536. 01:15:45.666 : en:Chapter 15

  537. 01:19:35.437 : en:Chapter 16

  538. 01:26:16.880 : en:Chapter 17

  539. 01:33:05.705 : en:Chapter 18

  540. 01:35:54.081 : en:Chapter 19

  541. 01:38:04.962 : en:Chapter 20

  542. 01:39:52.111 : en:Chapter 21

  543. 01:43:54.478 : en:Chapter 22

  544. 01:49:06.706 : en:Chapter 23

复制代码

玉子[中文字幕].Okja.2017.1080p.BluRay.REMUX.AVC.DTS HD.MA.TrueHD.7.1.Atmos FGT 35.79GB  日韩电影  第3张 玉子[中文字幕].Okja.2017.1080p.BluRay.REMUX.AVC.DTS HD.MA.TrueHD.7.1.Atmos FGT 35.79GB  日韩电影  第4张 玉子[中文字幕].Okja.2017.1080p.BluRay.REMUX.AVC.DTS HD.MA.TrueHD.7.1.Atmos FGT 35.79GB  日韩电影  第5张




文件下载


除非特别注明,本文『玉子[中文字幕].Okja.2017.1080p.BluRay.REMUX.AVC.DTS-HD.MA.TrueHD.7.1.Atmos-FGT 35.79GB』来源于互联网机器人自动抓取,非本站原创。 浮游电影网不对本文拥有版权,如有侵犯,请联系邮箱:fuyouu#yandex.com[#换成@]投诉。我们会在15个工作日内删除。 但烦请转载时请标明出处:“本文转载于『浮游电影网』,原文地址:https://www.fuyouu.com/22638.html

评论吧骚年!

发表你的见解   

昵称*

E-mail*(建议输入,以便收到博主回复的提示邮件)

验证码*

您可以使用eMule或eMule Mod(Windows)、aMule(Win、Linux、Mac)等软件下载eD2k链接。。
eMule收藏集(.emulecollection)文件是您选中的所有链接的列表文件。eMule可以直接下载它们。
按住SHIFT键选择可以选中多个选择框。
可用文件名和大小选择器来选择文件。
文件名选择器帮您根据文件名称或后缀来选择文件。不分大小写。
符号使用:
和:空格( )、+
不包含:-
或:|
转义:一对英文引号("");
匹配开头:^
匹配结尾:$
例如:
选中所有名称中包含有“eMule”或“0.49c”字眼,但不包含有“exe”字眼的:emule|0.49c -exe
选中所有名称的开头是“eMule”,结尾是“0.49c”的:^emule 0.49c$
选中所有名称中带有“eMule 0.49c”的(必须是“eMule 0.49c”,中间没有别的字符,不能是“eMule fake 0.49c”),需要转义:"emule 0.49c"
大小选择器帮您根据文件大小选择文件。