当前位置: 首页 >> 欧美电影 >> 瞬息全宇宙[中文字幕].Everything.Everywhere.All.at.Once.2022.2160p.UHD.BluRay.x265.10bit.HDR.TrueHD.7.1.Atmos- >> 正文

瞬息全宇宙[中文字幕].Everything.Everywhere.All.at.Once.2022.2160p.UHD.BluRay.x265.10bit.HDR.TrueHD.7.1.Atmos-

2022年07月07日 09:59:44     电影发布:来源于网络     电影分类:欧美电影     评论(0)    

瞬息全宇宙[中文字幕].Everything.Everywhere.All.at.Once.2022.2160p.UHD.BluRay.x265.10bit.HDR.TrueHD.7.1.Atmos-B0MBARDiERS 23.40GB

瞬息全宇宙[中文字幕].Everything.Everywhere.All.at.Once.2022.2160p.UHD.BluRay.x265.10bit.HDR.TrueHD.7.1.Atmos   欧美电影  第1张

瞬息全宇宙[中文字幕].Everything.Everywhere.All.at.Once.2022.2160p.UHD.BluRay.x265.10bit.HDR.TrueHD.7.1.Atmos   欧美电影  第2张

◎译 名 瞬息全宇宙 / 妈的多重宇宙(台) / 奇异女侠玩救宇宙(港) / 天马行空(新加坡) / 瞬息各处所有 / 全部世界同时一切

◎片 名 Everything Everywhere All at Once

◎年 代 2022

◎产 地 美国

◎类 别 喜剧 / 奇幻 / 冒险

◎语 言 英语 / 汉语普通话 / 粤语

◎上映日期 2022-03-11(西南偏南电影节) / 2022-03-25(美国)

◎IMDb链接 https://www.imdb.com/title/tt6710474/

◎豆瓣评分 7.7/10 (333610人评价)

◎豆瓣链接 https://movie.douban.com/subject/30314848/

◎片 长 139分钟

◎导 演 关家永 Dan Kwan (id:1356396)

丹尼尔·施纳特 Daniel Scheinert (id:1356397)

◎编 剧 关家永 Dan Kwan (id:1356396)

丹尼尔·施纳特 Daniel Scheinert (id:1356397)

◎演 员 杨紫琼 Michelle Yeoh (id:1022664)

许玮伦 Stephanie Hsu (id:1356993)

关继威 Jonathan Ke Quan (id:1022565)

吴汉章 James Hong (id:1031824)

杰米·李·柯蒂斯 Jamie Lee Curtis (id:1041127)

塔丽·梅德尔 Tallie Medel (id:1353816)

珍妮·斯蕾特 Jenny Slate (id:1230973)

岑勇康 Harry Shum Jr. (id:1044718)

比夫·威夫 Biff Wiff (id:1469370)

布莱恩·勒 Brian Le (id:1456759)

安迪·黎 Andy Le (id:1456768)

李静 Li Jing (id:1472047)

苏妮特·玛尼 Sunita Mani (id:1366880)

阿隆·拉扎尔 Aaron Lazar (id:1343713)

切尔西·戈德史密斯 Chelsey Goldsmith (id:1469371)

克雷格·亨宁森 Craig Henningsen (id:1229199)

安东尼·莫利纳利 Anthony Molinari (id:1045545)

丹·布朗 Dan Brown (id:1181319)

帕努瓦特·安东尼·纳纳肯帕诺姆 Panuvat Anthony Nanakornpanom (id:1309119)

卡拉·玛丽·乔尔简 Cara Marie Chooljian (id:1469372)

兰达尔·阿切尔 Randall Archer (id:1351135)

埃夫卡·科瓦拉西尤斯 Efka Kvaraciejus (id:1331229)

奥德丽·瓦西莱夫斯基 Audrey Wasilewski (id:1328955)

布恩·平考 Boon Pin Koh (id:1377199)

蒂莫西·尤里齐 Timothy Eulich (id:1356398)

丹尼尔·施纳特 Daniel Scheinert (id:1356397)

西协美智子 Michiko Nishiwaki (id:1041987)

蒂莫西·斯科特·拉尔斯顿 Timothy Scott Ralston (id:1148643)

兰迪·纽曼 Randy Newman (id:1036596)

纳拉亚纳·卡布拉尔 Narayana Cabral (id:1471986)

D.Y. Sao D.Y. Sao (id:1239718)

关家永 Dan Kwan (id:1356396)

安东尼·罗素 Anthony Russo (id:1321812)

乔·罗素 Joe Russo (id:1320870)

迈克·拉罗卡 Mike Larocca (id:1452625)

关家永 Dan Kwan (id:1356396)

丹尼尔·施纳特 Daniel Scheinert (id:1356397)

杨紫琼 Michelle Yeoh (id:1022664)

萨拉·芬兰 Sarah Finn (id:1283741)

托德·马库拉思 Todd Makurath (id:1452633)

王庆 Jonathan Wang (id:1472372)

Son Lux (id:1472333)

拉金·赛普尔 Larkin Seiple (id:1472371)

萨拉·芬兰 Sarah Finn (id:1283741)

Shirley Kurata (id:1472399)

◎简 介

55岁的美国华裔移民伊芙琳(杨紫琼 饰)家庭事业两崩溃。在老父亲生日大寿这天,除了要阻止女儿(许玮伦 饰)暴走出柜、替无用丈夫(关继威 饰)擦屁股,还得去税务局向古板大婶(杰米·李·柯蒂斯 饰)解释不太妙的税务问题。才踏进大楼电梯,软烂丈夫竟摇身一变演起黑客帝国,声称自己是另一个宇宙的版本,而秀莲也是千万宇宙里的其中一个。还来不及理解,邪恶势力已在多元宇宙中蔓延,世界即将毁灭,只有在这个宇宙里,“一无是处”的伊芙琳才能拯救世界……

  1. Video

  2. ID : 1

  3. Format : HEVC

  4. Format/Info : High Efficiency Video Coding

  5. Format profile : Main [email protected]@High

  6. HDR format : SMPTE ST 2086, HDR10 compatible

  7. Codec ID : V_MPEGH/ISO/HEVC

  8. Duration : 2 h 19 min

  9. Bit rate : 19.2 Mb/s

  10. Width : 3 840 pixels

  11. Height : 2 076 pixels

  12. Display aspect ratio : 1.85:1

  13. Frame rate mode : Constant

  14. Frame rate : 23.976 (24000/1001/53354) FPS

  15. Color space : YUV

  16. Chroma subsampling : 4:2:0 (Type 2)

  17. Bit depth : 10 bits

  18. Bits/(Pixel*Frame) : 0.100

  19. Stream size : 18.7 GiB (80%)

  20. Writing library : x265 3.5+36-9b59d4554:[Windows][GCC 11.2.0][64 bit] 10bit

  21. Encoding settings : cpuid=533541176575 / frame-threads=6 / numa-pools=36 / wpp / no-pmode / no-pme / no-psnr / no-ssim / log-level=2 / input-csp=1 / input-res=3840x2076 / interlace=0 / total-frames=200424 / level-idc=51 / high-tier=1 / uhd-bd=0 / ref=4 / no-allow-non-conformance / repeat-headers / annexb / aud / no-eob / no-eos / hrd / info / hash=0 / no-temporal-layers / open-gop / min-keyint=23 / keyint=250 / gop-lookahead=0 / bframes=4 / b-adapt=2 / b-pyramid / bframe-bias=0 / rc-lookahead=25 / lookahead-slices=4 / NTMzNTQ=uuDQuD2mJt9fsCf / scenecut=40 / no-hist-scenecut / radl=0 / no-splice / no-intra-refresh / ctu=64 / min-cu-size=8 / rect / no-amp / max-tu-size=32 / tu-inter-depth=1 / tu-intra-depth=1 / limit-tu=0 / rdoq-level=2 / dynamic-rd=0.00 / no-ssim-rd / signhide / no-tskip / nr-intra=0 / nr-inter=0 / no-constrained-intra / strong-intra-smoothing / max-merge=3 / limit-refs=3 / limit-modes / me=3 / subme=3 / merange=57 / temporal-mvp / no-frame-dup / no-hme / weightp / no-weightb / no-analyze-src-pics / deblock=-3:-3 / no-sao / no-sao-non-deblock / rd=4 / selective-sao=0 / no-early-skip / rskip / no-fast-intra / no-tskip-fast / no-cu-lossless / no-b-intra / no-splitrd-skip / rdpenalty=0 / psy-rd=2.00 / psy-rdoq=1.00 / no-rd-refine / no-lossless / cbqpoffs=0 / crqpoffs=0 / rc=crf / crf=14.0 / qcomp=0.60 / qpstep=4 / stats-write=0 / stats-read=0 / vbv-maxrate=160000 / vbv-bufsize=160000 / vbv-init=0.9 / min-vbv-fullness=50.0 / max-vbv-fullness=80.0 / crf-max=0.0 / crf-min=0.0 / ipratio=1.40 / pbratio=1.30 / aq-mode=2 / aq-strength=1.00 / cutree / zone-count=0 / no-strict-cbr / qg-size=32 / no-rc-grain / qpmax=69 / qpmin=0 / no-const-vbv / sar=1 / overscan=0 / videoformat=5 / range=0 / colorprim=9 / transfer=16 / colormatrix=9 / chromaloc=1 / chromaloc-top=2 / chromaloc-bottom=2 / display-window=0 / master-display=G(8500,39850)B(6550,2300)R(35400,14600)WP(15635,16450)L(10000000,1) / cll=1000,206 / min-luma=0 / max-luma=1023 / log2-max-poc-lsb=8 / vui-timing-info / vui-hrd-info / slices=1 / no-opt-qp-pps / no-opt-ref-list-length-pps / no-multi-pass-opt-rps / scenecut-bias=0.05 / hist-threshold=0.03 / no-opt-cu-delta-qp / no-aq-motion / hdr10 / hdr10-opt / no-dhdr10-opt / no-idr-recovery-sei / analysis-reuse-level=0 / analysis-save-reuse-level=0 / analysis-load-reuse-level=0 / scale-factor=0 / refine-intra=0 / refine-inter=0 / refine-mv=1 / refine-ctu-distortion=0 / no-limit-sao / ctu-info=0 / no-lowpass-dct / refine-analysis-type=0 / copy-pic=1 / max-ausize-factor=1.0 / no-dynamic-refine / no-single-sei / no-hevc-aq / no-svt / no-field / qp-adaptation-range=1.00 / scenecut-aware-qp=0conformance-window-offsets / right=0 / bottom=0 / NTMzNTQ= / decoder-max-rate=0 / no-vbv-live-multi-pass

  22. Default : Yes

  23. Forced : No

  24. Color range : Limited

  25. Color primaries : BT.2020

  26. Transfer characteristics : PQ

  27. Matrix coefficients : BT.2020 non-constant

  28. Mastering display color primaries : BT.2020

  29. Mastering display luminance : min: 0.0001 cd/m2, max: 1000 cd/m2

  30. Maximum Content Light Level : 1000 cd/m2

  31. Maximum Frame-Average Light Level : 206 cd/m2


  32. Audio #1

  33. ID : 2

  34. Format : MLP FBA 16-ch

  35. Format/Info : Meridian Lossless Packing FBA with 16-channel presentation

  36. Commercial name : Dolby TrueHD with Dolby Atmos

  37. Codec ID : A_TRUEHD

  38. Duration : 2 h 19 min

  39. Bit rate mode : Variable

  40. Bit rate : 4 006 kb/s

  41. Maximum bit rate : 6 843 kb/s

  42. Channel(s) : 8 channels

  43. Channel layout : L R C LFE Ls Rs Lb Rb

  44. Sampling rate : 48.0 kHz

  45. Frame rate : 1 200.000 FPS (40 SPF)

  46. Compression mode : Lossless

  47. Stream size : 3.90 GiB (17%)

  48. Language : English

  49. Default : Yes

  50. Forced : No

  51. Number of dynamic objects : 11

  52. Bed channel count : 1 channel

  53. Bed channel configuration : LFE


  54. Audio #2

  55. ID : 3

  56. Format : AC-3

  57. Format/Info : Audio Coding 3

  58. Commercial name : Dolby Digital

  59. Codec ID : A_AC3

  60. Duration : 2 h 19 min

  61. Bit rate mode : Constant

  62. Bit rate : 640 kb/s

  63. Channel(s) : 6 channels

  64. Channel layout : L R C LFE Ls Rs

  65. Sampling rate : 48.0 kHz

  66. Frame rate : 31.250 FPS (1536 SPF)

  67. Compression mode : Lossy

  68. Stream size : 638 MiB (3%)

  69. Language : English

  70. Service kind : Complete Main

  71. Default : Yes

  72. Forced : No


  73. Audio #3

  74. ID : 4

  75. Format : AAC LC

  76. Format/Info : Advanced Audio Codec Low Complexity

  77. Codec ID : A_AAC-2

  78. Duration : 2 h 19 min

  79. Bit rate : 98.6 kb/s

  80. Channel(s) : 2 channels

  81. Channel layout : L R

  82. Sampling rate : 48.0 kHz

  83. Frame rate : 46.875 FPS (1024 SPF)

  84. Compression mode : Lossy

  85. Delay relative to video : 9 ms

  86. Stream size : 98.2 MiB (0%)

  87. Title : Commentary

  88. Language : English

  89. Default : No

  90. Forced : No


  91. Text #1

  92. ID : 5

  93. Format : PGS

  94. Muxing mode : zlib

  95. Codec ID : S_HDMV/PGS

  96. Codec ID/Info : Picture based subtitle format used on BDs/HD-DVDs

  97. Duration : 2 h 15 min

  98. Bit rate : 39.2 kb/s

  99. Count of elements : 4244

  100. Stream size : 38.0 MiB (0%)

  101. Title : English SDH

  102. Language : English

  103. Default : No

  104. Forced : No


  105. Text #2

  106. ID : 6

  107. Format : PGS

  108. Muxing mode : zlib

  109. Codec ID : S_HDMV/PGS

  110. Codec ID/Info : Picture based subtitle format used on BDs/HD-DVDs

  111. Duration : 2 h 17 min

  112. Bit rate : 31.0 kb/s

  113. Count of elements : 3428

  114. Stream size : 30.5 MiB (0%)

  115. Title : Spanish

  116. Language : Spanish

  117. Default : No

  118. Forced : No


  119. Text #3

  120. ID : 7

  121. Format : PGS

  122. Muxing mode : zlib

  123. Codec ID : S_HDMV/PGS

  124. Codec ID/Info : Picture based subtitle format used on BDs/HD-DVDs

  125. Duration : 2 h 17 min

  126. Bit rate : 27.5 kb/s

  127. Count of elements : 3446

  128. Stream size : 27.1 MiB (0%)

  129. Title : Chinese

  130. Language : Chinese

  131. Default : No

  132. Forced : No


  133. Menu

  134. 00:00:00.000 : en:Chapter 01

  135. 00:07:05.050 : en:Chapter 02

  136. 00:11:45.705 : en:Chapter 03

  137. 00:24:55.327 : en:Chapter 04

  138. 00:32:52.262 : en:Chapter 05

  139. 00:42:08.109 : en:Chapter 06

  140. 00:52:26.602 : en:Chapter 07

  141. 01:01:51.625 : en:Chapter 08

  142. 01:10:27.974 : en:Chapter 09

  143. 01:17:09.041 : en:Chapter 10

  144. 01:25:09.104 : en:Chapter 11

  145. 01:31:54.509 : en:Chapter 12

  146. 01:39:50.818 : en:Chapter 13

  147. 01:51:25.679 : en:Chapter 14

  148. 01:59:09.142 : en:Chapter 15

  149. 02:10:08.467 : en:Chapter 16

  150. 02:19:19.101 : en:Chapter 17

复制代码

瞬息全宇宙[中文字幕].Everything.Everywhere.All.at.Once.2022.2160p.UHD.BluRay.x265.10bit.HDR.TrueHD.7.1.Atmos   欧美电影  第3张 瞬息全宇宙[中文字幕].Everything.Everywhere.All.at.Once.2022.2160p.UHD.BluRay.x265.10bit.HDR.TrueHD.7.1.Atmos   欧美电影  第4张 瞬息全宇宙[中文字幕].Everything.Everywhere.All.at.Once.2022.2160p.UHD.BluRay.x265.10bit.HDR.TrueHD.7.1.Atmos   欧美电影  第5张



文件下载


除非特别注明,本文『瞬息全宇宙[中文字幕].Everything.Everywhere.All.at.Once.2022.2160p.UHD.BluRay.x265.10bit.HDR.TrueHD.7.1.Atmos-』来源于互联网机器人自动抓取,非本站原创。 浮游电影网不对本文拥有版权,如有侵犯,请联系邮箱:fuyouu#yandex.com[#换成@]投诉。我们会在15个工作日内删除。 但烦请转载时请标明出处:“本文转载于『浮游电影网』,原文地址:https://www.fuyouu.com/22636.html

评论吧骚年!

发表你的见解   

昵称*

E-mail*(建议输入,以便收到博主回复的提示邮件)

验证码*

您可以使用eMule或eMule Mod(Windows)、aMule(Win、Linux、Mac)等软件下载eD2k链接。。
eMule收藏集(.emulecollection)文件是您选中的所有链接的列表文件。eMule可以直接下载它们。
按住SHIFT键选择可以选中多个选择框。
可用文件名和大小选择器来选择文件。
文件名选择器帮您根据文件名称或后缀来选择文件。不分大小写。
符号使用:
和:空格( )、+
不包含:-
或:|
转义:一对英文引号("");
匹配开头:^
匹配结尾:$
例如:
选中所有名称中包含有“eMule”或“0.49c”字眼,但不包含有“exe”字眼的:emule|0.49c -exe
选中所有名称的开头是“eMule”,结尾是“0.49c”的:^emule 0.49c$
选中所有名称中带有“eMule 0.49c”的(必须是“eMule 0.49c”,中间没有别的字符,不能是“eMule fake 0.49c”),需要转义:"emule 0.49c"
大小选择器帮您根据文件大小选择文件。