当前位置: 首页 >> 国产电影 >> 加油!田大志[国语配音/中文字幕].Come.on.Tian.Da.Zhi.2022.2160p.WEB-DL.H265.AAC-CHDBits 1.23GB >> 正文

加油!田大志[国语配音/中文字幕].Come.on.Tian.Da.Zhi.2022.2160p.WEB-DL.H265.AAC-CHDBits 1.23GB

2022年07月05日 22:30:53     电影发布:来源于网络     电影分类:国产电影     评论(0)    

◎标 题 加油!田大志

◎译 名 Come on Tian Da Zhi

◎年 代 2022

◎产 地 中国大陆

◎类 别 喜剧

◎语 言 汉语普通话

◎上映日期 2022-06-30(中国大陆网络)

◎IMDb链接 https://www.imdb.com/title//

◎豆瓣链接 https://movie.douban.com/subject/35943631/

◎片 长 63分钟

◎导 演 孟令宇 Lingyu Meng

◎演 员 田娃 Wa Tian

蒋依杉 Yishan Jiang

文松 Song Wen

宋晓峰 Xiaofeng Song

杜玉明 Yuming Du

关婷娜 Tingna Guan

蔡维利 Weili Cai

◎简 介

田大志是一家设计公司的普通员工,土木工程专业毕业的他却做着公司最底层的活:送水、修水电、修空调……还经常受到同事的排挤。有一天,他因意外受到刚上任的美女老板的赏识,被调到设计部,频频被美女老板关照。正当他以为会和美女老板开始一段情缘的时候,却发现美女老板欺骗了他……

  1. ##### MediaInfo ######

  2. General

  3. Complete name : 加油!田大志.Come.on.Tian.Da.Zhi.2022.2160p.WEB-DL.H265.AAC-CHDBits.mp4

  4. Format : MPEG-4

  5. Format profile : Base Media

  6. Codec ID : isom (isom/iso2/mp41)

  7. File size : 1.23 GiB

  8. Duration : 1 h 3 min

  9. Overall bit rate mode : Variable

  10. Overall bit rate : 2 757 kb/s

  11. Writing application : Lavf58.17.103

  12. Video

  13. ID : 1

  14. Format : HEVC

  15. Format/Info : High Efficiency Video Coding

  16. Format profile : [email protected]@Main

  17. Codec ID : hev1

  18. Codec ID/Info : High Efficiency Video Coding

  19. Duration : 1 h 3 min

  20. Bit rate : 2 624 kb/s

  21. Width : 3 840 pixels

  22. Height : 1 636 pixels

  23. Display aspect ratio : 2.35:1

  24. Frame rate mode : Variable

  25. Frame rate : 24.000 FPS

  26. Minimum frame rate : 23.994 FPS

  27. Maximum frame rate : 24.006 FPS

  28. Color space : YUV

  29. Chroma subsampling : 4:2:0

  30. Bit depth : 8 bits

  31. Bits/(Pixel*Frame) : 0.017

  32. Stream size : 1.17 GiB (95%)

  33. Color range : Limited

  34. Color primaries : BT.709

  35. Transfer characteristics : BT.709

  36. Matrix coefficients : BT.709

  37. Codec configuration box : hvcC

  38. Audio

  39. ID : 2

  40. Format : AAC LC

  41. Format/Info : Advanced Audio Codec Low Complexity

  42. Codec ID : mp4a-40-2

  43. Duration : 1 h 3 min

  44. Bit rate mode : Variable

  45. Bit rate : 125 kb/s

  46. Maximum bit rate : 129 kb/s

  47. Channel(s) : 2 channels

  48. Channel layout : L R

  49. Sampling rate : 48.0 kHz

  50. Frame rate : 46.875 FPS (1024 SPF)

  51. Compression mode : Lossy

  52. Stream size : 57.1 MiB (5%)

  53. Default : Yes

  54. Alternate group : 1


复制代码



文件下载


除非特别注明,本文『加油!田大志[国语配音/中文字幕].Come.on.Tian.Da.Zhi.2022.2160p.WEB-DL.H265.AAC-CHDBits 1.23GB』来源于互联网机器人自动抓取,非本站原创。 浮游电影网不对本文拥有版权,如有侵犯,请联系邮箱:fuyouu#yandex.com[#换成@]投诉。我们会在15个工作日内删除。 但烦请转载时请标明出处:“本文转载于『浮游电影网』,原文地址:https://www.fuyouu.com/22630.html

评论吧骚年!

发表你的见解   

昵称*

E-mail*(建议输入,以便收到博主回复的提示邮件)

验证码*

您可以使用eMule或eMule Mod(Windows)、aMule(Win、Linux、Mac)等软件下载eD2k链接。。
eMule收藏集(.emulecollection)文件是您选中的所有链接的列表文件。eMule可以直接下载它们。
按住SHIFT键选择可以选中多个选择框。
可用文件名和大小选择器来选择文件。
文件名选择器帮您根据文件名称或后缀来选择文件。不分大小写。
符号使用:
和:空格( )、+
不包含:-
或:|
转义:一对英文引号("");
匹配开头:^
匹配结尾:$
例如:
选中所有名称中包含有“eMule”或“0.49c”字眼,但不包含有“exe”字眼的:emule|0.49c -exe
选中所有名称的开头是“eMule”,结尾是“0.49c”的:^emule 0.49c$
选中所有名称中带有“eMule 0.49c”的(必须是“eMule 0.49c”,中间没有别的字符,不能是“eMule fake 0.49c”),需要转义:"emule 0.49c"
大小选择器帮您根据文件大小选择文件。