当前位置: 首页 >> 国产电影 >> 大笑江湖[国粤多音轨/繁英字幕].Just.Call.Me.Nobody.2010.BluRay.1080p.x265.10bit.2Audio-MiniHD 5.90GB >> 正文

大笑江湖[国粤多音轨/繁英字幕].Just.Call.Me.Nobody.2010.BluRay.1080p.x265.10bit.2Audio-MiniHD 5.90GB

2022年07月05日 19:09:22     电影发布:来源于网络     电影分类:国产电影     评论(0)    

◎标 题 大笑江湖

◎译 名 Just Call Me Nobody

◎年 代 2010

◎产 地 中国大陆 / 中国台湾

◎类 别 动作 / 爱情 / 武侠 / 古装

◎语 言 汉语普通话

◎上映日期 2010-12-03(中国大陆) / 2011-01-21(中国台湾)

◎IMDb评分 4/10 (326人评价)

◎IMDb链接 https://www.imdb.com/title/tt1825731/

◎豆瓣评分 4.7/10 (87400人评价)

◎豆瓣链接 https://movie.douban.com/subject/4323732/

◎片 长 93分钟

◎导 演 朱延平 Yen-Ping Chu

◎编 剧 宁财神 Caishen Ning

◎演 员 小沈阳 Xiao Shen-Yang

林熙蕾 Kelly Lin

赵本山 Benshan Zhao

程野 Ye Cheng

陈志朋 Julian Chen

徐少强 Norman Chu

吴宗宪 Jacky Wu

曾志伟 Eric Tsang

梁家仁 Ka-Yan Leung

恬妞 Niu Tien

毕畅 Chang Bi

翟星月 Xingyue Zhai

小小彬 Xiao Xiao Bin

黄一飞 Yut Fei Wong

李国煌 Mark Lee

侯桐江 Tongjiang Hou

刘晓光 Kiefer Liu

宝迪 Bodi

高子沣 Zifeng Gao

王碧琪 Biqi Wang

白志迪 Zhidi Bai

郝汉 Han Hao

朱延平 Yen-Ping Chu

何国杰 Ricky Ho

杜杰 Jie Du

陈博文 Bo-Wen Chen

刘敏雄 Man Hung Lau

程小东 Siu-Tung Ching

◎简 介

吴迪(小沈阳 饰)以修鞋为生,最大乐趣就是看武侠漫画《飞剑》。某日,他遇到了修鞋女子月露(林熙蕾 饰),后者是皇上(陈志朋 饰)的表妹,因不愿做皇后,逃之夭夭。皇上派遣大内高手杨过(曾志伟 饰)追杀。吴迪盲打误撞杀了淫贼田扒光,救了月露。为了把鞋还给月露,吴迪前往泰山。途中,吴迪遭遇河盗独孤鸿(赵本山 饰)及其弟子(程野 饰),在世外高人的暗中帮助下,他击退了独孤鸿。老人临别时输给他深厚内力,赠给他一本《九阴真经》,由于他只看图,随手丢在一边。田扒光的神农教同门姐妹粉凤凰和红凤凰找他算账,结果他毫发无损,对方损兵折将。逃避追杀时,他掉进了万丈深渊,却遇到了世外高人的敌人(吴宗宪 饰),好在有惊无险。不过,最终吴迪还是住进了神农教主(恬妞 饰)开的黑店,并遇到了心上人月露……

  1. ##### MediaInfo ######

  2. General

  3. Unique ID : 208074576327258943570504226412860152429 (0x9C89B4AA28F5C3ADD568795E9EEE1A6D)

  4. Complete name : Just.Call.Me.Nobody.2010.BluRay.1080p.x265.10bit.2Audio-MiniHD.mkv

  5. Format : Matroska

  6. Format version : Version 4

  7. File size : 5.89 GiB

  8. Duration : 1 h 38 min

  9. Overall bit rate : 8 551 kb/s

  10. Encoded date : UTC 2018-12-01 15:42:05

  11. Writing application : mkvmerge v20.0.0 ('I Am The Sun') 64-bit

  12. Writing library : libebml v1.3.5 + libmatroska v1.4.8

  13. Video

  14. ID : 1

  15. Format : HEVC

  16. Format/Info : High Efficiency Video Coding

  17. Format profile : Main [email protected]@Main

  18. Codec ID : V_MPEGH/ISO/HEVC

  19. Duration : 1 h 38 min

  20. Bit rate : 7 293 kb/s

  21. Width : 1 920 pixels

  22. Height : 816 pixels

  23. Display aspect ratio : 2.35:1

  24. Frame rate mode : Constant

  25. Frame rate : 24.000 FPS

  26. Color space : YUV

  27. Chroma subsampling : 4:2:0

  28. Bit depth : 10 bits

  29. Bits/(Pixel*Frame) : 0.194

  30. Stream size : 5.03 GiB (85%)

  31. Writing library : x265 2.8+1-478bfe2b7673:[Windows][GCC 7.3.0][64 bit] 10bit

  32. Encoding settings : cpuid=533541111039 / frame-threads=4 / numa-pools=16 / wpp / no-pmode / no-pme / no-psnr / no-ssim / log-level=2 / csv / csv-log-level=0 / input-csp=1 / input-res=1920x816 / interlace=0 / total-frames=142108 / level-idc=0 / high-tier=1 / uhd-bd=0 / ref=5 / no-allow-non-conformance / no-repeat-headers / annexb / no-aud / no-hrd / info / hash=0 / no-temporal-layers / no-open-gop / min-keyint=1 / keyint=360 / gop-lookahead=0 / bframes=9 / b-adapt=2 / b-pyramid / bframe-bias=0 / rc-lookahead=60 / lookahead-slices=4 / NTMzNTQ=uuDQuD2mJt9fsCf / scenecut=40 / radl=0 / no-intra-refresh / ctu=32 / min-cu-size=8 / rect / no-amp / max-tu-size=16 / tu-inter-depth=2 / tu-intra-depth=2 / limit-tu=4 / rdoq-level=1 / dynamic-rd=0.00 / ssim-rd / signhide / no-tskip / nr-intra=0 / nr-inter=0 / no-constrained-intra / no-strong-intra-smoothing / max-merge=3 / limit-refs=2 / limit-modes / me=3 / subme=5 / merange=25 / temporal-mvp / weightp / weightb / no-analyze-src-pics / deblock=-1:-1 / no-sao / no-sao-non-deblock / rd=4 / no-early-skip / rskip / no-fast-intra / no-tskip-fast / no-cu-lossless / b-intra / no-splitrd-skip / rdpenalty=1 / psy-rd=0.00 / psy-rdoq=5.00 / no-rd-refine / no-lossless / cbqpoffs=-2 / crqpoffs=-2 / rc=crf / crf=21.0 / qcomp=0.70 / qpstep=4 / stats-write=0 / stats-read=0 / ipratio=1.40 / pbratio=1.30 / aq-mode=1 / aq-strength=0.80 / cutree / zone-count=0 / no-strict-cbr / qg-size=16 / no-rc-grain / qpmax=69 / qpmin=0 / no-const-vbv / sar=0 / overscan=0 / videoformat=5 / range=0 / colorprim=1 / transfer=2 / colormatrix=2 / chromaloc=0 / display-window=0 / max-cll=0,0 / min-luma=0 / max-luma=1023 / log2-max-poc-lsb=8 / vui-timing-info / vui-hrd-info / slices=1 / no-opt-qp-pps / no-opt-ref-list-length-pps / no-multi-pass-opt-rps / scenecut-bias=0.05 / no-opt-cu-delta-qp / no-aq-motion / no-hdr / no-hdr-opt / no-dhdr10-opt / no-idr-recovery-sei / analysis-reuse-level=5 / scale-factor=0 / refine-intra=0 / refine-inter=0 / refine-mv=0 / no-limit-sao / ctu-info=0 / no-lowpass-dct / refine-mv-type=0 / copy-pic=1 / max-ausize-factor=1.0 / no-dynamic-refine / no-single-sei

  33. Language : Chinese

  34. Default : Yes

  35. Forced : No

  36. Color range : Limited

  37. Color primaries : BT.709

  38. Audio #1

  39. ID : 2

  40. Format : AC-3

  41. Format/Info : Audio Coding 3

  42. Commercial name : Dolby Digital

  43. Codec ID : A_AC3

  44. Duration : 1 h 38 min

  45. Bit rate mode : Constant

  46. Bit rate : 448 kb/s

  47. Channel(s) : 2 channels

  48. Channel layout : L R

  49. Sampling rate : 48.0 kHz

  50. Frame rate : 31.250 FPS (1536 SPF)

  51. Compression mode : Lossy

  52. Stream size : 316 MiB (5%)

  53. Title : 粤语

  54. Language : Chinese

  55. Service kind : Complete Main

  56. Default : Yes

  57. Forced : No

  58. Audio #2

  59. ID : 3

  60. Format : AC-3

  61. Format/Info : Audio Coding 3

  62. Commercial name : Dolby Digital

  63. Codec ID : A_AC3

  64. Duration : 1 h 38 min

  65. Bit rate mode : Constant

  66. Bit rate : 640 kb/s

  67. Channel(s) : 6 channels

  68. Channel layout : L R C LFE Ls Rs

  69. Sampling rate : 48.0 kHz

  70. Frame rate : 31.250 FPS (1536 SPF)

  71. Compression mode : Lossy

  72. Stream size : 452 MiB (7%)

  73. Title : 国语

  74. Language : Chinese

  75. Service kind : Complete Main

  76. Default : No

  77. Forced : No

  78. Text #1

  79. ID : 4

  80. Format : PGS

  81. Muxing mode : zlib

  82. Codec ID : S_HDMV/PGS

  83. Codec ID/Info : Picture based subtitle format used on BDs/HD-DVDs

  84. Title : 繁体

  85. Language : Chinese

  86. Default : Yes

  87. Forced : No

  88. Text #2

  89. ID : 5

  90. Format : PGS

  91. Muxing mode : zlib

  92. Codec ID : S_HDMV/PGS

  93. Codec ID/Info : Picture based subtitle format used on BDs/HD-DVDs

  94. Title : 英文

  95. Language : English

  96. Default : No

  97. Forced : No

  98. Menu

  99. 00:00:00.000 : en:Chapter 01

  100. 00:07:29.166 : en:Chapter 02

  101. 00:15:33.500 : en:Chapter 03

  102. 00:21:35.208 : en:Chapter 04

  103. 00:33:58.833 : en:Chapter 05

  104. 00:42:35.666 : en:Chapter 06

  105. 00:49:45.333 : en:Chapter 07

  106. 00:56:26.166 : en:Chapter 08

  107. 01:05:58.833 : en:Chapter 09

  108. 01:12:48.500 : en:Chapter 10

  109. 01:21:13.333 : en:Chapter 11

  110. 01:29:20.208 : en:Chapter 12


复制代码



文件下载


除非特别注明,本文『大笑江湖[国粤多音轨/繁英字幕].Just.Call.Me.Nobody.2010.BluRay.1080p.x265.10bit.2Audio-MiniHD 5.90GB』来源于互联网机器人自动抓取,非本站原创。 浮游电影网不对本文拥有版权,如有侵犯,请联系邮箱:fuyouu#yandex.com[#换成@]投诉。我们会在15个工作日内删除。 但烦请转载时请标明出处:“本文转载于『浮游电影网』,原文地址:https://www.fuyouu.com/22626.html

评论吧骚年!

发表你的见解   

昵称*

E-mail*(建议输入,以便收到博主回复的提示邮件)

验证码*

您可以使用eMule或eMule Mod(Windows)、aMule(Win、Linux、Mac)等软件下载eD2k链接。。
eMule收藏集(.emulecollection)文件是您选中的所有链接的列表文件。eMule可以直接下载它们。
按住SHIFT键选择可以选中多个选择框。
可用文件名和大小选择器来选择文件。
文件名选择器帮您根据文件名称或后缀来选择文件。不分大小写。
符号使用:
和:空格( )、+
不包含:-
或:|
转义:一对英文引号("");
匹配开头:^
匹配结尾:$
例如:
选中所有名称中包含有“eMule”或“0.49c”字眼,但不包含有“exe”字眼的:emule|0.49c -exe
选中所有名称的开头是“eMule”,结尾是“0.49c”的:^emule 0.49c$
选中所有名称中带有“eMule 0.49c”的(必须是“eMule 0.49c”,中间没有别的字符,不能是“eMule fake 0.49c”),需要转义:"emule 0.49c"
大小选择器帮您根据文件大小选择文件。