当前位置: 首页 >> 港台电影 >> 地下情[国语音轨/中文字幕].Love.Unto.Waste.1986.1080p.BluRay.x264-YAMG 11.87GB >> 正文

地下情[国语音轨/中文字幕].Love.Unto.Waste.1986.1080p.BluRay.x264-YAMG 11.87GB

2022年07月04日 19:43:57     电影发布:来源于网络     电影分类:港台电影     评论(0)    

地下情[国语音轨/中文字幕].Love.Unto.Waste.1986.1080p.BluRay.x264 YAMG 11.87GB  港台电影  第1张

地下情[国语音轨/中文字幕].Love.Unto.Waste.1986.1080p.BluRay.x264 YAMG 11.87GB  港台电影  第2张

◎译 名 地下情 / Love Unto Waste

◎年 代 1986

◎产 地 中国香港

◎类 别 剧情

◎语 言 粤语 / 汉语普通话

◎上映日期 1986-08-30

◎IMDb链接 https://www.imdb.com/title/tt0090922/

◎豆瓣评分 7.5/10 (6745人评价)

◎豆瓣链接 https://movie.douban.com/subject/1298272/

◎片 长 96 分钟

◎导 演 关锦鹏 Stanley Kwan (id:1028510)

◎编 剧 邱刚健 Kang Chien Chiu (id:1280690)

黎杰 Kit Lai (id:1289262)

◎演 员 周润发 Yun-Fat Chow (id:1044899)

金燕玲 Elaine Jin (id:1280673)

蔡琴 Chin Tsai (id:1074903)

梁朝伟 Tony Leung Chiu Wai (id:1115918)

温碧霞 Irene Wan (id:1023681)

周秀兰 Elaine Chow Sau-Laan (id:1322380)

梁李少霞 Vicky Leung Lee (id:1429076)

谢家慧 Doris Tse (id:1388882)

陈炳林 Bing-Lam Chan (id:1280424)

林敏怡 Man Yee Lam (id:1289301)

张叔平 William Chang (id:1274369)

张永雄 Paul Cheung (id:1402485)

周惠坤 Thomas Chow (id:1330717)

◎简 介

香港少女阮贝儿(温碧霞)和来自台湾的廖玉屏(金燕玲)、赵淑珍(蔡琴)皆以成名为人生目的,但现实证明她们离当明星的生活仍有一段不短的距离。三人在酒廊偶识米铺少爷张树东(梁朝伟),不久阮贝儿与其发展成同居关系。

赵淑珍不明原因的死亡引来警探蓝振强(周润发),但他的所谓调查徒 具形式。廖玉屏无法安然面对赵淑珍的离去,悲痛引来张树东对其肉体的安抚,不料不小心致其怀孕。其后廖玉屏的震惊没能让张树东在取舍问题上有眉目,彼此发现所谓爱人只是爱己。而蓝振强临死前的一段话更让他们将自己看清(同他人发生关系是觉得多个人的无聊总好过一个人),可是他们依旧没有独自面对没有希望的日子的勇气。

◎获奖情况 (共9项)

第6届香港电影金像奖 (1987)

最佳电影(提名)

最佳导演(提名)

└──关锦鹏 (id:1028510)

最佳编剧

最佳男主角(提名)

└──梁朝伟 (id:1115918)

最佳男配角(提名)

└──周润发 (id:1044899)

最佳女配角

└──金燕玲 (id:1280673)

最佳女配角(提名)

└──蔡琴 (id:1074903)

最佳原创电影音乐(提名)

└──林敏怡 (id:1289301)

最佳原创电影歌曲(提名)

  1. Video

  2. ID : 1

  3. Format : AVC

  4. Format/Info : Advanced Video Codec

  5. Format profile : [email protected]

  6. Format settings : CABAC / 4 Ref Frames

  7. Format settings, CABAC : Yes

  8. Format settings, Reference frames : 4 frames

  9. Codec ID : V_MPEG4/ISO/AVC

  10. Duration : 1 h 37 min

  11. Bit rate : 10.9 Mb/s

  12. Width : 1 920 pixels

  13. Height : 1 036 pixels

  14. Display aspect ratio : 1.85:1

  15. Frame rate mode : Constant

  16. Frame rate : 24.000 FPS

  17. Color space : YUV

  18. Chroma subsampling : 4:2:0

  19. Bit depth : 8 bits

  20. Scan type : Progressive

  21. Bits/(Pixel*Frame) : 0.228

  22. Stream size : 7.45 GiB (63%)

  23. Writing library : x264 core 164 r3095 baee400

  24. Encoding settings : cabac=1 / ref=4 / deblock=1:-3:-3 / analyse=0x3:0x133 / me=umh / subme=10 / psy=1 / psy_rd=1.00:0.00 / mixed_ref=1 / me_range=32 / chroma_me=1 / trellis=2 / 8x8dct=1 / cqm=0 / deadzone=21,11 / fast_pskip=0 / chroma_qp_offset=-2 / threads=24 / lookahead_threads=4 / sliced_threads=0 / nr=0 / decimate=0 / interlaced=0 / NTMzNTQ= / bluray_compat=0 / constrained_intra=0 / bframes=8 / b_pyramid=2 / b_adapt=2 / b_bias=0 / direct=3 / weightb=1 / open_gop=0 / weightp=2 / keyint=250 / keyint_min=24 / NTMzNTQ=uuDQuD2mJt9fsCf / scenecut=40 / intra_refresh=0 / rc=crf / mbtree=0 / crf=18.0 / qcomp=0.60 / qpmin=0 / qpmax=69 / qpstep=4 / NTMzNTQ=LmsMAP37EqsCpk / ip_ratio=1.40 / pb_ratio=1.30 / aq=3:0.60

  25. Language : English

  26. Default : Yes

  27. Forced : No

  28. Color range : Limited

  29. Matrix coefficients : BT.709


  30. Audio #1

  31. ID : 2

  32. Format : MLP FBA

  33. Format/Info : Meridian Lossless Packing FBA

  34. Commercial name : Dolby TrueHD

  35. Codec ID : A_TRUEHD

  36. Duration : 1 h 37 min

  37. Bit rate mode : Variable

  38. Bit rate : 2 499 kb/s

  39. Maximum bit rate : 3 840 kb/s

  40. Channel(s) : 6 channels

  41. Channel layout : L R C LFE Ls Rs

  42. Sampling rate : 96.0 kHz

  43. Frame rate : 1 200.000 FPS (80 SPF)

  44. Compression mode : Lossless

  45. Stream size : 1.71 GiB (14%)

  46. Title : Cantonese

  47. Language : Chinese

  48. Default : Yes

  49. Forced : No


  50. Audio #2

  51. ID : 3

  52. Format : AC-3

  53. Format/Info : Audio Coding 3

  54. Commercial name : Dolby Digital

  55. Codec ID : A_AC3

  56. Duration : 1 h 37 min

  57. Bit rate mode : Constant

  58. Bit rate : 640 kb/s

  59. Channel(s) : 6 channels

  60. Channel layout : L R C LFE Ls Rs

  61. Sampling rate : 48.0 kHz

  62. Frame rate : 31.250 FPS (1536 SPF)

  63. Compression mode : Lossy

  64. Stream size : 448 MiB (4%)

  65. Title : Cantonese

  66. Language : Chinese

  67. Service kind : Complete Main

  68. Default : No

  69. Forced : No


  70. Audio #3

  71. ID : 4

  72. Format : MLP FBA

  73. Format/Info : Meridian Lossless Packing FBA

  74. Commercial name : Dolby TrueHD

  75. Codec ID : A_TRUEHD

  76. Duration : 1 h 37 min

  77. Bit rate mode : Variable

  78. Bit rate : 2 513 kb/s

  79. Maximum bit rate : 3 822 kb/s

  80. Channel(s) : 6 channels

  81. Channel layout : L R C LFE Ls Rs

  82. Sampling rate : 96.0 kHz

  83. Frame rate : 1 200.000 FPS (80 SPF)

  84. Compression mode : Lossless

  85. Stream size : 1.72 GiB (14%)

  86. Title : Mandarin

  87. Language : Chinese

  88. Default : No

  89. Forced : No


  90. Audio #4

  91. ID : 5

  92. Format : AC-3

  93. Format/Info : Audio Coding 3

  94. Commercial name : Dolby Digital

  95. Codec ID : A_AC3

  96. Duration : 1 h 37 min

  97. Bit rate mode : Constant

  98. Bit rate : 640 kb/s

  99. Channel(s) : 6 channels

  100. Channel layout : L R C LFE Ls Rs

  101. Sampling rate : 48.0 kHz

  102. Frame rate : 31.250 FPS (1536 SPF)

  103. Compression mode : Lossy

  104. Stream size : 448 MiB (4%)

  105. Title : Mandarin

  106. Language : Chinese

  107. Service kind : Complete Main

  108. Default : No

  109. Forced : No


  110. Text #1

  111. ID : 6

  112. Format : UTF-8

  113. Codec ID : S_TEXT/UTF8

  114. Codec ID/Info : UTF-8 Plain Text

  115. Duration : 1 h 36 min

  116. Bit rate : 55 b/s

  117. Count of elements : 1285

  118. Stream size : 38.7 KiB (0%)

  119. Title : English Forced

  120. Language : English

  121. Default : Yes

  122. Forced : Yes


  123. Text #2

  124. ID : 7

  125. Format : PGS

  126. Muxing mode : zlib

  127. Codec ID : S_HDMV/PGS

  128. Codec ID/Info : Picture based subtitle format used on BDs/HD-DVDs

  129. Duration : 1 h 36 min

  130. Bit rate : 43.0 kb/s

  131. Count of elements : 2563

  132. Stream size : 29.5 MiB (0%)

  133. Title : English Forced PGS

  134. Language : English

  135. Default : No

  136. Forced : No


  137. Text #3

  138. ID : 8

  139. Format : PGS

  140. Muxing mode : zlib

  141. Codec ID : S_HDMV/PGS

  142. Codec ID/Info : Picture based subtitle format used on BDs/HD-DVDs

  143. Duration : 1 h 35 min

  144. Bit rate : 34.3 kb/s

  145. Count of elements : 2521

  146. Stream size : 23.4 MiB (0%)

  147. Title : Traditional Chinese PGS

  148. Language : Chinese

  149. Default : No

  150. Forced : No


  151. Text #4

  152. ID : 9

  153. Format : PGS

  154. Muxing mode : zlib

  155. Codec ID : S_HDMV/PGS

  156. Codec ID/Info : Picture based subtitle format used on BDs/HD-DVDs

  157. Duration : 1 h 37 min

  158. Bit rate : 33.4 kb/s

  159. Count of elements : 2559

  160. Stream size : 23.2 MiB (0%)

  161. Title : Simplified Chinese PGS

  162. Language : Chinese

  163. Default : No

  164. Forced : No


  165. Menu

  166. 00:00:00.000 : :Chapter 01

  167. 00:04:45.250 : :Chapter 02

  168. 00:16:17.083 : :Chapter 03

  169. 00:23:42.208 : :Chapter 04

  170. 00:34:02.250 : :Chapter 05

  171. 00:42:22.167 : :Chapter 06

  172. 00:47:36.375 : :Chapter 07

  173. 00:56:04.167 : :Chapter 08

  174. 01:03:56.958 : :Chapter 09

  175. 01:10:44.667 : :Chapter 10

  176. 01:18:44.458 : :Chapter 11

  177. 01:28:48.542 : :Chapter 12

复制代码

地下情[国语音轨/中文字幕].Love.Unto.Waste.1986.1080p.BluRay.x264 YAMG 11.87GB  港台电影  第3张



文件下载


除非特别注明,本文『地下情[国语音轨/中文字幕].Love.Unto.Waste.1986.1080p.BluRay.x264-YAMG 11.87GB』来源于互联网机器人自动抓取,非本站原创。 浮游电影网不对本文拥有版权,如有侵犯,请联系邮箱:fuyouu#yandex.com[#换成@]投诉。我们会在15个工作日内删除。 但烦请转载时请标明出处:“本文转载于『浮游电影网』,原文地址:https://www.fuyouu.com/22622.html

评论吧骚年!

发表你的见解   

昵称*

E-mail*(建议输入,以便收到博主回复的提示邮件)

验证码*

您可以使用eMule或eMule Mod(Windows)、aMule(Win、Linux、Mac)等软件下载eD2k链接。。
eMule收藏集(.emulecollection)文件是您选中的所有链接的列表文件。eMule可以直接下载它们。
按住SHIFT键选择可以选中多个选择框。
可用文件名和大小选择器来选择文件。
文件名选择器帮您根据文件名称或后缀来选择文件。不分大小写。
符号使用:
和:空格( )、+
不包含:-
或:|
转义:一对英文引号("");
匹配开头:^
匹配结尾:$
例如:
选中所有名称中包含有“eMule”或“0.49c”字眼,但不包含有“exe”字眼的:emule|0.49c -exe
选中所有名称的开头是“eMule”,结尾是“0.49c”的:^emule 0.49c$
选中所有名称中带有“eMule 0.49c”的(必须是“eMule 0.49c”,中间没有别的字符,不能是“eMule fake 0.49c”),需要转义:"emule 0.49c"
大小选择器帮您根据文件大小选择文件。