当前位置: 首页 >> 港台电影 >> 我的笋盘男友[国语音轨/中文字幕].You.Are.the.One.2020.CHINESE.1080p.BluRay.x264.DD5.1-HANDJOB 8.41GB >> 正文

我的笋盘男友[国语音轨/中文字幕].You.Are.the.One.2020.CHINESE.1080p.BluRay.x264.DD5.1-HANDJOB 8.41GB

2022年07月04日 19:43:09     电影发布:来源于网络     电影分类:港台电影     评论(0)    

我的笋盘男友[国语音轨/中文字幕].You.Are.the.One.2020.CHINESE.1080p.BluRay.x264.DD5.1 HANDJOB 8.41GB  港台电影  第1张

我的笋盘男友[国语音轨/中文字幕].You.Are.the.One.2020.CHINESE.1080p.BluRay.x264.DD5.1 HANDJOB 8.41GB  港台电影  第2张

◎译 名 我的笋盘男友 / You Are The One / 我的100分男友

◎片 名 我的筍盤男友

◎年 代 2019

◎产 地 中国香港

◎类 别 喜剧 / 爱情

◎语 言 粤语

◎上映日期 2020-01-25(中国香港/中国大陆)

◎IMDb链接 https://www.imdb.com/title/tt15241580/

◎豆瓣评分 4.1/10 (1078人评价)

◎豆瓣链接 https://movie.douban.com/subject/34908185/

◎片 长 94分钟

◎导 演 叶念琛 Patrick Kong (id:1274344)

◎编 剧 叶念琛 Patrick Kong (id:1274344)

◎演 员 陈家乐 Carlos Chan (id:1275972)

李靖筠 Gladys Li (id:1366532)

郭奕芯 Ashina Kwok (id:1354761)

林盛斌 Shing-Ban Lam (id:1351653)

倪晨曦 Elva Ni (id:1351654)

岑珈其 Kaki Sham (id:1319715)

糖妹 Kandy Wong (id:1327153)

王卓淇 Erin Wong (id:1373454)

孙慧雪 Snow Suen (id:1328784)

张建声 Justin Cheung (id:1323927)

麦玲玲 Lingling Mak (id:1371988)

吴家丽 Carrie Ng (id:1274241)

庄思敏 Jacquelin Chong (id:1326932)

戴耀明 Yiu-Ming Dia (id:1319089)

谢芷伦 Jan Tse (id:1375783)

赵咏瑶 Kimi Chiu (id:1370636)

谢可逸 Tse Ho Yat (id:1388272)

陈欣妍 Shirley Chan (id:1377345)

卫志豪 Michael Wai (id:1364170)

区永权 Albert Au (id:1364172)

胡卓希 Jason Wu (id:1400229)

阮儿 Chloe Nguyen (id:1388278)

陈婉衡 Alycia Chan (id:1373670)

麦芷谊 Koyi Mak (id:1357829)

路芙 Ruth Tsang (id:1429001)

邵剑秋 Kim-Chau Shiu (id:1413263)

杨受成 Albert Yeung (id:1313455)

戴伟 Day Tai (id:1337786)

李寶瑜 Labroe Lee (id:1472663)

叶绍麒 Yip Shiu Kei (id:1408645)

◎简 介

年轻有为的股坛狙击手马奋(陈家乐 饰)身份神秘,行踪低调,在他的字典里,从来没有“失败”两字。故事由马奋遇上阿宝(李靖筠 饰)开始,彼此人生出现了戏剧性的变化!

阿宝从小到大都不相信好事会降临在自己身上,双亲早逝的阿宝,所有梦想对她而言都是遥不可及。阿宝身兼数职,在KTV当兼职。一晚马奋与公司高层职员在KTV贵宾房召开秘密会议,因马奋用钱打发了几位上前搭讪的性感女郎,阿宝以为马奋就是害她好姐妹Pauline自杀的情场骗子,于是上前指骂马奋,此时地下钱庄突然来到夜店找阿宝还钱,众人拉扯之间,阿宝手拉着马奋逃离现场。原来阿宝把马奋带到医院探望昏迷不醒的Pauline,Pauline大哥牛荣等人以为马奋是Pauline的男友,要他为妹妹自杀负责,牛荣认为只有马奋能唤醒Pauline,怕他逃之夭夭,决定强行把他带回家。

马奋与阿宝相处后,觉得这女子天真可爱。...

  1. Video

  2. ID : 1

  3. Format : AVC

  4. Format/Info : Advanced Video Codec

  5. Format profile : [email protected]

  6. Format settings : CABAC / 5 Ref Frames

  7. Format settings, CABAC : Yes

  8. Format settings, Reference frames : 5 frames

  9. Codec ID : V_MPEG4/ISO/AVC

  10. Duration : 1 h 34 min

  11. Bit rate : 12.0 Mb/s

  12. Width : 1 920 pixels

  13. Height : 804 pixels

  14. Display aspect ratio : 2.40:1

  15. Frame rate mode : Constant

  16. Frame rate : 24.000 FPS

  17. Color space : YUV

  18. Chroma subsampling : 4:2:0

  19. Bit depth : 8 bits

  20. Scan type : Progressive

  21. Bits/(Pixel*Frame) : 0.324

  22. Stream size : 7.96 GiB (95%)

  23. Writing library : x264 core 164 r3065 ae03d92

  24. Encoding settings : cabac=1 / ref=5 / deblock=1:-3:-3 / analyse=0x3:0x133 / me=umh / subme=10 / psy=1 / psy_rd=1.00:0.00 / mixed_ref=1 / me_range=32 / chroma_me=1 / trellis=2 / 8x8dct=1 / cqm=0 / deadzone=21,11 / fast_pskip=0 / chroma_qp_offset=-2 / threads=25 / lookahead_threads=6 / sliced_threads=0 / nr=0 / decimate=0 / interlaced=0 / NTMzNTQ= / bluray_compat=0 / constrained_intra=0 / bframes=16 / b_pyramid=2 / b_adapt=2 / b_bias=0 / direct=3 / weightb=1 / open_gop=0 / weightp=2 / keyint=240 / keyint_min=24 / NTMzNTQ=uuDQuD2mJt9fsCf / scenecut=40 / intra_refresh=0 / rc_lookahead=60 / rc=crf / mbtree=0 / crf=17.0 / qcomp=0.60 / qpmin=0 / qpmax=69 / qpstep=4 / vbv_maxrate=62500 / vbv_bufsize=78125 / crf_max=0.0 / nal_hrd=none / filler=0 / NTMzNTQ=LmsMAP37EqsCpk / ip_ratio=1.40 / pb_ratio=1.30 / aq=2:1.00

  25. Default : Yes

  26. Forced : No

  27. Color range : Limited

  28. Color primaries : BT.709

  29. Transfer characteristics : BT.709

  30. Matrix coefficients : BT.709


  31. Audio

  32. ID : 2

  33. Format : AC-3

  34. Format/Info : Audio Coding 3

  35. Commercial name : Dolby Digital

  36. Codec ID : A_AC3

  37. Duration : 1 h 34 min

  38. Bit rate mode : Constant

  39. Bit rate : 640 kb/s

  40. Channel(s) : 6 channels

  41. Channel layout : L R C LFE Ls Rs

  42. Sampling rate : 48.0 kHz

  43. Frame rate : 31.250 FPS (1536 SPF)

  44. Compression mode : Lossy

  45. Stream size : 435 MiB (5%)

  46. Title : Cantonese

  47. Language : Chinese

  48. Service kind : Complete Main

  49. Default : Yes

  50. Forced : No


  51. Text #1

  52. ID : 3

  53. Format : UTF-8

  54. Codec ID : S_TEXT/UTF8

  55. Codec ID/Info : UTF-8 Plain Text

  56. Duration : 1 h 34 min

  57. Bit rate : 76 b/s

  58. Count of elements : 1773

  59. Stream size : 52.6 KiB (0%)

  60. Language : English

  61. Default : Yes

  62. Forced : No


  63. Text #2

  64. ID : 4

  65. Format : PGS

  66. Muxing mode : zlib

  67. Codec ID : S_HDMV/PGS

  68. Codec ID/Info : Picture based subtitle format used on BDs/HD-DVDs

  69. Duration : 1 h 34 min

  70. Bit rate : 54.4 kb/s

  71. Count of elements : 2681

  72. Stream size : 36.7 MiB (0%)

  73. Title : Chinese Simplified

  74. Language : Chinese

  75. Default : No

  76. Forced : No


  77. Text #3

  78. ID : 5

  79. Format : PGS

  80. Muxing mode : zlib

  81. Codec ID : S_HDMV/PGS

  82. Codec ID/Info : Picture based subtitle format used on BDs/HD-DVDs

  83. Duration : 1 h 34 min

  84. Bit rate : 55.6 kb/s

  85. Count of elements : 2679

  86. Stream size : 37.5 MiB (0%)

  87. Title : Chinese Traditional

  88. Language : Chinese

  89. Default : No

  90. Forced : No


  91. Menu

  92. 00:00:00.000 : :Chapter 1

  93. 00:07:49.375 : :Chapter 2

  94. 00:15:08.500 : :Chapter 3

  95. 00:24:26.958 : :Chapter 4

  96. 00:34:20.042 : :Chapter 5

  97. 00:43:16.083 : :Chapter 6

  98. 00:48:44.208 : :Chapter 7

  99. 00:55:54.750 : :Chapter 8

  100. 01:03:34.833 : :Chapter 9

  101. 01:14:34.417 : :Chapter 10

  102. 01:20:53.333 : :Chapter 11

  103. 01:28:57.958 : :Chapter 12

复制代码

我的笋盘男友[国语音轨/中文字幕].You.Are.the.One.2020.CHINESE.1080p.BluRay.x264.DD5.1 HANDJOB 8.41GB  港台电影  第3张 我的笋盘男友[国语音轨/中文字幕].You.Are.the.One.2020.CHINESE.1080p.BluRay.x264.DD5.1 HANDJOB 8.41GB  港台电影  第4张 我的笋盘男友[国语音轨/中文字幕].You.Are.the.One.2020.CHINESE.1080p.BluRay.x264.DD5.1 HANDJOB 8.41GB  港台电影  第5张



文件下载


除非特别注明,本文『我的笋盘男友[国语音轨/中文字幕].You.Are.the.One.2020.CHINESE.1080p.BluRay.x264.DD5.1-HANDJOB 8.41GB』来源于互联网机器人自动抓取,非本站原创。 浮游电影网不对本文拥有版权,如有侵犯,请联系邮箱:fuyouu#yandex.com[#换成@]投诉。我们会在15个工作日内删除。 但烦请转载时请标明出处:“本文转载于『浮游电影网』,原文地址:https://www.fuyouu.com/22621.html

评论吧骚年!

发表你的见解   

昵称*

E-mail*(建议输入,以便收到博主回复的提示邮件)

验证码*

您可以使用eMule或eMule Mod(Windows)、aMule(Win、Linux、Mac)等软件下载eD2k链接。。
eMule收藏集(.emulecollection)文件是您选中的所有链接的列表文件。eMule可以直接下载它们。
按住SHIFT键选择可以选中多个选择框。
可用文件名和大小选择器来选择文件。
文件名选择器帮您根据文件名称或后缀来选择文件。不分大小写。
符号使用:
和:空格( )、+
不包含:-
或:|
转义:一对英文引号("");
匹配开头:^
匹配结尾:$
例如:
选中所有名称中包含有“eMule”或“0.49c”字眼,但不包含有“exe”字眼的:emule|0.49c -exe
选中所有名称的开头是“eMule”,结尾是“0.49c”的:^emule 0.49c$
选中所有名称中带有“eMule 0.49c”的(必须是“eMule 0.49c”,中间没有别的字符,不能是“eMule fake 0.49c”),需要转义:"emule 0.49c"
大小选择器帮您根据文件大小选择文件。