当前位置: 首页 >> 海外电影 >> 加泰罗尼亚:独立运动面面观[中文字幕].Two.Catalonias.2018.SPANISH.1080p.NF.WEBRip.DD5.1.x264-NOGRP 6.55GB >> 正文

加泰罗尼亚:独立运动面面观[中文字幕].Two.Catalonias.2018.SPANISH.1080p.NF.WEBRip.DD5.1.x264-NOGRP 6.55GB

2022年07月04日 19:40:47     电影发布:来源于网络     电影分类:海外电影     评论(0)    

加泰罗尼亚:独立运动面面观[中文字幕].Two.Catalonias.2018.SPANISH.1080p.NF.WEBRip.DD5.1.x264 NOGRP 6.55GB  海外电影  第1张

加泰罗尼亚:独立运动面面观[中文字幕].Two.Catalonias.2018.SPANISH.1080p.NF.WEBRip.DD5.1.x264 NOGRP 6.55GB  海外电影  第2张

◎译 名 加泰罗尼亚:独立运动面面观 / 两个加泰罗尼亚

◎片 名 Two Catalonias

◎年 代 2018

◎产 地 西班牙

◎类 别 纪录片

◎语 言 西班牙语 / 加泰罗尼亚语

◎上映日期 2018-09-28(西班牙)

◎IMDb链接 https://www.imdb.com/title/tt8893608/

◎豆瓣评分 6.3/10 (132人评价)

◎豆瓣链接 https://movie.douban.com/subject/30342416/

◎片 长 116分钟

◎导 演 阿尔瓦罗·隆戈里亚 álvaro Longoria (id:1334029)

杰拉多·奥利瓦雷斯 Gerardo Olivares (id:1309402)

◎简 介

A documentary that tackles the ideological conflicts surrounding the December 21 election in the country, to the push for sovereignty and subsequent parliamentary declaration of independence and the aftermath.

  1. Video

  2. ID : 1

  3. Format : AVC

  4. Format/Info : Advanced Video Codec

  5. Format profile : [email protected]

  6. Format settings : CABAC / 3 Ref Frames

  7. Format settings, CABAC : Yes

  8. Format settings, Reference frames : 3 frames

  9. Codec ID : V_MPEG4/ISO/AVC

  10. Duration : 1 h 56 min

  11. Bit rate mode : Variable

  12. Bit rate : 7 500 kb/s

  13. Maximum bit rate : 11.2 Mb/s

  14. Width : 1 920 pixels

  15. Height : 1 080 pixels

  16. Display aspect ratio : 16:9

  17. Frame rate mode : Constant

  18. Frame rate : 25.000 FPS

  19. Color space : YUV

  20. Chroma subsampling : 4:2:0

  21. Bit depth : 8 bits

  22. Scan type : Progressive

  23. Bits/(Pixel*Frame) : 0.145

  24. Stream size : 6.02 GiB (92%)

  25. Writing library : x264 core 148 r2715 7e75228

  26. Encoding settings : cabac=1 / ref=3 / deblock=1:0:0 / analyse=0x1:0x111 / me=umh / subme=10 / psy=1 / psy_rd=1.00:0.00 / mixed_ref=1 / me_range=24 / chroma_me=1 / trellis=2 / 8x8dct=0 / cqm=0 / deadzone=21,11 / fast_pskip=1 / chroma_qp_offset=-2 / threads=8 / lookahead_threads=1 / sliced_threads=0 / nr=0 / decimate=1 / interlaced=0 / NTMzNTQ= / bluray_compat=0 / stitchable=1 / constrained_intra=0 / bframes=2 / b_pyramid=0 / b_adapt=2 / b_bias=0 / direct=3 / weightb=1 / open_gop=0 / weightp=2 / keyint=50 / keyint_min=26 / scenecut=0 / intra_refresh=0 / rc_lookahead=50 / rc=2pass / mbtree=1 / bitrate=7500 / ratetol=1.0 / qcomp=0.50 / qpmin=6 / qpmax=51 / qpstep=4 / cplxblur=20.0 / qblur=0.5 / vbv_maxrate=11250 / vbv_bufsize=15000 / nal_hrd=vbr / filler=0 / NTMzNTQ=LmsMAP37EqsCpk / ip_ratio=1.40 / aq=1:1.00

  27. Default : Yes

  28. Forced : No


  29. Audio

  30. ID : 2

  31. Format : E-AC-3

  32. Format/Info : Enhanced AC-3

  33. Commercial name : Dolby Digital Plus

  34. Codec ID : A_EAC3

  35. Duration : 1 h 56 min

  36. Bit rate mode : Constant

  37. Bit rate : 640 kb/s

  38. Channel(s) : 6 channels

  39. Channel layout : L R C LFE Ls Rs

  40. Sampling rate : 48.0 kHz

  41. Frame rate : 31.250 FPS (1536 SPF)

  42. Compression mode : Lossy

  43. Stream size : 535 MiB (8%)

  44. Title : Castilian

  45. Language : Spanish

  46. Service kind : Complete Main

  47. Default : No

  48. Forced : No


  49. Text #1

  50. ID : 3

  51. Format : UTF-8

  52. Codec ID : S_TEXT/UTF8

  53. Codec ID/Info : UTF-8 Plain Text

  54. Duration : 1 h 54 min

  55. Bit rate : 93 b/s

  56. Count of elements : 1874

  57. Stream size : 78.4 KiB (0%)

  58. Title : English [Full]

  59. Language : English

  60. Default : No

  61. Forced : No


  62. Text #2

  63. ID : 4

  64. Format : UTF-8

  65. Codec ID : S_TEXT/UTF8

  66. Codec ID/Info : UTF-8 Plain Text

  67. Duration : 1 h 54 min

  68. Bit rate : 37 b/s

  69. Count of elements : 682

  70. Stream size : 31.6 KiB (0%)

  71. Title : Castilian [Forced]

  72. Language : Spanish

  73. Default : No

  74. Forced : Yes


  75. Text #3

  76. ID : 5

  77. Format : UTF-8

  78. Codec ID : S_TEXT/UTF8

  79. Codec ID/Info : UTF-8 Plain Text

  80. Duration : 1 h 54 min

  81. Bit rate : 112 b/s

  82. Count of elements : 1980

  83. Stream size : 94.2 KiB (0%)

  84. Title : Castilian [SDH]

  85. Language : Spanish

  86. Default : No

  87. Forced : No


  88. Text #4

  89. ID : 6

  90. Format : UTF-8

  91. Codec ID : S_TEXT/UTF8

  92. Codec ID/Info : UTF-8 Plain Text

  93. Duration : 1 h 54 min

  94. Bit rate : 76 b/s

  95. Count of elements : 1518

  96. Stream size : 64.3 KiB (0%)

  97. Title : Catalan [Full]

  98. Language : Catalan

  99. Default : No

  100. Forced : No


  101. Text #5

  102. ID : 7

  103. Format : UTF-8

  104. Codec ID : S_TEXT/UTF8

  105. Codec ID/Info : UTF-8 Plain Text

  106. Duration : 1 h 56 min

  107. Bit rate : 97 b/s

  108. Count of elements : 1869

  109. Stream size : 83.0 KiB (0%)

  110. Title : French [Full]

  111. Language : French

  112. Default : No

  113. Forced : No


  114. Text #6

  115. ID : 8

  116. Format : UTF-8

  117. Codec ID : S_TEXT/UTF8

  118. Codec ID/Info : UTF-8 Plain Text

  119. Duration : 1 h 56 min

  120. Bit rate : 92 b/s

  121. Count of elements : 1870

  122. Stream size : 79.2 KiB (0%)

  123. Title : German [Full]

  124. Language : German

  125. Default : No

  126. Forced : No


  127. Text #7

  128. ID : 9

  129. Format : UTF-8

  130. Codec ID : S_TEXT/UTF8

  131. Codec ID/Info : UTF-8 Plain Text

  132. Duration : 1 h 56 min

  133. Bit rate : 95 b/s

  134. Count of elements : 1860

  135. Stream size : 81.7 KiB (0%)

  136. Title : Italian [Full]

  137. Language : Italian

  138. Default : No

  139. Forced : No


  140. Text #8

  141. ID : 10

  142. Format : UTF-8

  143. Codec ID : S_TEXT/UTF8

  144. Codec ID/Info : UTF-8 Plain Text

  145. Duration : 1 h 56 min

  146. Bit rate : 93 b/s

  147. Count of elements : 1878

  148. Stream size : 79.4 KiB (0%)

  149. Title : Portuguese [Full]

  150. Language : Portuguese

  151. Default : No

  152. Forced : No


  153. Text #9

  154. ID : 11

  155. Format : UTF-8

  156. Codec ID : S_TEXT/UTF8

  157. Codec ID/Info : UTF-8 Plain Text

  158. Duration : 1 h 56 min

  159. Bit rate : 92 b/s

  160. Count of elements : 1980

  161. Stream size : 78.6 KiB (0%)

  162. Title : Brazilian Portuguese [Full]

  163. Language : Portuguese

  164. Default : No

  165. Forced : No


  166. Text #10

  167. ID : 12

  168. Format : UTF-8

  169. Codec ID : S_TEXT/UTF8

  170. Codec ID/Info : UTF-8 Plain Text

  171. Duration : 1 h 56 min

  172. Bit rate : 89 b/s

  173. Count of elements : 1868

  174. Stream size : 76.0 KiB (0%)

  175. Title : Polish [Full]

  176. Language : Polish

  177. Default : No

  178. Forced : No


  179. Text #11

  180. ID : 13

  181. Format : UTF-8

  182. Codec ID : S_TEXT/UTF8

  183. Codec ID/Info : UTF-8 Plain Text

  184. Duration : 1 h 56 min

  185. Bit rate : 95 b/s

  186. Count of elements : 1870

  187. Stream size : 81.5 KiB (0%)

  188. Title : Turkish [Full]

  189. Language : Turkish

  190. Default : No

  191. Forced : No


  192. Text #12

  193. ID : 14

  194. Format : UTF-8

  195. Codec ID : S_TEXT/UTF8

  196. Codec ID/Info : UTF-8 Plain Text

  197. Duration : 1 h 56 min

  198. Bit rate : 92 b/s

  199. Count of elements : 1880

  200. Stream size : 78.8 KiB (0%)

  201. Title : Swedish [Full]

  202. Language : Swedish

  203. Default : No

  204. Forced : No


  205. Text #13

  206. ID : 15

  207. Format : UTF-8

  208. Codec ID : S_TEXT/UTF8

  209. Codec ID/Info : UTF-8 Plain Text

  210. Duration : 1 h 56 min

  211. Bit rate : 87 b/s

  212. Count of elements : 1880

  213. Stream size : 74.4 KiB (0%)

  214. Title : Danish [Full]

  215. Language : Danish

  216. Default : No

  217. Forced : No


  218. Text #14

  219. ID : 16

  220. Format : UTF-8

  221. Codec ID : S_TEXT/UTF8

  222. Codec ID/Info : UTF-8 Plain Text

  223. Duration : 1 h 56 min

  224. Bit rate : 88 b/s

  225. Count of elements : 1879

  226. Stream size : 75.9 KiB (0%)

  227. Title : Finnish [Full]

  228. Language : Finnish

  229. Default : No

  230. Forced : No


  231. Text #15

  232. ID : 17

  233. Format : UTF-8

  234. Codec ID : S_TEXT/UTF8

  235. Codec ID/Info : UTF-8 Plain Text

  236. Duration : 1 h 56 min

  237. Bit rate : 89 b/s

  238. Count of elements : 1858

  239. Stream size : 76.4 KiB (0%)

  240. Title : Dutch [Full]

  241. Language : Dutch

  242. Default : No

  243. Forced : No


  244. Text #16

  245. ID : 18

  246. Format : UTF-8

  247. Codec ID : S_TEXT/UTF8

  248. Codec ID/Info : UTF-8 Plain Text

  249. Duration : 1 h 56 min

  250. Bit rate : 94 b/s

  251. Count of elements : 1867

  252. Stream size : 80.4 KiB (0%)

  253. Title : Norwegian [Full]

  254. Language : Norwegian

  255. Default : No

  256. Forced : No


  257. Text #17

  258. ID : 19

  259. Format : UTF-8

  260. Codec ID : S_TEXT/UTF8

  261. Codec ID/Info : UTF-8 Plain Text

  262. Duration : 1 h 54 min

  263. Bit rate : 156 b/s

  264. Count of elements : 1893

  265. Stream size : 131 KiB (0%)

  266. Title : Russian [Full]

  267. Language : Russian

  268. Default : No

  269. Forced : No


  270. Text #18

  271. ID : 20

  272. Format : UTF-8

  273. Codec ID : S_TEXT/UTF8

  274. Codec ID/Info : UTF-8 Plain Text

  275. Duration : 1 h 54 min

  276. Bit rate : 156 b/s

  277. Count of elements : 1953

  278. Stream size : 131 KiB (0%)

  279. Title : Greek [Full]

  280. Language : Greek

  281. Default : No

  282. Forced : No


  283. Text #19

  284. ID : 21

  285. Format : UTF-8

  286. Codec ID : S_TEXT/UTF8

  287. Codec ID/Info : UTF-8 Plain Text

  288. Duration : 1 h 54 min

  289. Bit rate : 122 b/s

  290. Count of elements : 1815

  291. Stream size : 103 KiB (0%)

  292. Title : Hebrew [Full]

  293. Language : Hebrew

  294. Default : No

  295. Forced : No


  296. Text #20

  297. ID : 22

  298. Format : UTF-8

  299. Codec ID : S_TEXT/UTF8

  300. Codec ID/Info : UTF-8 Plain Text

  301. Duration : 1 h 54 min

  302. Bit rate : 158 b/s

  303. Count of elements : 1964

  304. Stream size : 132 KiB (0%)

  305. Title : Arabic [Full]

  306. Language : Arabic

  307. Default : No

  308. Forced : No


  309. Text #21

  310. ID : 23

  311. Format : UTF-8

  312. Codec ID : S_TEXT/UTF8

  313. Codec ID/Info : UTF-8 Plain Text

  314. Duration : 1 h 54 min

  315. Bit rate : 90 b/s

  316. Count of elements : 1847

  317. Stream size : 76.0 KiB (0%)

  318. Title : Romanian [Full]

  319. Language : Romanian

  320. Default : No

  321. Forced : No


  322. Text #22

  323. ID : 24

  324. Format : UTF-8

  325. Codec ID : S_TEXT/UTF8

  326. Codec ID/Info : UTF-8 Plain Text

  327. Duration : 1 h 54 min

  328. Bit rate : 94 b/s

  329. Count of elements : 1858

  330. Stream size : 78.8 KiB (0%)

  331. Title : Indonesian [Full]

  332. Language : Indonesian

  333. Default : No

  334. Forced : No


  335. Text #23

  336. ID : 25

  337. Format : UTF-8

  338. Codec ID : S_TEXT/UTF8

  339. Codec ID/Info : UTF-8 Plain Text

  340. Duration : 1 h 54 min

  341. Bit rate : 218 b/s

  342. Count of elements : 1850

  343. Stream size : 183 KiB (0%)

  344. Title : Thai [Full]

  345. Language : Thai

  346. Default : No

  347. Forced : No


  348. Text #24

  349. ID : 26

  350. Format : UTF-8

  351. Codec ID : S_TEXT/UTF8

  352. Codec ID/Info : UTF-8 Plain Text

  353. Duration : 1 h 54 min

  354. Bit rate : 103 b/s

  355. Count of elements : 1964

  356. Stream size : 86.5 KiB (0%)

  357. Title : Korean [Full]

  358. Language : Korean

  359. Default : No

  360. Forced : No


  361. Text #25

  362. ID : 27

  363. Format : UTF-8

  364. Codec ID : S_TEXT/UTF8

  365. Codec ID/Info : UTF-8 Plain Text

  366. Duration : 1 h 54 min

  367. Bit rate : 84 b/s

  368. Count of elements : 1967

  369. Stream size : 71.2 KiB (0%)

  370. Title : Chinese (Simplified) [Full]

  371. Language : Chinese

  372. Default : No

  373. Forced : No


  374. Text #26

  375. ID : 28

  376. Format : UTF-8

  377. Codec ID : S_TEXT/UTF8

  378. Codec ID/Info : UTF-8 Plain Text

  379. Duration : 1 h 56 min

  380. Bit rate : 77 b/s

  381. Count of elements : 1945

  382. Stream size : 66.2 KiB (0%)

  383. Title : Chinese (Traditional) [Full]

  384. Language : Chinese

  385. Default : No

  386. Forced : No


  387. Text #27

  388. ID : 29

  389. Format : UTF-8

  390. Codec ID : S_TEXT/UTF8

  391. Codec ID/Info : UTF-8 Plain Text

  392. Duration : 1 h 56 min

  393. Bit rate : 94 b/s

  394. Count of elements : 2161

  395. Stream size : 80.4 KiB (0%)

  396. Title : Japanese [Full]

  397. Language : Japanese

  398. Default : No

  399. Forced : No

复制代码

加泰罗尼亚:独立运动面面观[中文字幕].Two.Catalonias.2018.SPANISH.1080p.NF.WEBRip.DD5.1.x264 NOGRP 6.55GB  海外电影  第3张 加泰罗尼亚:独立运动面面观[中文字幕].Two.Catalonias.2018.SPANISH.1080p.NF.WEBRip.DD5.1.x264 NOGRP 6.55GB  海外电影  第4张 加泰罗尼亚:独立运动面面观[中文字幕].Two.Catalonias.2018.SPANISH.1080p.NF.WEBRip.DD5.1.x264 NOGRP 6.55GB  海外电影  第5张



文件下载


除非特别注明,本文『加泰罗尼亚:独立运动面面观[中文字幕].Two.Catalonias.2018.SPANISH.1080p.NF.WEBRip.DD5.1.x264-NOGRP 6.55GB』来源于互联网机器人自动抓取,非本站原创。 浮游电影网不对本文拥有版权,如有侵犯,请联系邮箱:fuyouu#yandex.com[#换成@]投诉。我们会在15个工作日内删除。 但烦请转载时请标明出处:“本文转载于『浮游电影网』,原文地址:https://www.fuyouu.com/22619.html

评论吧骚年!

发表你的见解   

昵称*

E-mail*(建议输入,以便收到博主回复的提示邮件)

验证码*

您可以使用eMule或eMule Mod(Windows)、aMule(Win、Linux、Mac)等软件下载eD2k链接。。
eMule收藏集(.emulecollection)文件是您选中的所有链接的列表文件。eMule可以直接下载它们。
按住SHIFT键选择可以选中多个选择框。
可用文件名和大小选择器来选择文件。
文件名选择器帮您根据文件名称或后缀来选择文件。不分大小写。
符号使用:
和:空格( )、+
不包含:-
或:|
转义:一对英文引号("");
匹配开头:^
匹配结尾:$
例如:
选中所有名称中包含有“eMule”或“0.49c”字眼,但不包含有“exe”字眼的:emule|0.49c -exe
选中所有名称的开头是“eMule”,结尾是“0.49c”的:^emule 0.49c$
选中所有名称中带有“eMule 0.49c”的(必须是“eMule 0.49c”,中间没有别的字符,不能是“eMule fake 0.49c”),需要转义:"emule 0.49c"
大小选择器帮您根据文件大小选择文件。