当前位置: 首页 >> 海外电影 >> 罗马的房子[中英字幕].Room.in.Rome.2010.BluRay.1080p.x265.10bit-MiniHD 4.86GB >> 正文

罗马的房子[中英字幕].Room.in.Rome.2010.BluRay.1080p.x265.10bit-MiniHD 4.86GB

2022年07月03日 17:02:11     电影发布:来源于网络     电影分类:海外电影     评论(0)    

◎标 题 罗马的房子

◎译 名 罗马欲乐园(台) / 罗马夜禁色(港) / 罗马的房间 / Room in Rome

◎片 名 Habitación en Roma

◎年 代 2010

◎产 地 西班牙

◎类 别 剧情 / 情色 / 同性

◎语 言 英语 / 西班牙语 / 意大利语 / 俄语 / 巴斯克语

◎上映日期 2010-04-24

◎IMDb评分 6.1/10 (23898人评价)

◎IMDb链接 https://www.imdb.com/title/tt1263750/

◎豆瓣评分 7.4/10 (39687人评价)

◎豆瓣链接 https://movie.douban.com/subject/3431336/

◎片 长 109 分钟

◎导 演 胡里奥·密谭 Julio Medem

◎编 剧 Julio Rojas Julio Rojas

胡里奥·密谭 Julio Medem

凯瑟琳·富盖特 Katherine Fugate

◎演 员 埃伦娜·安纳亚 Elena Anaya

娜塔莎·亚罗温科 Natasha Yarovenko

恩里克·洛维索 Enrico Lo Verso

纳瓦·尼姆利 Najwa Nimri

克里斯蒂娜·苏马拉加 Cristina Zumárraga

乔瑟琳·波克 Jocelyn Pook

露爾迪絲·靴南迪斯 Lourdes Hernández

Susana Sánchez Susana Sánchez

Rafa Solorzano Rafa Solorzano

◎简 介

影片上翻拍自一部智利2005年的电影《在床上》,但是导演将原片中的一男一女的结构变成了两个女孩的相遇。

初夏的第一个夜晚,拥有两个孩子的西班牙母亲阿尔芭(埃琳纳·安娜亚 Elena Anaya 饰),一周后即将嫁人的俄罗斯女孩娜塔莎(娜塔莎·亚罗温科 Natasha Yarovenko 饰),在意大利那充满古韵的首都罗马相遇。两个女人的秘密,就这样绽放在一个罗马的房间。爱神的箭从天际射向了她们,欲望也为她们开拓了一个暧昧又趣味的时刻,使两人初相识的隐瞒与防卫心,竟开始逐一融。两个女人的心事,就这样交融在这样一个沁凉的初夏。这是一场持续了12个小时的爱欲盛宴,它穿过了深夜、一直到天亮。清晨的降临,预示着彼此的分离,她们要去面对现实生活与精神自由的考验。罗马这座城市终究会变成她们一个中转站,还是一个新的起点?

  1. ##### MediaInfo ######

  2. General

  3. Unique ID : 95057001970724316313032204577809024771 (0x47835009F49E194D0097FCB1AF36C703)

  4. Complete name : Room.in.Rome.2010.BluRay.1080p.x265.10bit-MiniHD.mkv

  5. Format : Matroska

  6. Format version : Version 4

  7. File size : 4.86 GiB

  8. Duration : 1 h 47 min

  9. Overall bit rate : 6 471 kb/s

  10. Encoded date : UTC 2018-06-09 06:49:13

  11. Writing application : mkvmerge v23.0.0 ('The Bride Said No') 64-bit

  12. Writing library : libebml v1.3.6 + libmatroska v1.4.9

  13. Video

  14. ID : 1

  15. Format : HEVC

  16. Format/Info : High Efficiency Video Coding

  17. Format profile : Main [email protected]@High

  18. Codec ID : V_MPEGH/ISO/HEVC

  19. Duration : 1 h 47 min

  20. Bit rate : 5 817 kb/s

  21. Width : 1 920 pixels

  22. Height : 816 pixels

  23. Display aspect ratio : 2.35:1

  24. Frame rate mode : Constant

  25. Frame rate : 24.000 FPS

  26. Color space : YUV

  27. Chroma subsampling : 4:2:0

  28. Bit depth : 10 bits

  29. Bits/(Pixel*Frame) : 0.155

  30. Stream size : 4.37 GiB (90%)

  31. Writing library : x265 2.8+1-478bfe2b7673:[Windows][GCC 7.3.0][64 bit] 10bit

  32. Encoding settings : cpuid=533541111039 / frame-threads=3 / numa-pools=8 / wpp / no-pmode / no-pme / no-psnr / no-ssim / log-level=2 / input-csp=1 / input-res=1920x816 / interlace=0 / total-frames=154714 / level-idc=0 / high-tier=1 / uhd-bd=0 / ref=5 / no-allow-non-conformance / no-repeat-headers / annexb / no-aud / no-hrd / info / hash=0 / no-temporal-layers / no-open-gop / min-keyint=1 / keyint=360 / gop-lookahead=0 / bframes=8 / b-adapt=2 / b-pyramid / bframe-bias=0 / rc-lookahead=48 / lookahead-slices=4 / NTMzNTQ=uuDQuD2mJt9fsCf / scenecut=40 / radl=0 / no-intra-refresh / ctu=32 / min-cu-size=8 / no-rect / no-amp / max-tu-size=32 / tu-inter-depth=2 / tu-intra-depth=2 / limit-tu=4 / rdoq-level=1 / dynamic-rd=0.00 / no-ssim-rd / signhide / no-tskip / nr-intra=0 / nr-inter=0 / no-constrained-intra / no-strong-intra-smoothing / max-merge=3 / limit-refs=2 / limit-modes / me=3 / subme=5 / merange=25 / temporal-mvp / weightp / weightb / no-analyze-src-pics / deblock=-1:-1 / no-sao / no-sao-non-deblock / rd=4 / no-early-skip / no-rskip / no-fast-intra / no-tskip-fast / no-cu-lossless / b-intra / no-splitrd-skip / rdpenalty=1 / psy-rd=2.00 / psy-rdoq=5.00 / no-rd-refine / no-lossless / cbqpoffs=-3 / crqpoffs=-3 / rc=crf / crf=17.0 / qcomp=0.65 / qpstep=4 / stats-write=0 / stats-read=0 / vbv-maxrate=40000 / vbv-bufsize=40000 / vbv-init=0.9 / crf-max=0.0 / crf-min=0.0 / ipratio=1.40 / pbratio=1.30 / aq-mode=3 / aq-strength=0.80 / cutree / zone-count=0 / no-strict-cbr / qg-size=32 / no-rc-grain / qpmax=69 / qpmin=0 / no-const-vbv / sar=1 / overscan=0 / videoformat=5 / range=0 / colorprim=1 / transfer=1 / colormatrix=1 / chromaloc=0 / display-window=0 / max-cll=0,0 / min-luma=0 / max-luma=1023 / log2-max-poc-lsb=8 / vui-timing-info / vui-hrd-info / slices=1 / no-opt-qp-pps / no-opt-ref-list-length-pps / no-multi-pass-opt-rps / scenecut-bias=0.05 / no-opt-cu-delta-qp / no-aq-motion / no-hdr / no-hdr-opt / no-dhdr10-opt / no-idr-recovery-sei / analysis-reuse-level=5 / scale-factor=0 / refine-intra=0 / refine-inter=0 / refine-mv=0 / no-limit-sao / ctu-info=0 / no-lowpass-dct / refine-mv-type=0 / copy-pic=1 / max-ausize-factor=1.0 / no-dynamic-refine / no-single-sei

  33. Default : Yes

  34. Forced : No

  35. Color range : Limited

  36. Color primaries : BT.709

  37. Transfer characteristics : BT.709

  38. Matrix coefficients : BT.709

  39. Audio

  40. ID : 2

  41. Format : AC-3

  42. Format/Info : Audio Coding 3

  43. Commercial name : Dolby Digital

  44. Codec ID : A_AC3

  45. Duration : 1 h 47 min

  46. Bit rate mode : Constant

  47. Bit rate : 640 kb/s

  48. Channel(s) : 6 channels

  49. Channel layout : L R C LFE Ls Rs

  50. Sampling rate : 48.0 kHz

  51. Frame rate : 31.250 FPS (1536 SPF)

  52. Compression mode : Lossy

  53. Stream size : 492 MiB (10%)

  54. Service kind : Complete Main

  55. Default : Yes

  56. Forced : No

  57. Text #1

  58. ID : 3

  59. Format : PGS

  60. Muxing mode : zlib

  61. Codec ID : S_HDMV/PGS

  62. Codec ID/Info : Picture based subtitle format used on BDs/HD-DVDs

  63. Duration : 14 min 4 s

  64. Bit rate : 19.7 kb/s

  65. Count of elements : 224

  66. Stream size : 1.99 MiB (0%)

  67. Language : English

  68. Default : Yes

  69. Forced : No

  70. Text #2

  71. ID : 4

  72. Format : PGS

  73. Muxing mode : zlib

  74. Codec ID : S_HDMV/PGS

  75. Codec ID/Info : Picture based subtitle format used on BDs/HD-DVDs

  76. Duration : 1 h 43 min

  77. Bit rate : 22.0 kb/s

  78. Count of elements : 2006

  79. Stream size : 16.4 MiB (0%)

  80. Language : Chinese

  81. Default : No

  82. Forced : No

  83. Menu

  84. 00:00:00.000 : en:Chapter 1 / en:第 01 章

  85. 00:04:45.709 : en:Chapter 2

  86. 00:15:53.625 : en:Chapter 3

  87. 00:24:49.042 : en:Chapter 4

  88. 00:34:36.917 : en:Chapter 5

  89. 00:43:04.125 : en:Chapter 6

  90. 00:51:59.834 : en:Chapter 7

  91. 00:59:23.792 : en:Chapter 8

  92. 01:09:23.834 : en:Chapter 9

  93. 01:19:05.792 : en:Chapter 10

  94. 01:32:23.167 : en:Chapter 11

  95. 01:43:13.667 : en:Chapter 12


复制代码



文件下载


除非特别注明,本文『罗马的房子[中英字幕].Room.in.Rome.2010.BluRay.1080p.x265.10bit-MiniHD 4.86GB』来源于互联网机器人自动抓取,非本站原创。 浮游电影网不对本文拥有版权,如有侵犯,请联系邮箱:fuyouu#yandex.com[#换成@]投诉。我们会在15个工作日内删除。 但烦请转载时请标明出处:“本文转载于『浮游电影网』,原文地址:https://www.fuyouu.com/22615.html

评论吧骚年!

发表你的见解   

昵称*

E-mail*(建议输入,以便收到博主回复的提示邮件)

验证码*

您可以使用eMule或eMule Mod(Windows)、aMule(Win、Linux、Mac)等软件下载eD2k链接。。
eMule收藏集(.emulecollection)文件是您选中的所有链接的列表文件。eMule可以直接下载它们。
按住SHIFT键选择可以选中多个选择框。
可用文件名和大小选择器来选择文件。
文件名选择器帮您根据文件名称或后缀来选择文件。不分大小写。
符号使用:
和:空格( )、+
不包含:-
或:|
转义:一对英文引号("");
匹配开头:^
匹配结尾:$
例如:
选中所有名称中包含有“eMule”或“0.49c”字眼,但不包含有“exe”字眼的:emule|0.49c -exe
选中所有名称的开头是“eMule”,结尾是“0.49c”的:^emule 0.49c$
选中所有名称中带有“eMule 0.49c”的(必须是“eMule 0.49c”,中间没有别的字符,不能是“eMule fake 0.49c”),需要转义:"emule 0.49c"
大小选择器帮您根据文件大小选择文件。