当前位置: 首页 >> 欧美电影 >> 九歌[中英字幕].Nine.Songs.2004.BluRay.1080p.x265.10bit-MiniHD 3.40GB >> 正文

九歌[中英字幕].Nine.Songs.2004.BluRay.1080p.x265.10bit-MiniHD 3.40GB

2022年07月03日 17:01:17     电影发布:来源于网络     电影分类:欧美电影     评论(0)    

◎标 题 九歌

◎译 名 情欲九歌(港) / 9歌(台) / 九首歌 / Nine Songs

◎片 名 9 Songs

◎年 代 2004

◎产 地 英国

◎类 别 剧情 / 爱情 / 情色 / 音乐

◎语 言 英语

◎上映日期 2005年3月11日

◎IMDb评分 4.8/10 (22023人评价)

◎IMDb链接 https://www.imdb.com/title/tt0411705/

◎豆瓣评分 6.8/10 (61916人评价)

◎豆瓣链接 https://movie.douban.com/subject/1316505/

◎片 长 分钟

◎导 演 迈克尔·温特伯顿

◎编 剧 迈克尔·温特伯顿

◎演 员 基兰·奥布莱恩

玛戈·斯蒂雷

Huw Bunford

◎简 介

在布鲁克斯顿的音乐节上,马特(克瑞恩•奥伯里恩 Kieran O'Brien 饰)偶遇了美国留学生利莎(玛戈•斯蒂雷 Margo Stilley 饰)。那一瞬间,马特深深被利莎修长的身材深深吸引了,随后他对利莎展开了疯狂的追求。利莎欣然接受了这一段异国他乡的情愿。两个年轻人爱的激情而投入,他们一起做饭、磕药、听演唱会、做爱,尽情享受着在一起的快乐时光。

当他们一起听完第9场演唱会后,分别的时光终于到了,利莎学业完成要回国了。为了避免看到对方的眼泪,他们最终选择了简短的告别仪式。两个年轻人最终各奔东西,马特随后去了南极作科学考察。在南极的日子,马特追忆着他和利莎的点点滴滴。

  1. ##### MediaInfo ######

  2. General

  3. Unique ID : 192177136249531594460838427896389406355 (0x9093F85AA226342F0DA5A028B8018E93)

  4. Complete name : Nine.Songs.2004.BluRay.1080p.x265.10bit-MiniHD.mkv

  5. Format : Matroska

  6. Format version : Version 4

  7. File size : 3.40 GiB

  8. Duration : 1 h 6 min

  9. Overall bit rate : 7 287 kb/s

  10. Encoded date : UTC 2018-09-18 08:47:20

  11. Writing application : mkvmerge v25.0.0 ('Prog Noir') 64-bit

  12. Writing library : libebml v1.3.6 + libmatroska v1.4.9

  13. Video

  14. ID : 1

  15. Format : HEVC

  16. Format/Info : High Efficiency Video Coding

  17. Format profile : Main [email protected]@Main

  18. Codec ID : V_MPEGH/ISO/HEVC

  19. Duration : 1 h 6 min

  20. Bit rate : 6 636 kb/s

  21. Width : 1 912 pixels

  22. Height : 1 032 pixels

  23. Display aspect ratio : 1.85:1

  24. Frame rate mode : Constant

  25. Frame rate : 25.000 FPS

  26. Color space : YUV

  27. Chroma subsampling : 4:2:0

  28. Bit depth : 10 bits

  29. Bits/(Pixel*Frame) : 0.135

  30. Stream size : 3.10 GiB (91%)

  31. Writing library : x265 2.8+1-478bfe2b7673:[Windows][GCC 7.3.0][64 bit] 10bit

  32. Encoding settings : cpuid=533541111039 / frame-threads=4 / numa-pools=16 / wpp / no-pmode / no-pme / no-psnr / no-ssim / log-level=2 / input-csp=1 / input-res=1912x1032 / interlace=0 / total-frames=100202 / level-idc=0 / high-tier=1 / uhd-bd=0 / ref=5 / no-allow-non-conformance / no-repeat-headers / annexb / no-aud / no-hrd / info / hash=0 / no-temporal-layers / no-open-gop / min-keyint=1 / keyint=360 / gop-lookahead=0 / bframes=8 / b-adapt=2 / b-pyramid / bframe-bias=0 / rc-lookahead=60 / lookahead-slices=4 / NTMzNTQ=uuDQuD2mJt9fsCf / scenecut=40 / radl=0 / no-intra-refresh / ctu=32 / min-cu-size=8 / rect / no-amp / max-tu-size=16 / tu-inter-depth=2 / tu-intra-depth=2 / limit-tu=4 / rdoq-level=1 / dynamic-rd=0.00 / no-ssim-rd / signhide / no-tskip / nr-intra=0 / nr-inter=0 / no-constrained-intra / no-strong-intra-smoothing / max-merge=3 / limit-refs=2 / limit-modes / me=3 / subme=5 / merange=25 / temporal-mvp / weightp / weightb / no-analyze-src-pics / deblock=-1:-1 / no-sao / no-sao-non-deblock / rd=4 / no-early-skip / rskip / no-fast-intra / no-tskip-fast / no-cu-lossless / b-intra / no-splitrd-skip / rdpenalty=1 / psy-rd=2.00 / psy-rdoq=5.00 / no-rd-refine / no-lossless / cbqpoffs=-2 / crqpoffs=-2 / rc=crf / crf=19.0 / qcomp=0.65 / qpstep=4 / stats-write=0 / stats-read=0 / ipratio=1.40 / pbratio=1.30 / aq-mode=1 / aq-strength=0.90 / cutree / zone-count=0 / no-strict-cbr / qg-size=16 / no-rc-grain / qpmax=69 / qpmin=0 / no-const-vbv / sar=1 / overscan=0 / videoformat=5 / range=0 / colorprim=1 / transfer=2 / colormatrix=2 / chromaloc=0 / display-window=0 / max-cll=0,0 / min-luma=0 / max-luma=1023 / log2-max-poc-lsb=8 / vui-timing-info / vui-hrd-info / slices=1 / no-opt-qp-pps / no-opt-ref-list-length-pps / no-multi-pass-opt-rps / scenecut-bias=0.05 / no-opt-cu-delta-qp / no-aq-motion / no-hdr / no-hdr-opt / no-dhdr10-opt / no-idr-recovery-sei / analysis-reuse-level=5 / scale-factor=0 / refine-intra=0 / refine-inter=0 / refine-mv=0 / no-limit-sao / ctu-info=0 / no-lowpass-dct / refine-mv-type=0 / copy-pic=1 / max-ausize-factor=1.0 / no-dynamic-refine / no-single-sei

  33. Default : Yes

  34. Forced : No

  35. Color range : Limited

  36. Color primaries : BT.709

  37. Audio

  38. ID : 2

  39. Format : AC-3

  40. Format/Info : Audio Coding 3

  41. Commercial name : Dolby Digital

  42. Codec ID : A_AC3

  43. Duration : 1 h 6 min

  44. Bit rate mode : Constant

  45. Bit rate : 640 kb/s

  46. Channel(s) : 6 channels

  47. Channel layout : L R C LFE Ls Rs

  48. Sampling rate : 48.0 kHz

  49. Frame rate : 31.250 FPS (1536 SPF)

  50. Compression mode : Lossy

  51. Stream size : 306 MiB (9%)

  52. Language : English

  53. Service kind : Complete Main

  54. Default : Yes

  55. Forced : No

  56. Text #1

  57. ID : 3

  58. Format : PGS

  59. Muxing mode : zlib

  60. Codec ID : S_HDMV/PGS

  61. Codec ID/Info : Picture based subtitle format used on BDs/HD-DVDs

  62. Duration : 1 h 4 min

  63. Bit rate : 12.7 kb/s

  64. Count of elements : 943

  65. Stream size : 5.84 MiB (0%)

  66. Language : English

  67. Default : Yes

  68. Forced : No

  69. Text #2

  70. ID : 4

  71. Format : PGS

  72. Muxing mode : zlib

  73. Codec ID : S_HDMV/PGS

  74. Codec ID/Info : Picture based subtitle format used on BDs/HD-DVDs

  75. Duration : 1 h 5 min

  76. Bit rate : 9 257 b/s

  77. Count of elements : 540

  78. Stream size : 4.34 MiB (0%)

  79. Language : Chinese

  80. Default : No

  81. Forced : No

  82. Menu

  83. 00:00:00.000 : en:Chapter 01 / en:第 01 章

  84. 00:05:34.720 : en:Chapter 02

  85. 00:11:56.000 : en:Chapter 03

  86. 00:15:33.520 : en:Chapter 04

  87. 00:21:27.040 : en:Chapter 05

  88. 00:27:16.520 : en:Chapter 06

  89. 00:35:55.600 : en:Chapter 07

  90. 00:42:30.960 : en:Chapter 08

  91. 00:47:38.000 : en:Chapter 09

  92. 00:52:32.920 : en:Chapter 10

  93. 00:56:45.120 : en:Chapter 11

  94. 01:01:56.800 : en:Chapter 12


复制代码



文件下载


除非特别注明,本文『九歌[中英字幕].Nine.Songs.2004.BluRay.1080p.x265.10bit-MiniHD 3.40GB』来源于互联网机器人自动抓取,非本站原创。 浮游电影网不对本文拥有版权,如有侵犯,请联系邮箱:fuyouu#yandex.com[#换成@]投诉。我们会在15个工作日内删除。 但烦请转载时请标明出处:“本文转载于『浮游电影网』,原文地址:https://www.fuyouu.com/22614.html

评论吧骚年!

发表你的见解   

昵称*

E-mail*(建议输入,以便收到博主回复的提示邮件)

验证码*

您可以使用eMule或eMule Mod(Windows)、aMule(Win、Linux、Mac)等软件下载eD2k链接。。
eMule收藏集(.emulecollection)文件是您选中的所有链接的列表文件。eMule可以直接下载它们。
按住SHIFT键选择可以选中多个选择框。
可用文件名和大小选择器来选择文件。
文件名选择器帮您根据文件名称或后缀来选择文件。不分大小写。
符号使用:
和:空格( )、+
不包含:-
或:|
转义:一对英文引号("");
匹配开头:^
匹配结尾:$
例如:
选中所有名称中包含有“eMule”或“0.49c”字眼,但不包含有“exe”字眼的:emule|0.49c -exe
选中所有名称的开头是“eMule”,结尾是“0.49c”的:^emule 0.49c$
选中所有名称中带有“eMule 0.49c”的(必须是“eMule 0.49c”,中间没有别的字符,不能是“eMule fake 0.49c”),需要转义:"emule 0.49c"
大小选择器帮您根据文件大小选择文件。