当前位置: 首页 >> 海外电影 >> 相识风雨中[中文字幕].A.Stormy.Night.2020.1080p.AMZN.WEBRip.DDP2.0.x264-WELP 2.95GB >> 正文

相识风雨中[中文字幕].A.Stormy.Night.2020.1080p.AMZN.WEBRip.DDP2.0.x264-WELP 2.95GB

2022年07月03日 17:00:30     电影发布:来源于网络     电影分类:海外电影     评论(0)    

相识风雨中[中文字幕].A.Stormy.Night.2020.1080p.AMZN.WEBRip.DDP2.0.x264 WELP 2.95GB  海外电影  第1张

相识风雨中[中文字幕].A.Stormy.Night.2020.1080p.AMZN.WEBRip.DDP2.0.x264 WELP 2.95GB  海外电影  第2张

◎译 名 相识风雨中 / 暴风雨夜爱上你(台)

◎片 名 A Stormy Night

◎年 代 2020

◎产 地 西班牙

◎类 别 剧情

◎语 言 英语 / 西班牙语 / 加泰罗尼亚语

◎上映日期 2020-04-30(巴塞罗那电影节)

◎IMDb链接 https://www.imdb.com/title/tt10264878/

◎豆瓣评分 6.1/10 (439人评价)

◎豆瓣链接 https://movie.douban.com/subject/35032309/

◎片 长 75分钟

◎导 演 戴维·莫拉加斯 David Moragas (id:1452257)

◎编 剧 戴维·莫拉加斯 David Moragas (id:1452257)

◎演 员 戴维·莫拉加斯 David Moragas (id:1452257)

Jordan Geiger Jordan Geiger (id:1312028)

埃琳娜·马丁 Elena Martín (id:1448530)

尼克·涅翁 Nick Neon (id:1386675)

◎简 介

马科斯登陆纽约,却发现他飞往旧金山的中转航班已被取消。无处可去,他和一个完全陌生的人艾伦(Alan)住进朋友的公寓。

  1. Video

  2. ID : 1

  3. Format : AVC

  4. Format/Info : Advanced Video Codec

  5. Format profile : [email protected]

  6. Format settings : CABAC / 4 Ref Frames

  7. Format settings, CABAC : Yes

  8. Format settings, Reference frames : 4 frames

  9. Codec ID : V_MPEG4/ISO/AVC

  10. Duration : 1 h 16 min

  11. Bit rate mode : Constant

  12. Bit rate : 5 274 kb/s

  13. Nominal bit rate : 10 000 kb/s

  14. Width : 1 920 pixels

  15. Height : 1 080 pixels

  16. Display aspect ratio : 16:9

  17. Frame rate mode : Constant

  18. Frame rate : 23.976 (24000/1001/53354) FPS

  19. Color space : YUV

  20. Chroma subsampling : 4:2:0

  21. Bit depth : 8 bits

  22. Scan type : Progressive

  23. Bits/(Pixel*Frame) : 0.106

  24. Stream size : 2.83 GiB (96%)

  25. Default : Yes

  26. Forced : No

  27. Color range : Limited

  28. Color primaries : BT.709

  29. Transfer characteristics : BT.709

  30. Matrix coefficients : BT.709


  31. Audio

  32. ID : 2

  33. Format : E-AC-3

  34. Format/Info : Enhanced AC-3

  35. Commercial name : Dolby Digital Plus

  36. Codec ID : A_EAC3

  37. Duration : 1 h 16 min

  38. Bit rate mode : Constant

  39. Bit rate : 224 kb/s

  40. Channel(s) : 2 channels

  41. Channel layout : L R

  42. Sampling rate : 48.0 kHz

  43. Frame rate : 31.250 FPS (1536 SPF)

  44. Compression mode : Lossy

  45. Stream size : 123 MiB (4%)

  46. Language : English

  47. Service kind : Complete Main

  48. Default : Yes

  49. Forced : No


  50. Text #1

  51. ID : 3

  52. Format : UTF-8

  53. Codec ID : S_TEXT/UTF8

  54. Codec ID/Info : UTF-8 Plain Text

  55. Duration : 1 h 12 min

  56. Bit rate : 53 b/s

  57. Count of elements : 1107

  58. Stream size : 28.5 KiB (0%)

  59. Language : English

  60. Default : No

  61. Forced : No


  62. Text #2

  63. ID : 4

  64. Format : UTF-8

  65. Codec ID : S_TEXT/UTF8

  66. Codec ID/Info : UTF-8 Plain Text

  67. Duration : 1 h 16 min

  68. Bit rate : 54 b/s

  69. Count of elements : 1193

  70. Stream size : 30.7 KiB (0%)

  71. Title : SDH

  72. Language : English

  73. Default : No

  74. Forced : No


  75. Text #3

  76. ID : 5

  77. Format : UTF-8

  78. Codec ID : S_TEXT/UTF8

  79. Codec ID/Info : UTF-8 Plain Text

  80. Duration : 1 h 15 min

  81. Bit rate : 48 b/s

  82. Count of elements : 813

  83. Stream size : 27.2 KiB (0%)

  84. Language : German

  85. Default : No

  86. Forced : No


  87. Text #4

  88. ID : 6

  89. Format : UTF-8

  90. Codec ID : S_TEXT/UTF8

  91. Codec ID/Info : UTF-8 Plain Text

  92. Duration : 1 h 12 min

  93. Bit rate : 58 b/s

  94. Count of elements : 991

  95. Stream size : 31.2 KiB (0%)

  96. Language : Spanish

  97. Default : No

  98. Forced : No


  99. Text #5

  100. ID : 7

  101. Format : UTF-8

  102. Codec ID : S_TEXT/UTF8

  103. Codec ID/Info : UTF-8 Plain Text

  104. Duration : 1 h 12 min

  105. Bit rate : 56 b/s

  106. Count of elements : 991

  107. Stream size : 30.2 KiB (0%)

  108. Language : Indonesian

  109. Default : No

  110. Forced : No


  111. Text #6

  112. ID : 8

  113. Format : UTF-8

  114. Codec ID : S_TEXT/UTF8

  115. Codec ID/Info : UTF-8 Plain Text

  116. Duration : 1 h 13 min

  117. Bit rate : 137 b/s

  118. Count of elements : 957

  119. Stream size : 73.9 KiB (0%)

  120. Language : Thai

  121. Default : No

  122. Forced : No


  123. Text #7

  124. ID : 9

  125. Format : UTF-8

  126. Codec ID : S_TEXT/UTF8

  127. Codec ID/Info : UTF-8 Plain Text

  128. Duration : 1 h 12 min

  129. Bit rate : 49 b/s

  130. Count of elements : 956

  131. Stream size : 26.2 KiB (0%)

  132. Title : Simplified

  133. Language : Chinese

  134. Default : No

  135. Forced : No


  136. Text #8

  137. ID : 10

  138. Format : UTF-8

  139. Codec ID : S_TEXT/UTF8

  140. Codec ID/Info : UTF-8 Plain Text

  141. Duration : 1 h 12 min

  142. Bit rate : 49 b/s

  143. Count of elements : 956

  144. Stream size : 26.2 KiB (0%)

  145. Title : Traditional

  146. Language : Chinese

  147. Default : No

  148. Forced : No

复制代码

相识风雨中[中文字幕].A.Stormy.Night.2020.1080p.AMZN.WEBRip.DDP2.0.x264 WELP 2.95GB  海外电影  第3张 相识风雨中[中文字幕].A.Stormy.Night.2020.1080p.AMZN.WEBRip.DDP2.0.x264 WELP 2.95GB  海外电影  第4张 相识风雨中[中文字幕].A.Stormy.Night.2020.1080p.AMZN.WEBRip.DDP2.0.x264 WELP 2.95GB  海外电影  第5张



文件下载


除非特别注明,本文『相识风雨中[中文字幕].A.Stormy.Night.2020.1080p.AMZN.WEBRip.DDP2.0.x264-WELP 2.95GB』来源于互联网机器人自动抓取,非本站原创。 浮游电影网不对本文拥有版权,如有侵犯,请联系邮箱:fuyouu#yandex.com[#换成@]投诉。我们会在15个工作日内删除。 但烦请转载时请标明出处:“本文转载于『浮游电影网』,原文地址:https://www.fuyouu.com/22613.html

评论吧骚年!

发表你的见解   

昵称*

E-mail*(建议输入,以便收到博主回复的提示邮件)

验证码*

您可以使用eMule或eMule Mod(Windows)、aMule(Win、Linux、Mac)等软件下载eD2k链接。。
eMule收藏集(.emulecollection)文件是您选中的所有链接的列表文件。eMule可以直接下载它们。
按住SHIFT键选择可以选中多个选择框。
可用文件名和大小选择器来选择文件。
文件名选择器帮您根据文件名称或后缀来选择文件。不分大小写。
符号使用:
和:空格( )、+
不包含:-
或:|
转义:一对英文引号("");
匹配开头:^
匹配结尾:$
例如:
选中所有名称中包含有“eMule”或“0.49c”字眼,但不包含有“exe”字眼的:emule|0.49c -exe
选中所有名称的开头是“eMule”,结尾是“0.49c”的:^emule 0.49c$
选中所有名称中带有“eMule 0.49c”的(必须是“eMule 0.49c”,中间没有别的字符,不能是“eMule fake 0.49c”),需要转义:"emule 0.49c"
大小选择器帮您根据文件大小选择文件。