当前位置: 首页 >> 海外电影 >> 爱恋[中文字幕].Love.2015.BluRay.1080p.x265.10bit-MiniHD 5.71GB >> 正文

爱恋[中文字幕].Love.2015.BluRay.1080p.x265.10bit-MiniHD 5.71GB

2022年07月02日 22:54:43     电影发布:来源于网络     电影分类:海外电影     评论(0)    

◎标 题 爱恋

◎译 名 劲凹3D(港) / 性本爱(台) / 爱恋3D

◎片 名 Love

◎年 代 2015

◎产 地 法国 / 比利时

◎类 别 剧情 / 爱情 / 情色

◎语 言 英语

◎上映日期 2015-05-20(戛纳电影节) / 2015-07-15(法国)

◎IMDb评分 6/10 (57158人评价)

◎IMDb链接 https://www.imdb.com/title/tt3774694/

◎豆瓣评分 6.8/10 (25637人评价)

◎豆瓣链接 https://movie.douban.com/subject/25933898/

◎片 长 135分钟

◎导 演 加斯帕·诺 Gaspar Noé

◎编 剧 加斯帕·诺 Gaspar Noé

◎演 员 卡尔·格洛斯曼 Karl Glusman

黛博拉·海薇 Déborah Révy

奥米·穆尤克 Aomi Muyock

克拉拉·克里斯汀 Klara Kristin

贝努瓦·戴比 Benoît Debie

文森特·马拉瓦尔 Vincent Maraval

胡安·萨维德拉 Juan Saavedra

阿隆·佩奇斯 Aaron Pages

伊莎贝尔·尼库 Isabelle Nicou

斯黛拉·罗夏 Stella Rocha

加斯帕·诺 Gaspar Noé

加斯帕·诺 Gaspar Noé

加斯帕·诺 Gaspar Noé

艾丹·亚历山大 Aidan Alexander

◎简 介

曾携手莫妮卡·贝鲁奇和文森特·卡索以电影《不可撤销》轰动戛纳的导演加斯帕·诺携新作《爱恋3D》重返戛纳,影片聚焦一男两女的情欲爱情,新人男主卡尔·格洛斯曼单挑大梁,让影片备受关注。影片入围第68届戛纳电影节午夜展映单元和酷儿棕榈单元。

  1. ##### MediaInfo ######

  2. General

  3. Unique ID : 29182582249795595642694896226582228577 (0x15F45C64011108857ECD97880ED96E61)

  4. Complete name : Love.2015.BluRay.1080p.x265.10bit-MiniHD.mkv

  5. Format : Matroska

  6. Format version : Version 4

  7. File size : 5.71 GiB

  8. Duration : 2 h 15 min

  9. Overall bit rate : 6 041 kb/s

  10. Encoded date : UTC 2018-06-02 10:35:29

  11. Writing application : mkvmerge v23.0.0 ('The Bride Said No') 64-bit

  12. Writing library : libebml v1.3.6 + libmatroska v1.4.9

  13. Video

  14. ID : 1

  15. Format : HEVC

  16. Format/Info : High Efficiency Video Coding

  17. Format profile : Main [email protected]@High

  18. Codec ID : V_MPEGH/ISO/HEVC

  19. Duration : 2 h 15 min

  20. Bit rate : 5 381 kb/s

  21. Width : 1 920 pixels

  22. Height : 804 pixels

  23. Display aspect ratio : 2.40:1

  24. Frame rate mode : Constant

  25. Frame rate : 23.976 (24000/1001/53354) FPS

  26. Color space : YUV

  27. Chroma subsampling : 4:2:0

  28. Bit depth : 10 bits

  29. Bits/(Pixel*Frame) : 0.145

  30. Stream size : 5.08 GiB (89%)

  31. Writing library : x265 2.8+1-478bfe2b7673:[Windows][GCC 7.3.0][64 bit] 10bit

  32. Encoding settings : cpuid=533541111039 / frame-threads=3 / numa-pools=8 / wpp / no-pmode / no-pme / no-psnr / no-ssim / log-level=2 / input-csp=1 / input-res=1920x804 / interlace=0 / total-frames=194564 / level-idc=0 / high-tier=1 / uhd-bd=0 / ref=5 / no-allow-non-conformance / no-repeat-headers / annexb / no-aud / no-hrd / info / hash=0 / no-temporal-layers / no-open-gop / min-keyint=1 / keyint=360 / gop-lookahead=0 / bframes=9 / b-adapt=2 / b-pyramid / bframe-bias=0 / rc-lookahead=48 / lookahead-slices=4 / NTMzNTQ=uuDQuD2mJt9fsCf / scenecut=40 / radl=0 / no-intra-refresh / ctu=32 / min-cu-size=8 / no-rect / no-amp / max-tu-size=32 / tu-inter-depth=2 / tu-intra-depth=2 / limit-tu=4 / rdoq-level=1 / dynamic-rd=0.00 / no-ssim-rd / signhide / no-tskip / nr-intra=0 / nr-inter=0 / no-constrained-intra / no-strong-intra-smoothing / max-merge=3 / limit-refs=2 / limit-modes / me=3 / subme=5 / merange=25 / temporal-mvp / weightp / weightb / no-analyze-src-pics / deblock=-1:-1 / no-sao / no-sao-non-deblock / rd=4 / no-early-skip / no-rskip / no-fast-intra / no-tskip-fast / no-cu-lossless / b-intra / no-splitrd-skip / rdpenalty=1 / psy-rd=2.00 / psy-rdoq=5.00 / no-rd-refine / no-lossless / cbqpoffs=-3 / crqpoffs=-3 / rc=crf / crf=19.0 / qcomp=0.65 / qpstep=4 / stats-write=0 / stats-read=0 / vbv-maxrate=40000 / vbv-bufsize=40000 / vbv-init=0.9 / crf-max=0.0 / crf-min=0.0 / ipratio=1.40 / pbratio=1.30 / aq-mode=2 / aq-strength=0.80 / cutree / zone-count=0 / no-strict-cbr / qg-size=32 / no-rc-grain / qpmax=69 / qpmin=0 / no-const-vbv / sar=1 / overscan=0 / videoformat=5 / range=0 / colorprim=1 / transfer=1 / colormatrix=1 / chromaloc=0 / display-window=0 / max-cll=0,0 / min-luma=0 / max-luma=1023 / log2-max-poc-lsb=8 / vui-timing-info / vui-hrd-info / slices=1 / no-opt-qp-pps / no-opt-ref-list-length-pps / no-multi-pass-opt-rps / scenecut-bias=0.05 / no-opt-cu-delta-qp / no-aq-motion / no-hdr / no-hdr-opt / no-dhdr10-opt / no-idr-recovery-sei / analysis-reuse-level=5 / scale-factor=0 / refine-intra=0 / refine-inter=0 / refine-mv=0 / no-limit-sao / ctu-info=0 / no-lowpass-dct / refine-mv-type=0 / copy-pic=1 / max-ausize-factor=1.0 / no-dynamic-refine / no-single-sei

  33. Default : Yes

  34. Forced : No

  35. Color range : Limited

  36. Color primaries : BT.709

  37. Transfer characteristics : BT.709

  38. Matrix coefficients : BT.709

  39. Audio

  40. ID : 2

  41. Format : AC-3

  42. Format/Info : Audio Coding 3

  43. Commercial name : Dolby Digital

  44. Codec ID : A_AC3

  45. Duration : 2 h 15 min

  46. Bit rate mode : Constant

  47. Bit rate : 640 kb/s

  48. Channel(s) : 6 channels

  49. Channel layout : L R C LFE Ls Rs

  50. Sampling rate : 48.0 kHz

  51. Frame rate : 31.250 FPS (1536 SPF)

  52. Compression mode : Lossy

  53. Stream size : 619 MiB (11%)

  54. Service kind : Complete Main

  55. Default : Yes

  56. Forced : No

  57. Text #1

  58. ID : 3

  59. Format : PGS

  60. Muxing mode : zlib

  61. Codec ID : S_HDMV/PGS

  62. Codec ID/Info : Picture based subtitle format used on BDs/HD-DVDs

  63. Duration : 2 h 11 min

  64. Bit rate : 16.7 kb/s

  65. Count of elements : 2602

  66. Stream size : 15.7 MiB (0%)

  67. Language : French

  68. Default : Yes

  69. Forced : No

  70. Text #2

  71. ID : 4

  72. Format : PGS

  73. Muxing mode : zlib

  74. Codec ID : S_HDMV/PGS

  75. Codec ID/Info : Picture based subtitle format used on BDs/HD-DVDs

  76. Duration : 2 h 8 min

  77. Bit rate : 26.1 kb/s

  78. Count of elements : 2676

  79. Stream size : 24.0 MiB (0%)

  80. Language : Chinese

  81. Default : No

  82. Forced : No


复制代码



文件下载


除非特别注明,本文『爱恋[中文字幕].Love.2015.BluRay.1080p.x265.10bit-MiniHD 5.71GB』来源于互联网机器人自动抓取,非本站原创。 浮游电影网不对本文拥有版权,如有侵犯,请联系邮箱:fuyouu#yandex.com[#换成@]投诉。我们会在15个工作日内删除。 但烦请转载时请标明出处:“本文转载于『浮游电影网』,原文地址:https://www.fuyouu.com/22603.html

评论吧骚年!

发表你的见解   

昵称*

E-mail*(建议输入,以便收到博主回复的提示邮件)

验证码*

您可以使用eMule或eMule Mod(Windows)、aMule(Win、Linux、Mac)等软件下载eD2k链接。。
eMule收藏集(.emulecollection)文件是您选中的所有链接的列表文件。eMule可以直接下载它们。
按住SHIFT键选择可以选中多个选择框。
可用文件名和大小选择器来选择文件。
文件名选择器帮您根据文件名称或后缀来选择文件。不分大小写。
符号使用:
和:空格( )、+
不包含:-
或:|
转义:一对英文引号("");
匹配开头:^
匹配结尾:$
例如:
选中所有名称中包含有“eMule”或“0.49c”字眼,但不包含有“exe”字眼的:emule|0.49c -exe
选中所有名称的开头是“eMule”,结尾是“0.49c”的:^emule 0.49c$
选中所有名称中带有“eMule 0.49c”的(必须是“eMule 0.49c”,中间没有别的字符,不能是“eMule fake 0.49c”),需要转义:"emule 0.49c"
大小选择器帮您根据文件大小选择文件。