当前位置: 首页 >> 日韩电影 >> D坂杀人事件[国语音轨/中文字幕].Murder.on.D.Street.2015.BluRay.1080p.x265.10bit-MiniHD 5.64GB >> 正文

D坂杀人事件[国语音轨/中文字幕].Murder.on.D.Street.2015.BluRay.1080p.x265.10bit-MiniHD 5.64GB

2022年07月02日 22:52:09     电影发布:来源于网络     电影分类:日韩电影     评论(0)    

◎标 题 D坂杀人事件

◎译 名 Murder on D Street

◎片 名 D坂の殺人事件

◎年 代 2015

◎产 地 日本

◎类 别 悬疑 / 情色

◎语 言 日语

◎上映日期 2015-02-14(日本)

◎IMDb评分 5.2/10 (55人评价)

◎IMDb链接 https://www.imdb.com/title/tt4453498/

◎豆瓣评分 4.9/10 (2125人评价)

◎豆瓣链接 https://movie.douban.com/subject/26285780/

◎片 长 114分钟

◎导 演 窪田将治 Shoji Kubota

◎编 剧 窪田将治 Shoji Kubota

◎演 员 祥子 Shoko

河合龙之介 Kawai Ryunosuke

草野康太 Kouta Kusano

大谷英子 Eiko Ohtani

仁科贵 Takashi Nishina

近藤芳正 Yoshimasa Kondô

木下邦家 Houka Kinoshita

◎标 签 情色 / 日本 / 日本电影 / 犯罪 / 悬疑 / 江户川乱步 / 2015 / 推理

◎简 介

将1998年由实相时昭雄监督翻拍成电影的江户川乱步名作推理小说,全新翻拍的官能悬疑电影。

荞荞麦面店老板在D坂迷之死亡,警察虽然判定是自杀,但是名侦探明治小五郎与其妻子文代认为是他杀,而独自展开调查。

最终与事件关联的人们之间令人战栗的爱憎与激烈情欲浮出水面。

由详细身 世还未公开,在周刊ポスト上连载的卷首企划[迷之美女系列 祥子的故事]中登场而备受瞩目的祥子来主演。

她也会挑战刺激的湿透场景和SM镜头。

  1. ##### MediaInfo ######

  2. General

  3. Unique ID : 55164468400148569646423187227432419871 (0x29804A47A69D084D1067044F588F821F)

  4. Complete name : Murder.on.D.Street.2015.BluRay.1080p.x265.10bit-MiniHD.mkv

  5. Format : Matroska

  6. Format version : Version 4

  7. File size : 5.64 GiB

  8. Duration : 1 h 55 min

  9. Overall bit rate : 6 993 kb/s

  10. Encoded date : UTC 2018-06-28 03:08:35

  11. Writing application : mkvmerge v24.0.0 ('Beyond The Pale') 64-bit

  12. Writing library : libebml v1.3.6 + libmatroska v1.4.9

  13. Video

  14. ID : 1

  15. Format : HEVC

  16. Format/Info : High Efficiency Video Coding

  17. Format profile : Main [email protected]@Main

  18. Codec ID : V_MPEGH/ISO/HEVC

  19. Duration : 1 h 55 min

  20. Bit rate : 6 346 kb/s

  21. Width : 1 920 pixels

  22. Height : 1 080 pixels

  23. Display aspect ratio : 16:9

  24. Frame rate mode : Constant

  25. Frame rate : 23.976 (24000/1001/53354) FPS

  26. Color space : YUV

  27. Chroma subsampling : 4:2:0

  28. Bit depth : 10 bits

  29. Bits/(Pixel*Frame) : 0.128

  30. Stream size : 5.12 GiB (91%)

  31. Writing library : x265 2.7+1-2aa737a99f51:[Windows][GCC 7.3.0][64 bit] 10bit

  32. Encoding settings : cpuid=533541173503 / frame-threads=4 / numa-pools=16 / wpp / no-pmode / no-pme / no-psnr / no-ssim / log-level=2 / input-csp=1 / input-res=1920x1080 / interlace=0 / total-frames=166032 / level-idc=0 / high-tier=1 / uhd-bd=0 / ref=5 / no-allow-non-conformance / no-repeat-headers / annexb / no-aud / no-hrd / info / hash=0 / no-temporal-layers / no-open-gop / min-keyint=1 / keyint=360 / gop-lookahead=0 / bframes=8 / b-adapt=2 / b-pyramid / bframe-bias=0 / rc-lookahead=60 / lookahead-slices=4 / NTMzNTQ=uuDQuD2mJt9fsCf / scenecut=40 / radl=0 / no-intra-refresh / ctu=32 / min-cu-size=8 / rect / no-amp / max-tu-size=16 / tu-inter-depth=2 / tu-intra-depth=2 / limit-tu=4 / rdoq-level=1 / dynamic-rd=0.00 / no-ssim-rd / signhide / no-tskip / nr-intra=0 / nr-inter=0 / no-constrained-intra / no-strong-intra-smoothing / max-merge=3 / limit-refs=2 / limit-modes / me=3 / subme=5 / merange=25 / temporal-mvp / weightp / weightb / no-analyze-src-pics / deblock=-1:-1 / no-sao / no-sao-non-deblock / rd=4 / no-early-skip / rskip / no-fast-intra / no-tskip-fast / no-cu-lossless / b-intra / no-splitrd-skip / rdpenalty=1 / psy-rd=2.00 / psy-rdoq=5.00 / no-rd-refine / no-lossless / cbqpoffs=-2 / crqpoffs=-2 / rc=crf / crf=17.0 / qcomp=0.65 / qpstep=4 / stats-write=0 / stats-read=0 / ipratio=1.40 / pbratio=1.30 / aq-mode=3 / aq-strength=0.90 / cutree / zone-count=0 / no-strict-cbr / qg-size=16 / no-rc-grain / qpmax=69 / qpmin=0 / no-const-vbv / sar=1 / overscan=0 / videoformat=5 / range=0 / colorprim=1 / transfer=2 / colormatrix=2 / chromaloc=0 / display-window=0 / max-cll=0,0 / min-luma=0 / max-luma=1023 / log2-max-poc-lsb=8 / vui-timing-info / vui-hrd-info / slices=1 / no-opt-qp-pps / no-opt-ref-list-length-pps / no-multi-pass-opt-rps / scenecut-bias=0.05 / no-opt-cu-delta-qp / no-aq-motion / no-hdr / no-hdr-opt / no-dhdr10-opt / analysis-reuse-level=5 / scale-factor=0 / refine-intra=0 / refine-inter=0 / refine-mv=0 / no-limit-sao / ctu-info=0 / no-lowpass-dct / refine-mv-type=0 / copy-pic=1

  33. Default : Yes

  34. Forced : No

  35. Color range : Limited

  36. Color primaries : BT.709

  37. Audio

  38. ID : 4

  39. Format : AC-3

  40. Format/Info : Audio Coding 3

  41. Commercial name : Dolby Digital

  42. Codec ID : A_AC3

  43. Duration : 1 h 55 min

  44. Bit rate mode : Constant

  45. Bit rate : 640 kb/s

  46. Channel(s) : 2 channels

  47. Channel layout : L R

  48. Sampling rate : 48.0 kHz

  49. Frame rate : 31.250 FPS (1536 SPF)

  50. Compression mode : Lossy

  51. Stream size : 528 MiB (9%)

  52. Language : Chinese

  53. Service kind : Complete Main

  54. Default : Yes

  55. Forced : No

  56. Text #1

  57. ID : 2

  58. Format : PGS

  59. Muxing mode : zlib

  60. Codec ID : S_HDMV/PGS

  61. Codec ID/Info : Picture based subtitle format used on BDs/HD-DVDs

  62. Duration : 1 h 52 min

  63. Bit rate : 9 315 b/s

  64. Count of elements : 1352

  65. Stream size : 7.47 MiB (0%)

  66. Language : Japanese

  67. Default : Yes

  68. Forced : No

  69. Text #2

  70. ID : 3

  71. Format : PGS

  72. Muxing mode : zlib

  73. Codec ID : S_HDMV/PGS

  74. Codec ID/Info : Picture based subtitle format used on BDs/HD-DVDs

  75. Duration : 5 min 35 s

  76. Bit rate : 17.4 kb/s

  77. Count of elements : 77

  78. Stream size : 714 KiB (0%)

  79. Language : Chinese

  80. Default : No

  81. Forced : No

  82. Menu

  83. 00:00:00.000 : en:Chapter 01 / en:第 01 章

  84. 00:13:35.953 : en:Chapter 02

  85. 00:22:51.050 : en:Chapter 03

  86. 00:34:26.245 : en:Chapter 04

  87. 00:42:39.029 : en:Chapter 05

  88. 00:55:46.732 : en:Chapter 06

  89. 01:04:06.398 : en:Chapter 07

  90. 01:21:08.835 : en:Chapter 08

  91. 01:35:16.391 : en:Chapter 09

  92. 01:50:37.770 : en:Chapter 10

  93. 01:55:30.923 : en:Chapter 11


复制代码




文件下载


除非特别注明,本文『D坂杀人事件[国语音轨/中文字幕].Murder.on.D.Street.2015.BluRay.1080p.x265.10bit-MiniHD 5.64GB』来源于互联网机器人自动抓取,非本站原创。 浮游电影网不对本文拥有版权,如有侵犯,请联系邮箱:fuyouu#yandex.com[#换成@]投诉。我们会在15个工作日内删除。 但烦请转载时请标明出处:“本文转载于『浮游电影网』,原文地址:https://www.fuyouu.com/22600.html

评论吧骚年!

发表你的见解   

昵称*

E-mail*(建议输入,以便收到博主回复的提示邮件)

验证码*

您可以使用eMule或eMule Mod(Windows)、aMule(Win、Linux、Mac)等软件下载eD2k链接。。
eMule收藏集(.emulecollection)文件是您选中的所有链接的列表文件。eMule可以直接下载它们。
按住SHIFT键选择可以选中多个选择框。
可用文件名和大小选择器来选择文件。
文件名选择器帮您根据文件名称或后缀来选择文件。不分大小写。
符号使用:
和:空格( )、+
不包含:-
或:|
转义:一对英文引号("");
匹配开头:^
匹配结尾:$
例如:
选中所有名称中包含有“eMule”或“0.49c”字眼,但不包含有“exe”字眼的:emule|0.49c -exe
选中所有名称的开头是“eMule”,结尾是“0.49c”的:^emule 0.49c$
选中所有名称中带有“eMule 0.49c”的(必须是“eMule 0.49c”,中间没有别的字符,不能是“eMule fake 0.49c”),需要转义:"emule 0.49c"
大小选择器帮您根据文件大小选择文件。