当前位置: 首页 >> 国产电影 >> 西游记女儿国[共3部合集][国粤英多音轨/简繁英字幕].The.Monkey.King.2014-2018.BluRay.1080p.2Audio.DTS-HD.MA.7.1.x265.10bit-A >> 正文

西游记女儿国[共3部合集][国粤英多音轨/简繁英字幕].The.Monkey.King.2014-2018.BluRay.1080p.2Audio.DTS-HD.MA.7.1.x265.10bit-A

2022年07月01日 19:38:59     电影发布:来源于网络     电影分类:国产电影     评论(0)    

西游记女儿国[共3部合集][国粤英多音轨/简繁英字幕].The.Monkey.King.2014-2018.BluRay.1080p.2Audio.DTS-HD.MA.7.1.x265.10bit-ALT 39.82GB

◎标 题 西游记女儿国

◎译 名 西游记·女儿国 / 西游记之女儿国 / The Monkey King 3: Kingdom of Women

◎年 代 2018

◎产 地 中国大陆 / 中国香港

◎类 别 喜剧 / 爱情 / 奇幻

◎语 言 汉语普通话

◎上映日期 2018-02-16(中国大陆)

◎IMDb评分 5.5/10 (1462人评价)

◎IMDb链接 https://www.imdb.com/title/tt6466464/

◎豆瓣评分 4.4/10 (144411人评价)

◎豆瓣链接 https://movie.douban.com/subject/25829175/

◎片 长 116分钟

◎导 演 郑保瑞 Pou-Soi Cheang

◎编 剧 文宁 Ning Wen

吴承恩 Cheng'en Wu

◎演 员 郭富城 Aaron Kwok

冯绍峰 Shaofeng Feng

赵丽颖 Liying Zhao

小沈阳 Xiao Shen-Yang

罗子溢 Chung Him Law

林志玲 Chiling Lin

梁咏琪 Gigi Leung

刘涛 Tao Liu

孙伊涵 Yihan Sun

苑琼丹 King-Tan Yuen

潘斌龙 Binlong Pan

陈雅丽 Allie Chan

施诗 Shi Shi

苏丽珊 Cecilia So

苏菲 Fei Su

马赛 Sire Ma

汤畅 Chang Tang

管乐 Le Guan

孙若淇 Ruoqi Sun

王路晴 Luqing Wang

李谯玉 Qiaoyu Li

彭必瑶 Biyao Peng

张籽沐 Zimu Zhang

王海峰 Hoifung Wong

任雅静 Léa Ren

赵英俊 Yingjun Zhao

安德拉斯·伊克拉迪 Andras Ikladi

Branden Juwon Lee Branden Juwon Lee

Jay Seung Jaegal Jay Seung Jaegal

Sung-jin Jung Sung-jin Jung

◎简 介

唐僧师徒途经忘川河,因激怒河神而误入西梁女界。闯入其中,众人才发现这个国家只有女性,并且建国以来此地就没来过男性。而且国中立有祖训,将男人视为天敌。典籍中更有预言,指明有朝一日,会有东土而来的僧人带着一只猴子、一头猪和一个小蓝人闯入其中。他们到来之日,便是女儿国走向毁灭之时。

  1. 合集文件列表:

  2. 1.The.Monkey.King.3.Kingdom.of.Women.2018.BluRay.1080p.2Audio.DTS-HD.MA.7.1.x265.10bit-ALT.mkv 16.65GB

  3. 2.The.Monkey.King.2014.BluRay.1080p.2Audio.DTS-HD.MA.5.1.x265.10bit-ALT.mkv 9.42GB

  4. 3.The.Monkey.King.the.Legend.Begins.2016.BluRay.1080p.2Audio.DTS-HD.MA.7.1.x265.10bit-ALT.mkv 13.75GB


复制代码

  1. ##### MediaInfo ######

  2. General

  3. Unique ID : 217976043719409382303535573848510770563 (0xA3FCA8B2A3CA9801313EBD37C2952D83)

  4. Complete name : The.Monkey.King.3.Kingdom.of.Women.2018.BluRay.1080p.2Audio.DTS-HD.MA.7.1.x265.10bit-ALT.mkv

  5. Format : Matroska

  6. Format version : Version 4

  7. File size : 16.7 GiB

  8. Duration : 1 h 53 min

  9. Overall bit rate mode : Variable

  10. Overall bit rate : 20.9 Mb/s

  11. Encoded date : UTC 2022-06-30 11:09:23

  12. Writing application : mkvmerge v49.0.0 ('Sick Of Losing Soulmates') 64-bit

  13. Writing library : libebml v1.4.0 + libmatroska v1.6.1

  14. Video

  15. ID : 1

  16. Format : HEVC

  17. Format/Info : High Efficiency Video Coding

  18. Format profile : Main [email protected]@High

  19. Codec ID : V_MPEGH/ISO/HEVC

  20. Duration : 1 h 53 min

  21. Bit rate : 9 567 kb/s

  22. Width : 1 920 pixels

  23. Height : 1 038 pixels

  24. Display aspect ratio : 1.85:1

  25. Frame rate mode : Constant

  26. Frame rate : 24.000 FPS

  27. Color space : YUV

  28. Chroma subsampling : 4:2:0

  29. Bit depth : 10 bits

  30. Bits/(Pixel*Frame) : 0.200

  31. Stream size : 7.61 GiB (46%)

  32. Title : HEVC, [email protected]@High, 24 fps @ 9567 kbps

  33. Writing library : x265 3.5+36-1f2c8da77:[Windows][GCC 11.2.0][64 bit] 10bit

  34. Encoding settings : cpuid=533541111039 / frame-threads=4 / numa-pools=20 / wpp / no-pmode / no-pme / no-psnr / no-ssim / log-level=2 / input-csp=1 / input-res=1920x1038 / interlace=0 / total-frames=164017 / level-idc=51 / high-tier=1 / uhd-bd=0 / ref=5 / no-allow-non-conformance / no-repeat-headers / annexb / no-aud / no-eob / no-eos / no-hrd / info / hash=0 / no-temporal-layers / open-gop / min-keyint=24 / keyint=240 / gop-lookahead=0 / bframes=6 / b-adapt=2 / b-pyramid / bframe-bias=0 / rc-lookahead=40 / lookahead-slices=0 / NTMzNTQ=uuDQuD2mJt9fsCf / scenecut=40 / no-hist-scenecut / radl=0 / no-splice / no-intra-refresh / ctu=32 / min-cu-size=8 / no-rect / no-amp / max-tu-size=32 / tu-inter-depth=3 / tu-intra-depth=3 / limit-tu=4 / rdoq-level=2 / dynamic-rd=0.00 / no-ssim-rd / signhide / no-tskip / nr-intra=0 / nr-inter=0 / no-constrained-intra / no-strong-intra-smoothing / max-merge=4 / limit-refs=1 / limit-modes / me=3 / subme=4 / merange=25 / temporal-mvp / no-frame-dup / no-hme / weightp / weightb / no-analyze-src-pics / deblock=-3:-3 / no-sao / no-sao-non-deblock / rd=6 / selective-sao=0 / no-early-skip / rskip / no-fast-intra / no-tskip-fast / no-cu-lossless / b-intra / no-splitrd-skip / rdpenalty=0 / psy-rd=2.00 / psy-rdoq=1.00 / no-rd-refine / no-lossless / cbqpoffs=-2 / crqpoffs=-2 / rc=crf / crf=18.0 / qcomp=0.65 / qpstep=4 / stats-write=0 / stats-read=0 / vbv-maxrate=80000 / vbv-bufsize=80000 / vbv-init=0.9 / min-vbv-fullness=50.0 / max-vbv-fullness=80.0 / crf-max=0.0 / crf-min=0.0 / ipratio=1.40 / pbratio=1.30 / aq-mode=2 / aq-strength=0.85 / cutree / zone-count=0 / no-strict-cbr / qg-size=32 / no-rc-grain / qpmax=69 / qpmin=0 / no-const-vbv / sar=1 / overscan=0 / videoformat=5 / range=0 / colorprim=1 / transfer=1 / colormatrix=1 / chromaloc=0 / display-window=0 / cll=0,0 / min-luma=0 / max-luma=1023 / log2-max-poc-lsb=8 / vui-timing-info / vui-hrd-info / slices=1 / no-opt-qp-pps / no-opt-ref-list-length-pps / no-multi-pass-opt-rps / scenecut-bias=0.05 / hist-threshold=0.03 / no-opt-cu-delta-qp / no-aq-motion / no-hdr10 / no-hdr10-opt / no-dhdr10-opt / no-idr-recovery-sei / analysis-reuse-level=0 / analysis-save-reuse-level=0 / analysis-load-reuse-level=0 / scale-factor=0 / refine-intra=0 / refine-inter=0 / refine-mv=1 / refine-ctu-distortion=0 / no-limit-sao / ctu-info=0 / no-lowpass-dct / refine-analysis-type=0 / copy-pic=1 / max-ausize-factor=1.0 / no-dynamic-refine / no-single-sei / no-hevc-aq / no-svt / no-field / qp-adaptation-range=1.00 / scenecut-aware-qp=0conformance-window-offsets / right=0 / bottom=0 / NTMzNTQ= / decoder-max-rate=0 / no-vbv-live-multi-pass

  35. Language : English

  36. Default : Yes

  37. Forced : No

  38. Color range : Limited

  39. Color primaries : BT.709

  40. Transfer characteristics : BT.709

  41. Matrix coefficients : BT.709

  42. Audio #1

  43. ID : 2

  44. Format : MLP FBA 16-ch

  45. Format/Info : Meridian Lossless Packing FBA with 16-channel presentation

  46. Commercial name : Dolby TrueHD with Dolby Atmos

  47. Codec ID : A_TRUEHD

  48. Duration : 1 h 53 min

  49. Bit rate mode : Variable

  50. Bit rate : 4 507 kb/s

  51. Maximum bit rate : 8 160 kb/s

  52. Channel(s) : 8 channels

  53. Channel layout : L R C LFE Ls Rs Lb Rb

  54. Sampling rate : 48.0 kHz

  55. Frame rate : 1 200.000 FPS (40 SPF)

  56. Compression mode : Lossless

  57. Stream size : 3.59 GiB (22%)

  58. Title : Cantonese Dolby TrueHD 7.1 (Atmos) @ 5147 kbps

  59. Language : Chinese

  60. Default : Yes

  61. Forced : No

  62. Number of dynamic objects : 11

  63. Bed channel count : 1 channel

  64. Bed channel configuration : LFE

  65. Audio #2

  66. ID : 3

  67. Format : AC-3

  68. Format/Info : Audio Coding 3

  69. Commercial name : Dolby Digital

  70. Codec ID : A_AC3

  71. Duration : 1 h 53 min

  72. Bit rate mode : Constant

  73. Bit rate : 640 kb/s

  74. Channel(s) : 6 channels

  75. Channel layout : L R C LFE Ls Rs

  76. Sampling rate : 48.0 kHz

  77. Frame rate : 31.250 FPS (1536 SPF)

  78. Compression mode : Lossy

  79. Stream size : 521 MiB (3%)

  80. Title : Cantonese AC3 5.1-EX @ 640 kbps

  81. Language : Chinese

  82. Service kind : Complete Main

  83. Default : No

  84. Forced : No

  85. Audio #3

  86. ID : 4

  87. Format : DTS XLL

  88. Format/Info : Digital Theater Systems

  89. Commercial name : DTS-HD Master Audio

  90. Codec ID : A_DTS

  91. Duration : 1 h 53 min

  92. Bit rate mode : Variable

  93. Bit rate : 6 099 kb/s

  94. Channel(s) : 8 channels

  95. Channel layout : C L R LFE Lb Rb Lss Rss

  96. Sampling rate : 48.0 kHz

  97. Frame rate : 93.750 FPS (512 SPF)

  98. Bit depth : 24 bits

  99. Compression mode : Lossless

  100. Stream size : 4.85 GiB (29%)

  101. Title : Mandarin DTS-HD Master Audio 7.1 @ 6099 kbps

  102. Language : Chinese

  103. Default : No

  104. Forced : No

  105. Text #1

  106. ID : 5

  107. Format : PGS

  108. Codec ID : S_HDMV/PGS

  109. Codec ID/Info : Picture based subtitle format used on BDs/HD-DVDs

  110. Duration : 1 h 48 min

  111. Bit rate : 16.5 kb/s

  112. Count of elements : 2320

  113. Stream size : 12.8 MiB (0%)

  114. Title : Cht/SUP 原盘繁体

  115. Language : Chinese

  116. Default : No

  117. Forced : No

  118. Text #2

  119. ID : 6

  120. Format : PGS

  121. Codec ID : S_HDMV/PGS

  122. Codec ID/Info : Picture based subtitle format used on BDs/HD-DVDs

  123. Duration : 1 h 48 min

  124. Bit rate : 15.4 kb/s

  125. Count of elements : 2320

  126. Stream size : 11.9 MiB (0%)

  127. Title : Chs/SUP 原盘简体

  128. Language : Chinese

  129. Default : Yes

  130. Forced : No

  131. Text #3

  132. ID : 7

  133. Format : PGS

  134. Codec ID : S_HDMV/PGS

  135. Codec ID/Info : Picture based subtitle format used on BDs/HD-DVDs

  136. Duration : 1 h 48 min

  137. Bit rate : 19.8 kb/s

  138. Count of elements : 2320

  139. Stream size : 15.3 MiB (0%)

  140. Title : Eng/SUP

  141. Language : English

  142. Default : No

  143. Forced : No

  144. Menu

  145. 00:00:00.000 : en:第 01 章

  146. 00:05:04.208 : en:第 02 章

  147. 00:09:29.208 : en:第 03 章

  148. 00:13:45.542 : en:第 04 章

  149. 00:17:20.333 : en:第 05 章

  150. 00:21:15.958 : en:第 06 章

  151. 00:27:02.125 : en:第 07 章

  152. 00:31:00.917 : en:第 08 章

  153. 00:35:58.667 : en:第 09 章

  154. 00:41:03.458 : en:第 10 章

  155. 00:48:11.792 : en:第 11 章

  156. 00:56:08.917 : en:第 12 章

  157. 01:01:48.875 : en:第 13 章

  158. 01:06:35.000 : en:第 14 章

  159. 01:14:08.625 : en:第 15 章

  160. 01:21:32.167 : en:第 16 章

  161. 01:29:08.375 : en:第 17 章

  162. 01:38:47.042 : en:第 18 章

  163. 01:44:41.875 : en:第 19 章

  164. 01:47:06.125 : en:第 20 章




文件下载


除非特别注明,本文『西游记女儿国[共3部合集][国粤英多音轨/简繁英字幕].The.Monkey.King.2014-2018.BluRay.1080p.2Audio.DTS-HD.MA.7.1.x265.10bit-A』来源于互联网机器人自动抓取,非本站原创。 浮游电影网不对本文拥有版权,如有侵犯,请联系邮箱:fuyouu#yandex.com[#换成@]投诉。我们会在15个工作日内删除。 但烦请转载时请标明出处:“本文转载于『浮游电影网』,原文地址:https://www.fuyouu.com/22598.html

评论吧骚年!

发表你的见解   

昵称*

E-mail*(建议输入,以便收到博主回复的提示邮件)

验证码*

您可以使用eMule或eMule Mod(Windows)、aMule(Win、Linux、Mac)等软件下载eD2k链接。。
eMule收藏集(.emulecollection)文件是您选中的所有链接的列表文件。eMule可以直接下载它们。
按住SHIFT键选择可以选中多个选择框。
可用文件名和大小选择器来选择文件。
文件名选择器帮您根据文件名称或后缀来选择文件。不分大小写。
符号使用:
和:空格( )、+
不包含:-
或:|
转义:一对英文引号("");
匹配开头:^
匹配结尾:$
例如:
选中所有名称中包含有“eMule”或“0.49c”字眼,但不包含有“exe”字眼的:emule|0.49c -exe
选中所有名称的开头是“eMule”,结尾是“0.49c”的:^emule 0.49c$
选中所有名称中带有“eMule 0.49c”的(必须是“eMule 0.49c”,中间没有别的字符,不能是“eMule fake 0.49c”),需要转义:"emule 0.49c"
大小选择器帮您根据文件大小选择文件。