当前位置: 首页 >> 日韩电影 >> 警官之血[中文字幕].The.Policemans.Lineage.2022.KOREAN.1080p.BluRay.x264.DTS-iKiW 13.67GB >> 正文

警官之血[中文字幕].The.Policemans.Lineage.2022.KOREAN.1080p.BluRay.x264.DTS-iKiW 13.67GB

2022年06月30日 09:22:56     电影发布:来源于网络     电影分类:日韩电影     评论(0)    

警官之血[中文字幕].The.Policemans.Lineage.2022.KOREAN.1080p.BluRay.x264.DTS iKiW 13.67GB  日韩电影  第1张

警官之血[中文字幕].The.Policemans.Lineage.2022.KOREAN.1080p.BluRay.x264.DTS iKiW 13.67GB  日韩电影  第2张

◎译 名 警官之血 / 无间对决(台) / The Policeman's Lineage

◎片 名 ??? ?

◎年 代 2022

◎产 地 韩国

◎类 别 剧情 / 犯罪

◎语 言 韩语

◎上映日期 2022-01-05(韩国)

◎IMDb链接 https://www.imdb.com/title/tt16676718/

◎豆瓣评分 6.4/10 (4291人评价)

◎豆瓣链接 https://movie.douban.com/subject/34869121/

◎片 长 119分钟

◎导 演 李揆万 Kyoo-man Lee (id:1320140)

◎编 剧 佐佐木让 J? Sasaki (id:1431591)

◎演 员 赵震雄 Cho Jin-woong (id:1322203)

崔宇植 Choi Woo-shik (id:1319427)

朴熙顺 Hee soon Park (id:1313668)

权律 Yool Kwan (id:1315057)

朴明勋 Myeong-hoon Park (id:1421141)

李挚 Eol Lee (id:1320863)

洪基俊 Ki-joon Hong (id:1382227)

李铉旭 Hyun-wook Lee (id:1421302)

白贤镇 Hyeon-jin Baek (id:1343667)

朴庭凡 Jung-bum Park (id:1319129)

张瑞京 Seo-kyung Jang (id:1445866)

◎简 介

电影由李圭满导演执导,改编自被称为警察推理巨作的同名日本小说,讲述不得已不成为警察的一家人的故事,将展现高密度的神秘推理。演员们已经进行过剧本研读,即将开机,预计2020年上映。

  1. Video

  2. ID : 1

  3. Format : AVC

  4. Format/Info : Advanced Video Codec

  5. Format profile : [email protected]

  6. Format settings : CABAC / 5 Ref Frames

  7. Format settings, CABAC : Yes

  8. Format settings, Reference frames : 5 frames

  9. Codec ID : V_MPEG4/ISO/AVC

  10. Duration : 1 h 59 min

  11. Bit rate : 14.8 Mb/s

  12. Width : 1 920 pixels

  13. Height : 804 pixels

  14. Display aspect ratio : 2.40:1

  15. Frame rate mode : Constant

  16. Frame rate : 23.976 (24000/1001/53354) FPS

  17. Color space : YUV

  18. Chroma subsampling : 4:2:0

  19. Bit depth : 8 bits

  20. Scan type : Progressive

  21. Bits/(Pixel*Frame) : 0.400

  22. Stream size : 12.4 GiB (90%)

  23. Writing library : x264 core 133 r2334 a3ac64b

  24. Encoding settings : cabac=1 / ref=5 / deblock=1:-3:-3 / analyse=0x3:0x113 / me=umh / subme=11 / psy=1 / psy_rd=1.00:0.05 / mixed_ref=1 / me_range=64 / chroma_me=1 / trellis=2 / 8x8dct=1 / cqm=0 / deadzone=21,11 / fast_pskip=1 / chroma_qp_offset=-5 / threads=36 / lookahead_threads=6 / sliced_threads=0 / nr=0 / decimate=0 / interlaced=0 / NTMzNTQ= / bluray_compat=0 / constrained_intra=0 / bframes=8 / b_pyramid=2 / b_adapt=2 / b_bias=0 / direct=3 / weightb=1 / open_gop=0 / weightp=2 / keyint=250 / keyint_min=23 / NTMzNTQ=uuDQuD2mJt9fsCf / scenecut=40 / intra_refresh=0 / rc=2pass / mbtree=0 / bitrate=14800 / ratetol=1.0 / qcomp=0.60 / qpmin=0 / qpmax=69 / qpstep=4 / cplxblur=20.0 / qblur=0.5 / NTMzNTQ=LmsMAP37EqsCpk / ip_ratio=1.40 / pb_ratio=1.30 / aq=1:0.80

  25. Language : English

  26. Default : Yes

  27. Forced : No


  28. Audio

  29. ID : 2

  30. Format : DTS

  31. Format/Info : Digital Theater Systems

  32. Codec ID : A_DTS

  33. Duration : 1 h 59 min

  34. Bit rate mode : Constant

  35. Bit rate : 1 509 kb/s

  36. Channel(s) : 6 channels

  37. Channel layout : C L R Ls Rs LFE

  38. Sampling rate : 48.0 kHz

  39. Frame rate : 93.750 FPS (512 SPF)

  40. Bit depth : 24 bits

  41. Compression mode : Lossy

  42. Stream size : 1.26 GiB (9%)

  43. Title : 韩语

  44. Language : Korean

  45. Default : Yes

  46. Forced : No


  47. Text #1

  48. ID : 3

  49. Format : UTF-8

  50. Codec ID : S_TEXT/UTF8

  51. Codec ID/Info : UTF-8 Plain Text

  52. Duration : 1 h 55 min

  53. Bit rate : 47 b/s

  54. Count of elements : 1426

  55. Stream size : 40.4 KiB (0%)

  56. Language : English

  57. Default : Yes

  58. Forced : No


  59. Text #2

  60. ID : 4

  61. Format : ASS

  62. Codec ID : S_TEXT/ASS

  63. Codec ID/Info : Advanced Sub Station Alpha

  64. Duration : 1 h 54 min

  65. Bit rate : 169 b/s

  66. Count of elements : 1503

  67. Compression mode : Lossless

  68. Stream size : 142 KiB (0%)

  69. Title : chs

  70. Language : Chinese

  71. Default : No

  72. Forced : No


  73. Text #3

  74. ID : 5

  75. Format : ASS

  76. Codec ID : S_TEXT/ASS

  77. Codec ID/Info : Advanced Sub Station Alpha

  78. Duration : 1 h 54 min

  79. Bit rate : 169 b/s

  80. Count of elements : 1503

  81. Compression mode : Lossless

  82. Stream size : 142 KiB (0%)

  83. Title : cht

  84. Language : Chinese

  85. Default : No

  86. Forced : No

复制代码

警官之血[中文字幕].The.Policemans.Lineage.2022.KOREAN.1080p.BluRay.x264.DTS iKiW 13.67GB  日韩电影  第3张 警官之血[中文字幕].The.Policemans.Lineage.2022.KOREAN.1080p.BluRay.x264.DTS iKiW 13.67GB  日韩电影  第4张 警官之血[中文字幕].The.Policemans.Lineage.2022.KOREAN.1080p.BluRay.x264.DTS iKiW 13.67GB  日韩电影  第5张



文件下载


除非特别注明,本文『警官之血[中文字幕].The.Policemans.Lineage.2022.KOREAN.1080p.BluRay.x264.DTS-iKiW 13.67GB』来源于互联网机器人自动抓取,非本站原创。 浮游电影网不对本文拥有版权,如有侵犯,请联系邮箱:fuyouu#yandex.com[#换成@]投诉。我们会在15个工作日内删除。 但烦请转载时请标明出处:“本文转载于『浮游电影网』,原文地址:https://www.fuyouu.com/22591.html

评论吧骚年!

发表你的见解   

昵称*

E-mail*(建议输入,以便收到博主回复的提示邮件)

验证码*

您可以使用eMule或eMule Mod(Windows)、aMule(Win、Linux、Mac)等软件下载eD2k链接。。
eMule收藏集(.emulecollection)文件是您选中的所有链接的列表文件。eMule可以直接下载它们。
按住SHIFT键选择可以选中多个选择框。
可用文件名和大小选择器来选择文件。
文件名选择器帮您根据文件名称或后缀来选择文件。不分大小写。
符号使用:
和:空格( )、+
不包含:-
或:|
转义:一对英文引号("");
匹配开头:^
匹配结尾:$
例如:
选中所有名称中包含有“eMule”或“0.49c”字眼,但不包含有“exe”字眼的:emule|0.49c -exe
选中所有名称的开头是“eMule”,结尾是“0.49c”的:^emule 0.49c$
选中所有名称中带有“eMule 0.49c”的(必须是“eMule 0.49c”,中间没有别的字符,不能是“eMule fake 0.49c”),需要转义:"emule 0.49c"
大小选择器帮您根据文件大小选择文件。