当前位置: 首页 >> 海外电影 >> 巴黎Q娘[中英字幕].Q.Desire.2011.BluRay.1080p.x265.10bit-MiniHD 6.07GB >> 正文

巴黎Q娘[中英字幕].Q.Desire.2011.BluRay.1080p.x265.10bit-MiniHD 6.07GB

2022年06月29日 00:25:19     电影发布:来源于网络     电影分类:海外电影     评论(0)    

◎标 题 巴黎Q娘

◎译 名 Desire

◎片 名 Q

◎年 代 2011

◎产 地 法国

◎类 别 剧情 / 情色

◎语 言 法语

◎上映日期 2011年9月14日

◎IMDb评分 5.5/10 (6327人评价)

◎IMDb链接 https://www.imdb.com/title/tt1879030/

◎豆瓣评分 6.1/10 (3073人评价)

◎豆瓣链接 https://movie.douban.com/subject/6721959/

◎片 长 103 分钟

◎导 演 劳伦特·博尼克

◎编 剧 劳伦特·博尼克

◎演 员 黛博拉·海薇

海伦娜·席默

葛雯·迪蒂

Johnny Amaro

约翰·利贝罗

让-佛朗索瓦·戈马特

Brice Fournier

Christelle Benoit

Patrick Hauthier

Léticia Belliccini

Fabien Ara

Margot Heurtematte

Aurélia Arto

Noémie Leroux-Cazaubon

Yassine Azzouz

◎简 介

塞西尔(Déborah Révy 饰)刚刚丧父,而她排解悲痛的方式竟然是成为性瘾者,她向男友索取无度,还当着他面勾搭他朋友;她认识了修车店男孩麦特(Gowan Didi 饰),不住挑逗他,又不和他来真的;她在渡轮上勾引了一个英国教授,带他到海边用男女错位的方式做爱……似乎她需要用男人对她欲望来证明自己的存在。麦特本来有个女朋友爱丽丝(Helene Zimmer 饰),她出身保守,缺乏安全感,和麦特的关系岌岌可危。巧合之下,爱丽丝结识了塞西尔,被她引领入性的另一个领域;麦特不断被塞西尔诱惑,最终发现自己仍爱着爱丽丝;塞西尔的行为越来越出格,开始筹划群体性爱派对,但闯进来找她的男友还是抱着拯救她的念头……

  1. ##### MediaInfo ######

  2. General

  3. Unique ID : 232365701284485080295397640172648075550 (0xAED00197524E37E422FC7A737259111E)

  4. Complete name : Q.Desire.2011.BluRay.1080p.x265.10bit-MiniHD.mkv

  5. Format : Matroska

  6. Format version : Version 4

  7. File size : 6.07 GiB

  8. Duration : 1 h 43 min

  9. Overall bit rate : 8 417 kb/s

  10. Encoded date : UTC 2018-06-26 05:12:08

  11. Writing application : mkvmerge v24.0.0 ('Beyond The Pale') 64-bit

  12. Writing library : libebml v1.3.6 + libmatroska v1.4.9

  13. Video

  14. ID : 1

  15. Format : HEVC

  16. Format/Info : High Efficiency Video Coding

  17. Format profile : Main [email protected]@High

  18. Codec ID : V_MPEGH/ISO/HEVC

  19. Duration : 1 h 43 min

  20. Bit rate : 7 745 kb/s

  21. Width : 1 920 pixels

  22. Height : 1 080 pixels

  23. Display aspect ratio : 16:9

  24. Frame rate mode : Constant

  25. Frame rate : 25.000 FPS

  26. Color space : YUV

  27. Chroma subsampling : 4:2:0 (Type 2)

  28. Bit depth : 10 bits

  29. Bits/(Pixel*Frame) : 0.149

  30. Stream size : 5.59 GiB (92%)

  31. Writing library : x265 2.7+1-2aa737a99f51:[Windows][GCC 7.3.0][64 bit] 10bit

  32. Encoding settings : cpuid=533541173503 / frame-threads=4 / numa-pools=16 / wpp / no-pmode / no-pme / no-psnr / no-ssim / log-level=2 / input-csp=1 / input-res=1920x1080 / interlace=0 / total-frames=154925 / level-idc=0 / high-tier=1 / uhd-bd=0 / ref=5 / no-allow-non-conformance / no-repeat-headers / annexb / aud / hrd / info / hash=0 / no-temporal-layers / no-open-gop / min-keyint=1 / keyint=360 / gop-lookahead=0 / bframes=9 / b-adapt=2 / b-pyramid / bframe-bias=0 / rc-lookahead=48 / lookahead-slices=4 / NTMzNTQ=uuDQuD2mJt9fsCf / scenecut=40 / radl=0 / no-intra-refresh / ctu=32 / min-cu-size=8 / no-rect / no-amp / max-tu-size=32 / tu-inter-depth=2 / tu-intra-depth=2 / limit-tu=4 / rdoq-level=1 / dynamic-rd=0.00 / no-ssim-rd / signhide / no-tskip / nr-intra=0 / nr-inter=0 / no-constrained-intra / no-strong-intra-smoothing / max-merge=3 / limit-refs=2 / limit-modes / me=3 / subme=5 / merange=25 / temporal-mvp / weightp / weightb / no-analyze-src-pics / deblock=-1:-1 / no-sao / no-sao-non-deblock / rd=4 / no-early-skip / no-rskip / no-fast-intra / no-tskip-fast / no-cu-lossless / b-intra / no-splitrd-skip / rdpenalty=1 / psy-rd=2.00 / psy-rdoq=5.00 / no-rd-refine / no-lossless / cbqpoffs=-3 / crqpoffs=-3 / rc=crf / crf=21.0 / qcomp=0.65 / qpstep=4 / stats-write=0 / stats-read=0 / vbv-maxrate=120000 / vbv-bufsize=120000 / vbv-init=0.9 / crf-max=0.0 / crf-min=0.0 / ipratio=1.40 / pbratio=1.30 / aq-mode=1 / aq-strength=0.80 / cutree / zone-count=0 / no-strict-cbr / qg-size=32 / no-rc-grain / qpmax=69 / qpmin=0 / no-const-vbv / sar=1 / overscan=0 / videoformat=5 / range=0 / colorprim=2 / transfer=16 / colormatrix=2 / chromaloc=1 / chromaloc-top=2 / chromaloc-bottom=2 / display-window=0 / max-cll=0,0 / min-luma=0 / max-luma=1023 / log2-max-poc-lsb=8 / vui-timing-info / vui-hrd-info / slices=1 / no-opt-qp-pps / no-opt-ref-list-length-pps / no-multi-pass-opt-rps / scenecut-bias=0.05 / no-opt-cu-delta-qp / no-aq-motion / no-hdr / no-hdr-opt / no-dhdr10-opt / analysis-reuse-level=5 / scale-factor=0 / refine-intra=0 / refine-inter=0 / refine-mv=0 / no-limit-sao / ctu-info=0 / no-lowpass-dct / refine-mv-type=0 / copy-pic=1

  33. Default : Yes

  34. Forced : No

  35. Color range : Limited

  36. Transfer characteristics : PQ

  37. Audio

  38. ID : 2

  39. Format : AC-3

  40. Format/Info : Audio Coding 3

  41. Commercial name : Dolby Digital

  42. Codec ID : A_AC3

  43. Duration : 1 h 43 min

  44. Bit rate mode : Constant

  45. Bit rate : 640 kb/s

  46. Channel(s) : 6 channels

  47. Channel layout : L R C LFE Ls Rs

  48. Sampling rate : 48.0 kHz

  49. Frame rate : 31.250 FPS (1536 SPF)

  50. Compression mode : Lossy

  51. Stream size : 473 MiB (8%)

  52. Language : French

  53. Service kind : Complete Main

  54. Default : Yes

  55. Forced : No

  56. Text #1

  57. ID : 3

  58. Format : PGS

  59. Muxing mode : zlib

  60. Codec ID : S_HDMV/PGS

  61. Codec ID/Info : Picture based subtitle format used on BDs/HD-DVDs

  62. Duration : 1 h 38 min

  63. Bit rate : 25.4 kb/s

  64. Count of elements : 2247

  65. Stream size : 17.9 MiB (0%)

  66. Language : English

  67. Default : Yes

  68. Forced : No

  69. Text #2

  70. ID : 4

  71. Format : PGS

  72. Muxing mode : zlib

  73. Codec ID : S_HDMV/PGS

  74. Codec ID/Info : Picture based subtitle format used on BDs/HD-DVDs

  75. Duration : 1 h 38 min

  76. Bit rate : 13.6 kb/s

  77. Count of elements : 2227

  78. Stream size : 9.60 MiB (0%)

  79. Language : Chinese

  80. Default : No

  81. Forced : No

  82. Text #3

  83. ID : 5

  84. Format : PGS

  85. Muxing mode : zlib

  86. Codec ID : S_HDMV/PGS

  87. Codec ID/Info : Picture based subtitle format used on BDs/HD-DVDs

  88. Duration : 1 h 38 min

  89. Bit rate : 27.1 kb/s

  90. Count of elements : 2247

  91. Stream size : 19.1 MiB (0%)

  92. Language : Chinese

  93. Default : No

  94. Forced : No


复制代码



文件下载



除非特别注明,本文『巴黎Q娘[中英字幕].Q.Desire.2011.BluRay.1080p.x265.10bit-MiniHD 6.07GB』来源于互联网机器人自动抓取,非本站原创。 浮游电影网不对本文拥有版权,如有侵犯,请联系邮箱:fuyouu#yandex.com[#换成@]投诉。我们会在15个工作日内删除。 但烦请转载时请标明出处:“本文转载于『浮游电影网』,原文地址:https://www.fuyouu.com/22588.html

评论吧骚年!

发表你的见解   

昵称*

E-mail*(建议输入,以便收到博主回复的提示邮件)

验证码*

您可以使用eMule或eMule Mod(Windows)、aMule(Win、Linux、Mac)等软件下载eD2k链接。。
eMule收藏集(.emulecollection)文件是您选中的所有链接的列表文件。eMule可以直接下载它们。
按住SHIFT键选择可以选中多个选择框。
可用文件名和大小选择器来选择文件。
文件名选择器帮您根据文件名称或后缀来选择文件。不分大小写。
符号使用:
和:空格( )、+
不包含:-
或:|
转义:一对英文引号("");
匹配开头:^
匹配结尾:$
例如:
选中所有名称中包含有“eMule”或“0.49c”字眼,但不包含有“exe”字眼的:emule|0.49c -exe
选中所有名称的开头是“eMule”,结尾是“0.49c”的:^emule 0.49c$
选中所有名称中带有“eMule 0.49c”的(必须是“eMule 0.49c”,中间没有别的字符,不能是“eMule fake 0.49c”),需要转义:"emule 0.49c"
大小选择器帮您根据文件大小选择文件。