当前位置: 首页 >> 海外电影 >> 今夕何夕[简繁英字幕].Ce.Que.Le.Jour.Doit.A.La.Nuit.2012.BluRay.1080p.x265.10bit-MiniHD 7.52GB >> 正文

今夕何夕[简繁英字幕].Ce.Que.Le.Jour.Doit.A.La.Nuit.2012.BluRay.1080p.x265.10bit-MiniHD 7.52GB

2022年06月29日 00:21:54     电影发布:来源于网络     电影分类:海外电影     评论(0)    

◎标 题 今夕何夕

◎译 名 白天不懂夜的黑 / 黑夜孕育了白天 / 迷失的时间 / What the Day Owes the Night

◎片 名 Ce que le jour doit à la nuit

◎年 代 2012

◎产 地 法国

◎类 别 爱情

◎语 言 法语

◎上映日期 2012-09-12(法国)

◎IMDb评分 7.8/10 (3274人评价)

◎IMDb链接 https://www.imdb.com/title/tt1934205/

◎豆瓣评分 8.2/10 (1488人评价)

◎豆瓣链接 https://movie.douban.com/subject/6874460/

◎片 长 162分钟

◎导 演 亚历山大·阿卡迪 Alexandre Arcady

◎编 剧 亚历山大·阿卡迪 Alexandre Arcady

◎演 员 安娜·帕里约 Anne Parillaud

文森特·佩雷斯 Vincent Perez

安妮·康斯金尼 Anne Consigny

诺拉·阿娜泽德尔 Nora Arnezeder

福德·艾伊特·阿特图 Fu'ad Aït Aattou

穆罕默德·费拉格 Mohamed Fellag

玛丽恩·瓦科特 Marine Vacth

阿曼德·阿玛尔 Armand Amar

◎标 签 爱情 / 法国 / 法国电影 / 文艺 / 阿尔及利亚 / 战争 / 殖民 / 2012

◎简 介

故事发生在20世纪30年代的阿尔及利亚。尤内斯9岁时被带到在奥兰做药剂师的叔叔家抚养,并起了个新名字叫乔纳斯。他与里奥·撒拉多村里的年轻人一起长大,并且成为了朋友。在这群朋友中,有个女孩艾米莉,大家都爱上了她。在乔纳斯与她之间一段伟大的爱情诞生了,但很快这段感情就被引起国家动荡的冲突所扰乱。

  1. ##### MediaInfo ######

  2. General

  3. Unique ID : 253530195111013527532040888324865430742 (0xBEBC23B37548CABDA3BD94D0AB4094D6)

  4. Complete name : Ce.Que.Le.Jour.Doit.A.La.Nuit.2012.BluRay.1080p.x265.10bit-MiniHD.mkv

  5. Format : Matroska

  6. Format version : Version 4

  7. File size : 7.52 GiB

  8. Duration : 2 h 42 min

  9. Overall bit rate : 6 630 kb/s

  10. Encoded date : UTC 2018-11-28 00:46:47

  11. Writing application : mkvmerge v15.0.0 ('Duel with the Devil') 64-bit

  12. Writing library : libebml v1.3.5 + libmatroska v1.4.5

  13. Cover : Yes

  14. Attachments : cover.jpg

  15. Video

  16. ID : 1

  17. Format : HEVC

  18. Format/Info : High Efficiency Video Coding

  19. Format profile : Main [email protected]@High

  20. Codec ID : V_MPEGH/ISO/HEVC

  21. Duration : 2 h 42 min

  22. Bit rate : 5 919 kb/s

  23. Width : 1 920 pixels

  24. Height : 816 pixels

  25. Display aspect ratio : 2.35:1

  26. Frame rate mode : Constant

  27. Frame rate : 24.000 FPS

  28. Color space : YUV

  29. Chroma subsampling : 4:2:0

  30. Bit depth : 10 bits

  31. Bits/(Pixel*Frame) : 0.157

  32. Stream size : 6.71 GiB (89%)

  33. Title : FRA

  34. Language : French

  35. Default : Yes

  36. Forced : No

  37. Color range : Limited

  38. Color primaries : BT.709

  39. Audio

  40. ID : 2

  41. Format : AC-3

  42. Format/Info : Audio Coding 3

  43. Commercial name : Dolby Digital

  44. Codec ID : A_AC3

  45. Duration : 2 h 42 min

  46. Bit rate mode : Constant

  47. Bit rate : 640 kb/s

  48. Channel(s) : 6 channels

  49. Channel layout : L R C LFE Ls Rs

  50. Sampling rate : 48.0 kHz

  51. Frame rate : 31.250 FPS (1536 SPF)

  52. Compression mode : Lossy

  53. Stream size : 743 MiB (10%)

  54. Language : French

  55. Service kind : Complete Main

  56. Default : Yes

  57. Forced : No

  58. Text #1

  59. ID : 3

  60. Format : PGS

  61. Muxing mode : zlib

  62. Codec ID : S_HDMV/PGS

  63. Codec ID/Info : Picture based subtitle format used on BDs/HD-DVDs

  64. Duration : 2 h 39 min

  65. Bit rate : 25.8 kb/s

  66. Count of elements : 4268

  67. Stream size : 29.3 MiB (0%)

  68. Title : chs

  69. Language : Chinese

  70. Default : Yes

  71. Forced : No

  72. Text #2

  73. ID : 4

  74. Format : PGS

  75. Muxing mode : zlib

  76. Codec ID : S_HDMV/PGS

  77. Codec ID/Info : Picture based subtitle format used on BDs/HD-DVDs

  78. Duration : 2 h 39 min

  79. Bit rate : 27.1 kb/s

  80. Count of elements : 4268

  81. Stream size : 30.8 MiB (0%)

  82. Title : cht

  83. Language : Chinese

  84. Default : No

  85. Forced : No

  86. Text #3

  87. ID : 5

  88. Format : PGS

  89. Muxing mode : zlib

  90. Codec ID : S_HDMV/PGS

  91. Codec ID/Info : Picture based subtitle format used on BDs/HD-DVDs

  92. Duration : 2 h 39 min

  93. Bit rate : 25.8 kb/s

  94. Count of elements : 4268

  95. Stream size : 29.3 MiB (0%)

  96. Title : chs

  97. Language : Chinese

  98. Default : No

  99. Forced : No

  100. Text #4

  101. ID : 6

  102. Format : PGS

  103. Muxing mode : zlib

  104. Codec ID : S_HDMV/PGS

  105. Codec ID/Info : Picture based subtitle format used on BDs/HD-DVDs

  106. Duration : 2 h 39 min

  107. Bit rate : 27.1 kb/s

  108. Count of elements : 4268

  109. Stream size : 30.8 MiB (0%)

  110. Title : cht

  111. Language : Chinese

  112. Default : No

  113. Forced : No

  114. Text #5

  115. ID : 7

  116. Format : PGS

  117. Muxing mode : zlib

  118. Codec ID : S_HDMV/PGS

  119. Codec ID/Info : Picture based subtitle format used on BDs/HD-DVDs

  120. Duration : 2 h 39 min

  121. Bit rate : 25.6 kb/s

  122. Count of elements : 4208

  123. Stream size : 29.2 MiB (0%)

  124. Language : English

  125. Default : No

  126. Forced : No

  127. Menu

  128. 00:00:00.000 : en:00:00:00.000

  129. 00:08:29.292 : en:00:08:29.292

  130. 00:17:47.417 : en:00:17:47.417

  131. 00:36:18.250 : en:00:36:18.250

  132. 00:44:57.083 : en:00:44:57.083

  133. 00:56:04.500 : en:00:56:04.500

  134. 01:19:34.833 : en:01:19:34.833

  135. 01:37:34.083 : en:01:37:34.083

  136. 01:58:57.958 : en:01:58:57.958

  137. 02:23:45.167 : en:02:23:45.167

  138. 02:31:04.625 : en:02:31:04.625

  139. 02:39:19.333 : en:02:39:19.333



文件下载


除非特别注明,本文『今夕何夕[简繁英字幕].Ce.Que.Le.Jour.Doit.A.La.Nuit.2012.BluRay.1080p.x265.10bit-MiniHD 7.52GB』来源于互联网机器人自动抓取,非本站原创。 浮游电影网不对本文拥有版权,如有侵犯,请联系邮箱:fuyouu#yandex.com[#换成@]投诉。我们会在15个工作日内删除。 但烦请转载时请标明出处:“本文转载于『浮游电影网』,原文地址:https://www.fuyouu.com/22583.html

评论吧骚年!

发表你的见解   

昵称*

E-mail*(建议输入,以便收到博主回复的提示邮件)

验证码*

您可以使用eMule或eMule Mod(Windows)、aMule(Win、Linux、Mac)等软件下载eD2k链接。。
eMule收藏集(.emulecollection)文件是您选中的所有链接的列表文件。eMule可以直接下载它们。
按住SHIFT键选择可以选中多个选择框。
可用文件名和大小选择器来选择文件。
文件名选择器帮您根据文件名称或后缀来选择文件。不分大小写。
符号使用:
和:空格( )、+
不包含:-
或:|
转义:一对英文引号("");
匹配开头:^
匹配结尾:$
例如:
选中所有名称中包含有“eMule”或“0.49c”字眼,但不包含有“exe”字眼的:emule|0.49c -exe
选中所有名称的开头是“eMule”,结尾是“0.49c”的:^emule 0.49c$
选中所有名称中带有“eMule 0.49c”的(必须是“eMule 0.49c”,中间没有别的字符,不能是“eMule fake 0.49c”),需要转义:"emule 0.49c"
大小选择器帮您根据文件大小选择文件。