当前位置: 首页 >> 欧美电影 >> 人鬼情未了[国英多音轨/简繁英字幕].Ghost.1990.BluRay.1080p.x265.10bit.7Audios-MiniHD 8.03GB >> 正文

人鬼情未了[国英多音轨/简繁英字幕].Ghost.1990.BluRay.1080p.x265.10bit.7Audios-MiniHD 8.03GB

2022年06月28日 22:33:00     电影发布:来源于网络     电影分类:欧美电影     评论(0)    

◎标 题 人鬼情未了

◎译 名 第六感生死恋(台) / 生死第六感 / 幽灵

◎片 名 Ghost

◎年 代 1990

◎产 地 美国

◎类 别 剧情 / 爱情 / 奇幻

◎语 言 英语

◎上映日期 1990-07-13

◎IMDb评分 7.1/10 (212869人评价)

◎IMDb链接 https://www.imdb.com/title/tt0099653/

◎豆瓣评分 8.3/10 (200591人评价)

◎豆瓣链接 https://movie.douban.com/subject/1293203/

◎片 长 127 分钟

◎导 演 杰瑞·扎克 Jerry Zucker

◎编 剧 布鲁斯·乔尔·鲁宾 Bruce Joel Rubin

◎演 员 帕特里克·斯威兹 Patrick Swayze

黛米·摩尔 Demi Moore

托尼·戈德温 Tony Goldwyn

乌比·戈德堡 Whoopi Goldberg

斯蒂芬·鲁特 Stephen Root

文森特·斯卡维利 Vincent Schiavelli

菲尔·利兹 Phil Leeds

阿尔玛·贝特兰 Alma Beltran

Mike Jittlov Mike Jittlov

丽萨·韦恩斯坦 Lisa Weinstein

莫里斯·雅尔 Maurice Jarre

亚当·格林伯格 Adam Greenberg

沃尔特·默奇 Walter Murch

珍妮特·希尔森 Janet Hirshenson

马克·W·曼斯布里奇 Mark W. Mansbridge

Marietta Carter-Narcisse Marietta Carter-Narcisse

迪欧妮·泰勒 Dione Taylor

朱莉亚·L·沃克尔 Julia L. Walker

查利·皮切尔尼 Charlie Picerni

杰克·莫多万 Jack Mongovan

马可·A·Z·迪普 Mark A.Z. Dippé

肯尼斯·史密斯 Kenneth Smith

Jim Morris Jim Morris

吉姆·瑞吉尔 Jim Rygiel

斯图尔特·罗伯特森 Stuart Robertson

芭芭拉·布伦南 Barbara Brennan

David S. Williams Jr. David S. Williams Jr.

托马斯·J·史密斯 Thomas J. Smith

Martin Rosenberg Martin Rosenberg

Mike Jittlov Mike Jittlov

布鲁斯·尼科尔森 Bruce Nicholson

乔恩·亚历山大 Jon Alexander

戈登·贝克尔 Gordon Baker

Ned Gorman Ned Gorman

Ellen Somers Ellen Somers

埃德·琼斯 Ed Jones

托马斯·罗塞特 Thomas Rosseter

布莱恩·格南德 Brian Gernand

Laura Buff Laura Buff

洛尔恩·彼得森 Lorne Peterson

Judith Weaver Judith Weaver

加里·沃勒 Garry Waller

约翰·T·范弗利特 John T. Van Vliet

汤姆·柏提诺 Tom Bertino

◎简 介

年轻的银行职员萨姆(帕特里克•斯威兹)与未婚妻美莉(黛咪•摩尔)相爱极深,在朋友卡尔(托尼•戈德温)的热情帮助下,他们搬进一幢漂亮的公寓,做着结婚前的准备。某晚看戏归来时,他们遭遇持枪歹徒,与歹徒搏斗时,萨姆不幸中枪身亡,美莉悲痛欲绝。

萨姆变作幽灵,发现卡尔是导致他死亡的幕后策划,而为了窃取银行里的巨款,他又对美莉展开追求,以便获得萨姆所掌握的密码。为了保护美莉,萨姆常常游荡于她的周围,并渐渐地学会了如何使用力量,但他苦于无法同美莉交流。在能与幽灵沟通的灵媒奥塔的帮助下,他与美莉取得联系,但美莉起初并不相信,直到事实令她感受到萨姆的存在,可是,深深相爱的两人仍无法直接接触和交流。

  1. ##### MediaInfo ######

  2. General

  3. Unique ID : 100513535481944017554659643216614118308 (0x4B9E33E96560EF28788AD57613CFD3A4)

  4. Complete name : Ghost.1990.BluRay.1080p.x265.10bit.7Audios-MiniHD.mkv

  5. Format : Matroska

  6. Format version : Version 4

  7. File size : 8.02 GiB

  8. Duration : 2 h 6 min

  9. Overall bit rate : 9 071 kb/s

  10. Encoded date : UTC 2018-09-29 04:50:53

  11. Writing application : mkvmerge v20.0.0 ('I Am The Sun') 64-bit

  12. Writing library : libebml v1.3.5 + libmatroska v1.4.8

  13. Video

  14. ID : 1

  15. Format : HEVC

  16. Format/Info : High Efficiency Video Coding

  17. Format profile : Main [email protected]@High

  18. Codec ID : V_MPEGH/ISO/HEVC

  19. Duration : 2 h 6 min

  20. Bit rate : 6 902 kb/s

  21. Width : 1 920 pixels

  22. Height : 1 080 pixels

  23. Display aspect ratio : 16:9

  24. Frame rate mode : Constant

  25. Frame rate : 23.976 (24000/1001/53354) FPS

  26. Color space : YUV

  27. Chroma subsampling : 4:2:0

  28. Bit depth : 10 bits

  29. Bits/(Pixel*Frame) : 0.139

  30. Stream size : 6.11 GiB (76%)

  31. Writing library : x265 2.8+68-fa57fa584898:[Windows][GCC 7.3.0][64 bit] 10bit

  32. Encoding settings : cpuid=533541111039 / frame-threads=3 / numa-pools=8 / wpp / no-pmode / no-pme / no-psnr / no-ssim / log-level=2 / csv / csv-log-level=0 / input-csp=1 / input-res=1920x1080 / interlace=0 / total-frames=182208 / level-idc=0 / high-tier=1 / uhd-bd=0 / ref=5 / no-allow-non-conformance / no-repeat-headers / annexb / no-aud / no-hrd / info / hash=0 / no-temporal-layers / no-open-gop / min-keyint=1 / keyint=360 / gop-lookahead=0 / bframes=8 / b-adapt=2 / b-pyramid / bframe-bias=0 / rc-lookahead=60 / lookahead-slices=4 / NTMzNTQ=uuDQuD2mJt9fsCf / scenecut=40 / radl=0 / no-intra-refresh / ctu=32 / min-cu-size=8 / no-rect / no-amp / max-tu-size=16 / tu-inter-depth=2 / tu-intra-depth=2 / limit-tu=4 / rdoq-level=1 / dynamic-rd=0.00 / no-ssim-rd / signhide / no-tskip / nr-intra=0 / nr-inter=0 / no-constrained-intra / no-strong-intra-smoothing / max-merge=3 / limit-refs=2 / limit-modes / me=3 / subme=5 / merange=25 / temporal-mvp / weightp / weightb / no-analyze-src-pics / deblock=-1:-1 / no-sao / no-sao-non-deblock / rd=4 / no-early-skip / no-rskip / no-fast-intra / no-tskip-fast / no-cu-lossless / b-intra / no-splitrd-skip / rdpenalty=1 / psy-rd=2.00 / psy-rdoq=5.00 / no-rd-refine / no-lossless / cbqpoffs=-3 / crqpoffs=-3 / rc=crf / crf=19.0 / qcomp=0.70 / qpstep=4 / stats-write=0 / stats-read=0 / vbv-maxrate=30000 / vbv-bufsize=35000 / vbv-init=0.9 / crf-max=0.0 / crf-min=0.0 / ipratio=1.40 / pbratio=1.30 / aq-mode=2 / aq-strength=0.90 / cutree / zone-count=0 / no-strict-cbr / qg-size=16 / no-rc-grain / qpmax=69 / qpmin=0 / no-const-vbv / sar=0 / overscan=0 / videoformat=5 / range=0 / colorprim=1 / transfer=2 / colormatrix=2 / chromaloc=0 / display-window=0 / max-cll=0,0 / min-luma=0 / max-luma=1023 / log2-max-poc-lsb=8 / vui-timing-info / vui-hrd-info / slices=1 / no-opt-qp-pps / no-opt-ref-list-length-pps / no-multi-pass-opt-rps / scenecut-bias=0.05 / no-opt-cu-delta-qp / no-aq-motion / no-hdr / no-hdr-opt / no-dhdr10-opt / no-idr-recovery-sei / analysis-reuse-level=5 / scale-factor=0 / refine-intra=0 / refine-inter=0 / refine-mv=0 / no-limit-sao / ctu-info=0 / no-lowpass-dct / refine-mv-type=0 / copy-pic=1 / max-ausize-factor=1.0 / no-dynamic-refine / no-single-sei

  33. Default : Yes

  34. Forced : No

  35. Color range : Limited

  36. Color primaries : BT.709

  37. Audio #1

  38. ID : 2

  39. Format : AC-3

  40. Format/Info : Audio Coding 3

  41. Commercial name : Dolby Digital

  42. Codec ID : A_AC3

  43. Duration : 2 h 6 min

  44. Bit rate mode : Constant

  45. Bit rate : 640 kb/s

  46. Channel(s) : 6 channels

  47. Channel layout : L R C LFE Ls Rs

  48. Sampling rate : 48.0 kHz

  49. Frame rate : 31.250 FPS (1536 SPF)

  50. Compression mode : Lossy

  51. Stream size : 580 MiB (7%)

  52. Title : 英语

  53. Language : English

  54. Service kind : Complete Main

  55. Default : Yes

  56. Forced : No

  57. Audio #2

  58. ID : 3

  59. Format : AC-3

  60. Format/Info : Audio Coding 3

  61. Commercial name : Dolby Digital

  62. Codec ID : A_AC3

  63. Duration : 2 h 6 min

  64. Bit rate mode : Constant

  65. Bit rate : 128 kb/s

  66. Channel(s) : 2 channels

  67. Channel layout : L R

  68. Sampling rate : 48.0 kHz

  69. Frame rate : 31.250 FPS (1536 SPF)

  70. Compression mode : Lossy

  71. Stream size : 116 MiB (1%)

  72. Title : 东影新上译国语

  73. Language : Chinese

  74. Service kind : Complete Main

  75. Default : No

  76. Forced : No

  77. Audio #3

  78. ID : 4

  79. Format : AC-3

  80. Format/Info : Audio Coding 3

  81. Commercial name : Dolby Digital

  82. Codec ID : A_AC3

  83. Duration : 2 h 6 min

  84. Bit rate mode : Constant

  85. Bit rate : 448 kb/s

  86. Channel(s) : 6 channels

  87. Channel layout : L R C LFE Ls Rs

  88. Sampling rate : 48.0 kHz

  89. Frame rate : 31.250 FPS (1536 SPF)

  90. Compression mode : Lossy

  91. Stream size : 406 MiB (5%)

  92. Title : 德加拉北影国语

  93. Language : Chinese

  94. Service kind : Complete Main

  95. Default : No

  96. Forced : No

  97. Audio #4

  98. ID : 5

  99. Format : AC-3

  100. Format/Info : Audio Coding 3

  101. Commercial name : Dolby Digital

  102. Codec ID : A_AC3

  103. Duration : 2 h 6 min

  104. Bit rate mode : Constant

  105. Bit rate : 320 kb/s

  106. Channel(s) : 6 channels

  107. Channel layout : L R C LFE Ls Rs

  108. Sampling rate : 48.0 kHz

  109. Frame rate : 31.250 FPS (1536 SPF)

  110. Compression mode : Lossy

  111. Delay relative to video : 20 ms

  112. Stream size : 290 MiB (4%)

  113. Title : 央视长译新国语

  114. Language : Chinese

  115. Service kind : Complete Main

  116. Default : No

  117. Forced : No

  118. Audio #5

  119. ID : 6

  120. Format : AC-3

  121. Format/Info : Audio Coding 3

  122. Commercial name : Dolby Digital

  123. Codec ID : A_AC3

  124. Duration : 2 h 6 min

  125. Bit rate mode : Constant

  126. Bit rate : 192 kb/s

  127. Channel(s) : 2 channels

  128. Channel layout : L R

  129. Sampling rate : 48.0 kHz

  130. Frame rate : 31.250 FPS (1536 SPF)

  131. Compression mode : Lossy

  132. Stream size : 174 MiB (2%)

  133. Title : 央视国语

  134. Language : Chinese

  135. Service kind : Complete Main

  136. Default : No

  137. Forced : No

  138. Audio #6

  139. ID : 7

  140. Format : AC-3

  141. Format/Info : Audio Coding 3

  142. Commercial name : Dolby Digital

  143. Codec ID : A_AC3

  144. Duration : 2 h 3 min

  145. Bit rate mode : Constant

  146. Bit rate : 192 kb/s

  147. Channel(s) : 2 channels

  148. Channel layout : L R

  149. Sampling rate : 48.0 kHz

  150. Frame rate : 31.250 FPS (1536 SPF)

  151. Compression mode : Lossy

  152. Stream size : 170 MiB (2%)

  153. Title : 上海音像馆内参国语

  154. Language : Chinese

  155. Service kind : Complete Main

  156. Default : No

  157. Forced : No

  158. Audio #7

  159. ID : 8

  160. Format : AC-3

  161. Format/Info : Audio Coding 3

  162. Commercial name : Dolby Digital

  163. Codec ID : A_AC3

  164. Duration : 2 h 6 min

  165. Bit rate mode : Constant

  166. Bit rate : 192 kb/s

  167. Channel(s) : 2 channels

  168. Channel layout : L R

  169. Sampling rate : 48.0 kHz

  170. Frame rate : 31.250 FPS (1536 SPF)

  171. Compression mode : Lossy

  172. Stream size : 174 MiB (2%)

  173. Title : 录像带内参国语

  174. Language : Chinese

  175. Service kind : Complete Main

  176. Default : No

  177. Forced : No

  178. Text #1

  179. ID : 9

  180. Format : PGS

  181. Muxing mode : zlib

  182. Codec ID : S_HDMV/PGS

  183. Codec ID/Info : Picture based subtitle format used on BDs/HD-DVDs

  184. Duration : 1 h 58 min

  185. Bit rate : 24.4 kb/s

  186. Count of elements : 2915

  187. Stream size : 20.8 MiB (0%)

  188. Title : 东影新上译国配简中

  189. Language : Chinese

  190. Default : Yes

  191. Forced : No

  192. Text #2

  193. ID : 10

  194. Format : PGS

  195. Muxing mode : zlib

  196. Codec ID : S_HDMV/PGS

  197. Codec ID/Info : Picture based subtitle format used on BDs/HD-DVDs

  198. Duration : 2 h 1 min

  199. Bit rate : 31.4 kb/s

  200. Count of elements : 2302

  201. Stream size : 27.4 MiB (0%)

  202. Title : 简英双语

  203. Language : Chinese

  204. Default : No

  205. Forced : No

  206. Text #3

  207. ID : 11

  208. Format : PGS

  209. Muxing mode : zlib

  210. Codec ID : S_HDMV/PGS

  211. Codec ID/Info : Picture based subtitle format used on BDs/HD-DVDs

  212. Duration : 2 h 0 min

  213. Bit rate : 19.8 kb/s

  214. Count of elements : 2785

  215. Stream size : 17.1 MiB (0%)

  216. Title : 简体中文

  217. Language : Chinese

  218. Default : No

  219. Forced : No

  220. Text #4

  221. ID : 12

  222. Format : PGS

  223. Muxing mode : zlib

  224. Codec ID : S_HDMV/PGS

  225. Codec ID/Info : Picture based subtitle format used on BDs/HD-DVDs

  226. Duration : 2 h 1 min

  227. Bit rate : 25.4 kb/s

  228. Count of elements : 2706

  229. Stream size : 22.1 MiB (0%)

  230. Title : 原盘繁中

  231. Language : Chinese

  232. Default : No

  233. Forced : No

  234. Text #5

  235. ID : 13

  236. Format : PGS

  237. Muxing mode : zlib

  238. Codec ID : S_HDMV/PGS

  239. Codec ID/Info : Picture based subtitle format used on BDs/HD-DVDs

  240. Duration : 1 h 59 min

  241. Bit rate : 35.5 kb/s

  242. Count of elements : 2840

  243. Stream size : 30.3 MiB (0%)

  244. Title : 英文

  245. Language : English

  246. Default : No

  247. Forced : No

  248. Menu

  249. 00:00:00.000 : en:Chapter 1

  250. 00:11:08.250 : en:Chapter 2

  251. 00:17:18.037 : en:Chapter 3

  252. 00:32:06.591 : en:Chapter 4

  253. 00:37:42.760 : en:Chapter 5

  254. 00:47:04.530 : en:Chapter 6

  255. 01:12:23.756 : en:Chapter 7

  256. 01:18:02.511 : en:Chapter 8

  257. 01:22:16.806 : en:Chapter 9

  258. 01:34:30.956 : en:Chapter 10

  259. 01:38:54.094 : en:Chapter 11

  260. 01:44:26.677 : en:Chapter 12

  261. 01:49:09.501 : en:Chapter 13

  262. 01:52:13.935 : en:Chapter 14

  263. 01:57:40.386 : en:Chapter 15

  264. 02:02:15.328 : en:Chapter 16


复制代码



文件下载


除非特别注明,本文『人鬼情未了[国英多音轨/简繁英字幕].Ghost.1990.BluRay.1080p.x265.10bit.7Audios-MiniHD 8.03GB』来源于互联网机器人自动抓取,非本站原创。 浮游电影网不对本文拥有版权,如有侵犯,请联系邮箱:fuyouu#yandex.com[#换成@]投诉。我们会在15个工作日内删除。 但烦请转载时请标明出处:“本文转载于『浮游电影网』,原文地址:https://www.fuyouu.com/22582.html

评论吧骚年!

发表你的见解   

昵称*

E-mail*(建议输入,以便收到博主回复的提示邮件)

验证码*

您可以使用eMule或eMule Mod(Windows)、aMule(Win、Linux、Mac)等软件下载eD2k链接。。
eMule收藏集(.emulecollection)文件是您选中的所有链接的列表文件。eMule可以直接下载它们。
按住SHIFT键选择可以选中多个选择框。
可用文件名和大小选择器来选择文件。
文件名选择器帮您根据文件名称或后缀来选择文件。不分大小写。
符号使用:
和:空格( )、+
不包含:-
或:|
转义:一对英文引号("");
匹配开头:^
匹配结尾:$
例如:
选中所有名称中包含有“eMule”或“0.49c”字眼,但不包含有“exe”字眼的:emule|0.49c -exe
选中所有名称的开头是“eMule”,结尾是“0.49c”的:^emule 0.49c$
选中所有名称中带有“eMule 0.49c”的(必须是“eMule 0.49c”,中间没有别的字符,不能是“eMule fake 0.49c”),需要转义:"emule 0.49c"
大小选择器帮您根据文件大小选择文件。