当前位置: 首页 >> 港台电影 >> 霸王花[国粤多音轨/简繁英字幕].The.Inspector.Wear.Skirts.1988.BluRay.1080p.x265.10bit.2Audio-MiniHD 3.82GB >> 正文

霸王花[国粤多音轨/简繁英字幕].The.Inspector.Wear.Skirts.1988.BluRay.1080p.x265.10bit.2Audio-MiniHD 3.82GB

2022年06月27日 12:13:06     电影发布:来源于网络     电影分类:港台电影     评论(0)    

◎标 题 霸王花

◎译 名 霸王花与霸王花 / Lady Enforcers / The Inspector Wears Skirts

◎年 代 1988

◎产 地 中国香港

◎类 别 动作

◎语 言 粤语

◎上映日期 1988-06-03(中国香港)

◎IMDb评分 5.9/10 (536人评价)

◎IMDb链接 https://www.imdb.com/title/tt0094694/

◎豆瓣评分 6.9/10 (15776人评价)

◎豆瓣链接 https://movie.douban.com/subject/1408315/

◎片 长 91分钟

◎导 演 钱升玮 Wellson Chin

◎编 剧 郑锦富 Kam Fu Cheng

邝文伟 Abe Kwong

◎演 员 胡慧中 Sibelle Hu

惠英红 Kara Wai Ying Hung

罗芙洛 Cynthia Rothrock

柏安妮 Ann Bridgewater

杜德伟 Alex To

吴君如 Sandra Ng

陈雅伦 Ellen Chan

简慧真 Regina Kent

丁宁 Ning Ding

陈佩珊 Joanna Chan Pui-San

冯淬帆 Stanley Fung

楼南光 Billy Lau

董骠 Bill Tung

周文健 Michael Chow Man-Kin

成奎安 Fui-On Shing

卢惠光 Ken Lo

黎明诗 Ming-Si Lai

杰弗里·福尔肯 Jeffrey Falcon

方茹 Ju Fang

火星 Mars

许冠英 Ricky Hui

陈自强 Willie Chan

成龙 Jackie Chan

邹文怀 Raymond Chow

邓景生 Edward Tang

刘德华 Andy Lau

周少龙 Shao Lung Chou

黄志明 Wong Chi-Ming

◎简 介

香港以前本来没有女子特警队,但因为Madam胡(胡慧中 饰)和Madam罗(罗芙洛 饰)两名女警长的出色表现,令到警局高层决定以她们为班底,组建有史以来第一支女子特警队——霸王花。Madam胡和Madam罗分别担任队长带队训练。女子特警队的训练一点也不比飞虎队轻松,在两人的严格训练下,霸王花很快就能出动执行任务了。岂料在和飞虎队一起执行一次保护珠宝任务时,Madam胡领军的霸王花被飞虎队均被国际大盗制伏。紧要关头,Madam罗率队赶到!

  1. ##### MediaInfo ######

  2. General

  3. Unique ID : 213163909881579828804104987043168409718 (0xA05DE02E8DDB977DEEFCBCDF64A25876)

  4. Complete name : The.Inspector.Wear.Skirts.1988.BluRay.1080p.x265.10bit.2Audio-MiniHD.mkv

  5. Format : Matroska

  6. Format version : Version 4

  7. File size : 3.82 GiB

  8. Duration : 1 h 35 min

  9. Overall bit rate : 5 742 kb/s

  10. Encoded date : UTC 2018-03-01 13:57:44

  11. Writing application : mkvmerge v20.0.0 ('I Am The Sun') 64-bit

  12. Writing library : libebml v1.3.5 + libmatroska v1.4.8

  13. Video

  14. ID : 1

  15. Format : HEVC

  16. Format/Info : High Efficiency Video Coding

  17. Format profile : Main [email protected]@Main

  18. Codec ID : V_MPEGH/ISO/HEVC

  19. Duration : 1 h 35 min

  20. Bit rate : 4 348 kb/s

  21. Width : 1 920 pixels

  22. Height : 1 018 pixels

  23. Display aspect ratio : 1.886

  24. Frame rate mode : Constant

  25. Frame rate : 23.976 (24000/1001/53354) FPS

  26. Color space : YUV

  27. Chroma subsampling : 4:2:0

  28. Bit depth : 10 bits

  29. Bits/(Pixel*Frame) : 0.093

  30. Stream size : 2.89 GiB (76%)

  31. Writing library : x265 2.6+31-3712d13c09bf:[Windows][MSVC 1912][64 bit] 10bit

  32. Encoding settings : cpuid=533541173503 / frame-threads=3 / numa-pools=8 / wpp / no-pmode / no-pme / no-psnr / no-ssim / log-level=2 / csv / csv-log-level=0 / input-csp=1 / input-res=1920x1018 / interlace=0 / total-frames=137007 / level-idc=0 / high-tier=1 / uhd-bd=0 / ref=5 / no-allow-non-conformance / no-repeat-headers / annexb / no-aud / no-hrd / info / hash=0 / no-temporal-layers / no-open-gop / min-keyint=1 / keyint=360 / gop-lookahead=0 / bframes=9 / b-adapt=2 / b-pyramid / bframe-bias=0 / rc-lookahead=60 / lookahead-slices=4 / NTMzNTQ=uuDQuD2mJt9fsCf / scenecut=40 / radl=0 / no-intra-refresh / ctu=32 / min-cu-size=8 / rect / no-amp / max-tu-size=16 / tu-inter-depth=2 / tu-intra-depth=2 / limit-tu=4 / rdoq-level=1 / dynamic-rd=0.00 / ssim-rd / signhide / no-tskip / nr-intra=0 / nr-inter=0 / no-constrained-intra / no-strong-intra-smoothing / max-merge=3 / limit-refs=2 / limit-modes / me=3 / subme=5 / merange=25 / temporal-mvp / weightp / weightb / no-analyze-src-pics / deblock=-1:-1 / no-sao / no-sao-non-deblock / rd=4 / no-early-skip / rskip / no-fast-intra / no-tskip-fast / no-cu-lossless / b-intra / no-splitrd-skip / rdpenalty=1 / psy-rd=0.00 / psy-rdoq=5.00 / no-rd-refine / no-lossless / cbqpoffs=-2 / crqpoffs=-2 / rc=crf / crf=20.0 / qcomp=0.70 / qpstep=4 / stats-write=0 / stats-read=0 / ipratio=1.40 / pbratio=1.30 / aq-mode=2 / aq-strength=0.80 / cutree / zone-count=0 / no-strict-cbr / qg-size=16 / no-rc-grain / qpmax=69 / qpmin=0 / no-const-vbv / sar=0 / overscan=0 / videoformat=5 / range=0 / colorprim=1 / transfer=2 / colormatrix=2 / chromaloc=0 / display-window=0 / max-cll=0,0 / min-luma=0 / max-luma=1023 / log2-max-poc-lsb=8 / vui-timing-info / vui-hrd-info / slices=1 / no-opt-qp-pps / no-opt-ref-list-length-pps / no-multi-pass-opt-rps / scenecut-bias=0.05 / no-opt-cu-delta-qp / no-aq-motion / no-hdr / no-hdr-opt / no-dhdr10-opt / analysis-reuse-level=5 / scale-factor=0 / refine-intra=0 / refine-inter=0 / refine-mv=0 / no-limit-sao / ctu-info=0 / no-lowpass-dct / refine-mv-type=0 / copy-pic=1

  33. Language : Chinese

  34. Default : Yes

  35. Forced : No

  36. Color range : Limited

  37. Color primaries : BT.709

  38. Audio #1

  39. ID : 2

  40. Format : AC-3

  41. Format/Info : Audio Coding 3

  42. Commercial name : Dolby Digital

  43. Codec ID : A_AC3

  44. Duration : 1 h 35 min

  45. Bit rate mode : Constant

  46. Bit rate : 640 kb/s

  47. Channel(s) : 6 channels

  48. Channel layout : L R C LFE Ls Rs

  49. Sampling rate : 48.0 kHz

  50. Frame rate : 31.250 FPS (1536 SPF)

  51. Compression mode : Lossy

  52. Stream size : 436 MiB (11%)

  53. Title : 粤语

  54. Language : Chinese

  55. Service kind : Complete Main

  56. Default : Yes

  57. Forced : No

  58. Audio #2

  59. ID : 3

  60. Format : AC-3

  61. Format/Info : Audio Coding 3

  62. Commercial name : Dolby Digital

  63. Codec ID : A_AC3

  64. Duration : 1 h 35 min

  65. Bit rate mode : Constant

  66. Bit rate : 640 kb/s

  67. Channel(s) : 6 channels

  68. Channel layout : L R C LFE Ls Rs

  69. Sampling rate : 48.0 kHz

  70. Frame rate : 31.250 FPS (1536 SPF)

  71. Compression mode : Lossy

  72. Stream size : 436 MiB (11%)

  73. Title : 国语

  74. Language : Chinese

  75. Service kind : Complete Main

  76. Default : No

  77. Forced : No

  78. Text #1

  79. ID : 4

  80. Format : PGS

  81. Muxing mode : zlib

  82. Codec ID : S_HDMV/PGS

  83. Codec ID/Info : Picture based subtitle format used on BDs/HD-DVDs

  84. Title : 繁体

  85. Language : Chinese

  86. Default : Yes

  87. Forced : No

  88. Text #2

  89. ID : 5

  90. Format : PGS

  91. Muxing mode : zlib

  92. Codec ID : S_HDMV/PGS

  93. Codec ID/Info : Picture based subtitle format used on BDs/HD-DVDs

  94. Title : 简体

  95. Language : Chinese

  96. Default : No

  97. Forced : No

  98. Text #3

  99. ID : 6

  100. Format : PGS

  101. Muxing mode : zlib

  102. Codec ID : S_HDMV/PGS

  103. Codec ID/Info : Picture based subtitle format used on BDs/HD-DVDs

  104. Title : 英文

  105. Language : English

  106. Default : No

  107. Forced : No

  108. Menu

  109. 00:00:00.000 : en:Chapter 01

  110. 00:05:53.186 : en:Chapter 02

  111. 00:10:29.670 : en:Chapter 03

  112. 00:15:21.420 : en:Chapter 04

  113. 00:19:32.921 : en:Chapter 05

  114. 00:24:29.843 : en:Chapter 06

  115. 00:27:54.714 : en:Chapter 07

  116. 00:31:13.329 : en:Chapter 08

  117. 00:37:13.731 : en:Chapter 09

  118. 00:41:48.839 : en:Chapter 10

  119. 00:46:42.424 : en:Chapter 11

  120. 00:51:45.018 : en:Chapter 12

  121. 00:56:38.019 : en:Chapter 13

  122. 01:01:23.096 : en:Chapter 14

  123. 01:09:48.893 : en:Chapter 15

  124. 01:14:31.925 : en:Chapter 16

  125. 01:19:58.043 : en:Chapter 17

  126. 01:21:34.723 : en:Chapter 18

  127. 01:25:45.223 : en:Chapter 19

  128. 01:29:53.554 : en:Chapter 20


复制代码





文件下载


除非特别注明,本文『霸王花[国粤多音轨/简繁英字幕].The.Inspector.Wear.Skirts.1988.BluRay.1080p.x265.10bit.2Audio-MiniHD 3.82GB』来源于互联网机器人自动抓取,非本站原创。 浮游电影网不对本文拥有版权,如有侵犯,请联系邮箱:fuyouu#yandex.com[#换成@]投诉。我们会在15个工作日内删除。 但烦请转载时请标明出处:“本文转载于『浮游电影网』,原文地址:https://www.fuyouu.com/22577.html

评论吧骚年!

发表你的见解   

昵称*

E-mail*(建议输入,以便收到博主回复的提示邮件)

验证码*

您可以使用eMule或eMule Mod(Windows)、aMule(Win、Linux、Mac)等软件下载eD2k链接。。
eMule收藏集(.emulecollection)文件是您选中的所有链接的列表文件。eMule可以直接下载它们。
按住SHIFT键选择可以选中多个选择框。
可用文件名和大小选择器来选择文件。
文件名选择器帮您根据文件名称或后缀来选择文件。不分大小写。
符号使用:
和:空格( )、+
不包含:-
或:|
转义:一对英文引号("");
匹配开头:^
匹配结尾:$
例如:
选中所有名称中包含有“eMule”或“0.49c”字眼,但不包含有“exe”字眼的:emule|0.49c -exe
选中所有名称的开头是“eMule”,结尾是“0.49c”的:^emule 0.49c$
选中所有名称中带有“eMule 0.49c”的(必须是“eMule 0.49c”,中间没有别的字符,不能是“eMule fake 0.49c”),需要转义:"emule 0.49c"
大小选择器帮您根据文件大小选择文件。