当前位置: 首页 >> 海外电影 >> 阿黛尔的生活[简繁英字幕].Blue.is.the.Warmest.Color.2013.BluRay.1080p.x265.10bit-MiniHD 6.01GB >> 正文

阿黛尔的生活[简繁英字幕].Blue.is.the.Warmest.Color.2013.BluRay.1080p.x265.10bit-MiniHD 6.01GB

2022年06月27日 12:11:11     电影发布:来源于网络     电影分类:海外电影     评论(0)    

◎标 题 阿黛尔的生活

◎译 名 接近无限温暖的蓝(港) / 蓝色是最温暖的颜色(台) / 火热蓝色 / 阿黛儿的一生:第一、二章 / Adele: Chapters 1 & 2 / Blue Is the Warmest Color

◎片 名 La Vie d'Adèle

◎年 代 2013

◎产 地 法国 / 比利时 / 西班牙

◎类 别 剧情 / 爱情 / 同性

◎语 言 法语 / 英语

◎上映日期 2013-05-23(戛纳电影节) / 2013-10-09(法国/比利时)

◎IMDb评分 7.7/10 (146062人评价)

◎IMDb链接 https://www.imdb.com/title/tt2278871/

◎豆瓣评分 8.4/10 (216937人评价)

◎豆瓣链接 https://movie.douban.com/subject/10535568/

◎片 长 179分钟

◎导 演 阿布戴·柯西胥 Abdellatif Kechiche

◎编 剧 阿布戴·柯西胥 Abdellatif Kechiche

茱莉·马罗 Julie Maroh

加利亚·拉克鲁瓦 Ghalia Lacroix

◎演 员 阿黛尔·艾克萨勒霍布洛斯 Adèle Exarchopoulos

蕾雅·赛杜 Léa Seydoux

萨利姆·克希乌什 Salim Kechiouche

热雷米·拉厄尔特 Jérémie Laheurte

卡特琳·萨雷 Catherine Salée

奥雷利安·雷克因 Aurélien Recoing

莫娜·瓦尔拉芬斯 Mona Walravens

阿尔玛·佐杜洛夫斯基 Alma Jodorowsky

安娜·卢瓦雷 Anne Loiret

本杰明·思科索 Benjamin Siksou

桑德尔·丰泰克 Sandor Funtek

卡米莉·拉瑟福德 Camille Rutherford

茱蒂斯·霍尔什奇 Judith Hoersch

露西·比巴尔 Lucie Bibal

本努瓦·匹隆 Benoît Pilon

芭娅·莱哈兹 Baya Rehaz

范妮莫林 Fanny Maurin

阿布戴·柯西胥 Abdellatif Kechiche

文森特·马拉瓦尔 Vincent Maraval

卜拉欣·基乌阿 Brahim Chioua

索菲安·埃尔·法尼 Sofian El Fani

阿尔伯坦·拉斯特拉 Albertine Lastera

让-玛丽·朗杰勒 Jean-Marie Lengelle

法比恩·波谢 Fabien Pochet

加利亚·拉克鲁瓦 Ghalia Lacroix

◎标 签 同性 / 法国 / 爱情 / 女性 / 情色 / 文艺 / 戛纳 / 剧情

◎简 介

故事主角是15岁女孩阿黛尔(阿黛尔·艾克萨勒霍布洛斯 Adèle Exarchopoulos 饰),她有一个帅气的同学男友托马斯(热雷米·拉厄尔特 Jeremie Laheurte 饰),但托马斯并没能走进她的心。她在街头意外遇到一个美丽的蓝发女孩艾玛(蕾雅·赛杜 Léa Seydoux 饰)后,第一次体验到小鹿乱撞般的怦然心动。而当某晚阿黛尔忐忑不安的走进一家同志酒吧,发现艾玛就在那儿等着她呢。女孩们的彼此靠近让阿黛尔的青春期变得复杂起来…...

《阿黛尔的生活》改编自法国女作家朱莉·马洛的情欲漫画《蓝色是最温暖的颜色》(即英文片名),讲述了女孩阿黛尔一段如火如荼的同性爱情。3个小时的片长长而不闷,充满各种情趣元素,而在性爱内容上又惊人的大胆。影片最可贵之处,是没有将同性恋做为热点话题加以投机,而是以同性之爱作为承载,寄托人类最美好也最伤感的初恋情...

  1. ##### MediaInfo ######

  2. General

  3. Unique ID : 197875544847130701197600914905329694210 (0x94DD7196DE09AC1E8FEDCE73F67DF602)

  4. Complete name : Blue.is.the.Warmest.Color.2013.BluRay.1080p.x265.10bit-MiniHD.mkv

  5. Format : Matroska

  6. Format version : Version 4

  7. File size : 6.01 GiB

  8. Duration : 3 h 0 min

  9. Overall bit rate : 4 775 kb/s

  10. Encoded date : UTC 2018-01-09 04:38:13

  11. Writing application : mkvmerge v8.5.2 ('Crosses') 32bit

  12. Writing library : libebml v1.3.3 + libmatroska v1.4.4

  13. Video

  14. ID : 1

  15. Format : HEVC

  16. Format/Info : High Efficiency Video Coding

  17. Format profile : Main [email protected]@Main

  18. Codec ID : V_MPEGH/ISO/HEVC

  19. Duration : 3 h 0 min

  20. Bit rate : 4 096 kb/s

  21. Width : 1 920 pixels

  22. Height : 800 pixels

  23. Display aspect ratio : 2.40:1

  24. Frame rate mode : Constant

  25. Frame rate : 23.976 (24000/1001/53354) FPS

  26. Color space : YUV

  27. Chroma subsampling : 4:2:0

  28. Bit depth : 10 bits

  29. Bits/(Pixel*Frame) : 0.111

  30. Stream size : 5.15 GiB (86%)

  31. Writing library : x265 2.6+14-f09f3b4a2115:[Windows][GCC 7.2.0][64 bit] 10bit

  32. Encoding settings : cpuid=533541173503 / frame-threads=2 / numa-pools=4 / wpp / no-pmode / no-pme / no-psnr / no-ssim / log-level=2 / input-csp=1 / input-res=1920x800 / interlace=0 / total-frames=259143 / level-idc=0 / high-tier=1 / uhd-bd=0 / ref=5 / no-allow-non-conformance / no-repeat-headers / annexb / no-aud / no-hrd / info / hash=0 / no-temporal-layers / no-open-gop / min-keyint=1 / keyint=360 / gop-lookahead=0 / bframes=8 / b-adapt=2 / b-pyramid / bframe-bias=0 / rc-lookahead=60 / lookahead-slices=4 / NTMzNTQ=uuDQuD2mJt9fsCf / scenecut=40 / no-intra-refresh / ctu=32 / min-cu-size=8 / no-rect / no-amp / max-tu-size=16 / tu-inter-depth=2 / tu-intra-depth=2 / limit-tu=4 / rdoq-level=2 / dynamic-rd=0.00 / ssim-rd / signhide / no-tskip / nr-intra=0 / nr-inter=0 / no-constrained-intra / no-strong-intra-smoothing / max-merge=3 / limit-refs=2 / limit-modes / me=3 / subme=5 / merange=25 / temporal-mvp / weightp / weightb / no-analyze-src-pics / deblock=-1:-1 / no-sao / no-sao-non-deblock / rd=4 / no-early-skip / no-rskip / no-fast-intra / no-tskip-fast / no-cu-lossless / b-intra / no-splitrd-skip / rdpenalty=1 / psy-rd=0.00 / psy-rdoq=5.00 / no-rd-refine / analysis-reuse-mode=0 / no-lossless / cbqpoffs=-2 / crqpoffs=-2 / rc=crf / crf=18.0 / qcomp=0.65 / qpstep=4 / stats-write=0 / stats-read=0 / ipratio=1.40 / pbratio=1.30 / aq-mode=2 / aq-strength=0.90 / cutree / zone-count=0 / no-strict-cbr / qg-size=16 / no-rc-grain / qpmax=69 / qpmin=0 / no-const-vbv / sar=1 / overscan=0 / videoformat=5 / range=0 / colorprim=1 / transfer=2 / colormatrix=2 / chromaloc=0 / display-window=0 / max-cll=0,0 / min-luma=0 / max-luma=1023 / log2-max-poc-lsb=8 / vui-timing-info / vui-hrd-info / slices=1 / no-opt-qp-pps / no-opt-ref-list-length-pps / no-multi-pass-opt-rps / scenecut-bias=0.05 / no-opt-cu-delta-qp / no-aq-motion / no-hdr / no-hdr-opt / no-dhdr10-opt / analysis-reuse-level=5 / scale-factor=0 / refine-intra=0 / refine-inter=0 / refine-mv=0 / no-limit-sao / ctu-info=0 / no-lowpass-dct / refine-mv-type=0 / copy-pic=1

  33. Default : Yes

  34. Forced : No

  35. Color range : Limited

  36. Color primaries : BT.709

  37. Audio

  38. ID : 2

  39. Format : AC-3

  40. Format/Info : Audio Coding 3

  41. Commercial name : Dolby Digital

  42. Codec ID : A_AC3

  43. Duration : 3 h 0 min

  44. Bit rate mode : Constant

  45. Bit rate : 640 kb/s

  46. Channel(s) : 6 channels

  47. Channel layout : L R C LFE Ls Rs

  48. Sampling rate : 48.0 kHz

  49. Frame rate : 31.250 FPS (1536 SPF)

  50. Compression mode : Lossy

  51. Stream size : 825 MiB (13%)

  52. Service kind : Complete Main

  53. Default : Yes

  54. Forced : No

  55. Text #1

  56. ID : 3

  57. Format : PGS

  58. Muxing mode : zlib

  59. Codec ID : S_HDMV/PGS

  60. Codec ID/Info : Picture based subtitle format used on BDs/HD-DVDs

  61. Duration : 2 h 54 min

  62. Bit rate : 12.5 kb/s

  63. Count of elements : 3924

  64. Stream size : 15.6 MiB (0%)

  65. Title : CHT

  66. Language : Chinese

  67. Default : No

  68. Forced : No

  69. Text #2

  70. ID : 4

  71. Format : PGS

  72. Muxing mode : zlib

  73. Codec ID : S_HDMV/PGS

  74. Codec ID/Info : Picture based subtitle format used on BDs/HD-DVDs

  75. Duration : 2 h 54 min

  76. Bit rate : 16.0 kb/s

  77. Count of elements : 3924

  78. Stream size : 20.0 MiB (0%)

  79. Title : CHS

  80. Language : Chinese

  81. Default : Yes

  82. Forced : Yes

  83. Text #3

  84. ID : 5

  85. Format : PGS

  86. Muxing mode : zlib

  87. Codec ID : S_HDMV/PGS

  88. Codec ID/Info : Picture based subtitle format used on BDs/HD-DVDs

  89. Duration : 2 h 54 min

  90. Bit rate : 9 493 b/s

  91. Count of elements : 3924

  92. Stream size : 11.8 MiB (0%)

  93. Title : ENG

  94. Language : English

  95. Default : No

  96. Forced : No

  97. Menu

  98. 00:00:00.000 : en:00:00:00.000

  99. 00:08:04.234 : en:00:08:04.234

  100. 00:11:50.585 : en:00:11:50.585

  101. 00:19:26.665 : en:00:19:26.665

  102. 00:28:52.981 : en:00:28:52.981

  103. 00:36:42.909 : en:00:36:42.909

  104. 00:43:00.578 : en:00:43:00.578

  105. 00:53:38.048 : en:00:53:38.048

  106. 01:02:22.656 : en:01:02:22.656

  107. 01:08:34.736 : en:01:08:34.736

  108. 01:14:54.198 : en:01:14:54.198

  109. 01:21:46.652 : en:01:21:46.652

  110. 01:25:02.597 : en:01:25:02.597

  111. 01:31:55.343 : en:01:31:55.343

  112. 01:34:52.270 : en:01:34:52.270

  113. 01:41:49.353 : en:01:41:49.353

  114. 01:44:57.166 : en:01:44:57.166

  115. 02:03:49.797 : en:02:03:49.797

  116. 02:10:48.924 : en:02:10:48.924

  117. 02:13:57.196 : en:02:13:57.196

  118. 02:21:30.691 : en:02:21:30.691

  119. 02:31:42.719 : en:02:31:42.719

  120. 02:46:30.314 : en:02:46:30.314


复制代码




文件下载


除非特别注明,本文『阿黛尔的生活[简繁英字幕].Blue.is.the.Warmest.Color.2013.BluRay.1080p.x265.10bit-MiniHD 6.01GB』来源于互联网机器人自动抓取,非本站原创。 浮游电影网不对本文拥有版权,如有侵犯,请联系邮箱:fuyouu#yandex.com[#换成@]投诉。我们会在15个工作日内删除。 但烦请转载时请标明出处:“本文转载于『浮游电影网』,原文地址:https://www.fuyouu.com/22575.html

评论吧骚年!

发表你的见解   

昵称*

E-mail*(建议输入,以便收到博主回复的提示邮件)

验证码*

您可以使用eMule或eMule Mod(Windows)、aMule(Win、Linux、Mac)等软件下载eD2k链接。。
eMule收藏集(.emulecollection)文件是您选中的所有链接的列表文件。eMule可以直接下载它们。
按住SHIFT键选择可以选中多个选择框。
可用文件名和大小选择器来选择文件。
文件名选择器帮您根据文件名称或后缀来选择文件。不分大小写。
符号使用:
和:空格( )、+
不包含:-
或:|
转义:一对英文引号("");
匹配开头:^
匹配结尾:$
例如:
选中所有名称中包含有“eMule”或“0.49c”字眼,但不包含有“exe”字眼的:emule|0.49c -exe
选中所有名称的开头是“eMule”,结尾是“0.49c”的:^emule 0.49c$
选中所有名称中带有“eMule 0.49c”的(必须是“eMule 0.49c”,中间没有别的字符,不能是“eMule fake 0.49c”),需要转义:"emule 0.49c"
大小选择器帮您根据文件大小选择文件。