当前位置: 首页 >> 欧美电影 >> 超市夜未眠[简繁字幕].Cashback.2006.BluRay.1080p.x265.10bit-MiniHD 4.95GB >> 正文

超市夜未眠[简繁字幕].Cashback.2006.BluRay.1080p.x265.10bit-MiniHD 4.95GB

2022年06月27日 12:09:11     电影发布:来源于网络     电影分类:欧美电影     评论(0)    

◎标 题 超市夜未眠

◎译 名 爱情回水(港) / 现金回馈 / 找零 / 超市未眠夜

◎片 名 Cashback

◎年 代 2006

◎产 地 英国

◎类 别 剧情 / 喜剧 / 爱情

◎语 言 英语 / 西班牙语

◎上映日期 2006-09-10(多伦多电影节)

◎IMDb评分 7.1/10 (85376人评价)

◎IMDb链接 https://www.imdb.com/title/tt0460740/

◎豆瓣链接 https://movie.douban.com/subject/1945549/

◎片 长 102 分钟

◎标 签 英国 / 爱情 / 英国电影 / 超市夜未眠 / 2006 / 喜剧 / Cashback / 文艺

◎简 介

艺术学院学生本(肖恩•比格斯代夫 Sean Biggerstaff 饰 )在被女友苏芝甩了之后,夜夜无法入睡。在经历了两周的不眠之夜后,本决定到超市去上夜班以打发这额外的8小时。

在超市上夜班,本遇到了形形色色的人,包括喜欢恶搞的同事巴里和马特、超级迷恋中国功夫的布莱恩,还有收银员莎伦(艾米丽雅•福克斯 Emilia Fox 饰)。在这里,本发现了自己有能停止时间的能力。他一次次在上夜班时停止时间,用自己的画笔去描绘各式女子。

不知不觉间,本发现自己喜欢上了莎伦,并且不再失眠。就在本准备展开爱情攻势的时候,误会一个个接踵而至,本又开始失眠了。

  1. ##### MediaInfo ######

  2. General

  3. Unique ID : 285335318038776256229151971390287649967 (0xD6A995547937E92D9F1316FBF2921CAF)

  4. Complete name : Cashback.2006.BluRay.1080p.x265.10bit-MiniHD.mkv

  5. Format : Matroska

  6. Format version : Version 4

  7. File size : 4.95 GiB

  8. Duration : 1 h 42 min

  9. Overall bit rate : 6 937 kb/s

  10. Encoded date : UTC 2017-12-28 12:39:35

  11. Writing application : mkvmerge v19.0.0 ('Brave Captain') 64-bit

  12. Writing library : libebml v1.3.5 + libmatroska v1.4.8

  13. Video

  14. ID : 1

  15. Format : HEVC

  16. Format/Info : High Efficiency Video Coding

  17. Format profile : Main [email protected]@High

  18. Codec ID : V_MPEGH/ISO/HEVC

  19. Duration : 1 h 42 min

  20. Bit rate : 5 300 kb/s

  21. Width : 1 920 pixels

  22. Height : 820 pixels

  23. Display aspect ratio : 2.35:1

  24. Frame rate mode : Constant

  25. Frame rate : 23.976 (24000/1001/53354) FPS

  26. Color space : YUV

  27. Chroma subsampling : 4:2:0

  28. Bit depth : 10 bits

  29. Bits/(Pixel*Frame) : 0.140

  30. Stream size : 3.78 GiB (76%)

  31. Title : Video.HEVC

  32. Default : Yes

  33. Forced : No

  34. Color range : Limited

  35. Color primaries : BT.709

  36. Audio

  37. ID : 2

  38. Format : DTS

  39. Format/Info : Digital Theater Systems

  40. Codec ID : A_DTS

  41. Duration : 1 h 42 min

  42. Bit rate mode : Constant

  43. Bit rate : 1 509 kb/s

  44. Channel(s) : 6 channels

  45. Channel layout : C L R Ls Rs LFE

  46. Sampling rate : 48.0 kHz

  47. Frame rate : 93.750 FPS (512 SPF)

  48. Bit depth : 24 bits

  49. Compression mode : Lossy

  50. Stream size : 1.08 GiB (22%)

  51. Title : Audio.dts-5.1

  52. Language : English

  53. Default : Yes

  54. Forced : No

  55. Text #1

  56. ID : 3

  57. Format : PGS

  58. Codec ID : S_HDMV/PGS

  59. Codec ID/Info : Picture based subtitle format used on BDs/HD-DVDs

  60. Duration : 1 h 38 min

  61. Bit rate : 25.3 kb/s

  62. Count of elements : 2153

  63. Stream size : 17.8 MiB (0%)

  64. Title : 简体中文.sup

  65. Language : Chinese

  66. Default : Yes

  67. Forced : No

  68. Text #2

  69. ID : 4

  70. Format : PGS

  71. Codec ID : S_HDMV/PGS

  72. Codec ID/Info : Picture based subtitle format used on BDs/HD-DVDs

  73. Duration : 1 h 38 min

  74. Bit rate : 38.9 kb/s

  75. Count of elements : 2153

  76. Stream size : 27.4 MiB (1%)

  77. Title : 简英.sup

  78. Default : No

  79. Forced : No

  80. Text #3

  81. ID : 5

  82. Format : PGS

  83. Codec ID : S_HDMV/PGS

  84. Codec ID/Info : Picture based subtitle format used on BDs/HD-DVDs

  85. Duration : 1 h 38 min

  86. Bit rate : 26.2 kb/s

  87. Count of elements : 2153

  88. Stream size : 18.5 MiB (0%)

  89. Title : 繁体.sup

  90. Language : Chinese

  91. Default : No

  92. Forced : No

  93. Text #4

  94. ID : 6

  95. Format : PGS

  96. Codec ID : S_HDMV/PGS

  97. Codec ID/Info : Picture based subtitle format used on BDs/HD-DVDs

  98. Duration : 1 h 38 min

  99. Bit rate : 39.9 kb/s

  100. Count of elements : 2153

  101. Stream size : 28.1 MiB (1%)

  102. Title : 繁英.sup

  103. Default : No

  104. Forced : No

  105. Menu

  106. 00:00:00.000 : en:Chapter 01

  107. 00:01:20.747 : en:Chapter 02

  108. 00:04:24.639 : en:Chapter 03

  109. 00:10:39.973 : en:Chapter 04

  110. 00:13:39.152 : en:Chapter 05

  111. 00:16:52.678 : en:Chapter 06

  112. 00:21:46.305 : en:Chapter 07

  113. 00:25:01.500 : en:Chapter 08

  114. 00:29:24.763 : en:Chapter 09

  115. 00:32:43.503 : en:Chapter 10

  116. 00:34:31.236 : en:Chapter 11

  117. 00:40:06.362 : en:Chapter 12

  118. 00:44:31.419 : en:Chapter 13

  119. 00:47:32.308 : en:Chapter 14

  120. 00:55:26.823 : en:Chapter 15

  121. 00:58:53.780 : en:Chapter 16

  122. 01:03:36.229 : en:Chapter 17

  123. 01:11:02.467 : en:Chapter 18

  124. 01:13:21.355 : en:Chapter 19

  125. 01:17:19.802 : en:Chapter 20

  126. 01:21:34.973 : en:Chapter 21

  127. 01:28:49.908 : en:Chapter 22

  128. 01:30:38.683 : en:Chapter 23

  129. 01:35:57.752 : en:Chapter 24

  130. 01:42:02.450 : en:Chapter 25


复制代码



文件下载


除非特别注明,本文『超市夜未眠[简繁字幕].Cashback.2006.BluRay.1080p.x265.10bit-MiniHD 4.95GB』来源于互联网机器人自动抓取,非本站原创。 浮游电影网不对本文拥有版权,如有侵犯,请联系邮箱:fuyouu#yandex.com[#换成@]投诉。我们会在15个工作日内删除。 但烦请转载时请标明出处:“本文转载于『浮游电影网』,原文地址:https://www.fuyouu.com/22572.html

评论吧骚年!

发表你的见解   

昵称*

E-mail*(建议输入,以便收到博主回复的提示邮件)

验证码*

您可以使用eMule或eMule Mod(Windows)、aMule(Win、Linux、Mac)等软件下载eD2k链接。。
eMule收藏集(.emulecollection)文件是您选中的所有链接的列表文件。eMule可以直接下载它们。
按住SHIFT键选择可以选中多个选择框。
可用文件名和大小选择器来选择文件。
文件名选择器帮您根据文件名称或后缀来选择文件。不分大小写。
符号使用:
和:空格( )、+
不包含:-
或:|
转义:一对英文引号("");
匹配开头:^
匹配结尾:$
例如:
选中所有名称中包含有“eMule”或“0.49c”字眼,但不包含有“exe”字眼的:emule|0.49c -exe
选中所有名称的开头是“eMule”,结尾是“0.49c”的:^emule 0.49c$
选中所有名称中带有“eMule 0.49c”的(必须是“eMule 0.49c”,中间没有别的字符,不能是“eMule fake 0.49c”),需要转义:"emule 0.49c"
大小选择器帮您根据文件大小选择文件。