当前位置: 首页 >> 欧美电影 >> 瞬息全宇宙[中文字幕].Everything.Everywhere.All.at.Once.2022.1080p.BluRay.REMUX.AVC.DTS-HD.MA.TrueHD.7.1.Atmos >> 正文

瞬息全宇宙[中文字幕].Everything.Everywhere.All.at.Once.2022.1080p.BluRay.REMUX.AVC.DTS-HD.MA.TrueHD.7.1.Atmos

2022年06月26日 11:00:36     电影发布:来源于网络     电影分类:欧美电影     评论(0)    

瞬息全宇宙[中文字幕].Everything.Everywhere.All.at.Once.2022.1080p.BluRay.REMUX.AVC.DTS-HD.MA.TrueHD.7.1.Atmos-FGT 34.37GB

瞬息全宇宙[中文字幕].Everything.Everywhere.All.at.Once.2022.1080p.BluRay.REMUX.AVC.DTS HD.MA.TrueHD.7.1.Atmos  欧美电影  第1张

瞬息全宇宙[中文字幕].Everything.Everywhere.All.at.Once.2022.1080p.BluRay.REMUX.AVC.DTS HD.MA.TrueHD.7.1.Atmos  欧美电影  第2张

◎译 名 瞬息全宇宙 / 妈的多重宇宙(台) / 奇异女侠玩救宇宙(港) / 天马行空(新加坡) / 瞬息各处所有 / 全部世界同时一切

◎片 名 Everything Everywhere All at Once

◎年 代 2022

◎产 地 美国

◎类 别 喜剧 / 奇幻 / 冒险

◎语 言 英语 / 汉语普通话 / 粤语

◎上映日期 2022-03-11(西南偏南电影节) / 2022-03-25(美国)

◎IMDb链接 https://www.imdb.com/title/tt6710474/

◎豆瓣评分 7.7/10 (316209人评价)

◎豆瓣链接 https://movie.douban.com/subject/30314848/

◎片 长 139分钟

◎导 演 关家永 Dan Kwan (id:1356396)

丹尼尔·施纳特 Daniel Scheinert (id:1356397)

◎编 剧 关家永 Dan Kwan (id:1356396)

丹尼尔·施纳特 Daniel Scheinert (id:1356397)

◎演 员 杨紫琼 Michelle Yeoh (id:1022664)

许玮伦 Stephanie Hsu (id:1356993)

关继威 Jonathan Ke Quan (id:1022565)

吴汉章 James Hong (id:1031824)

杰米·李·柯蒂斯 Jamie Lee Curtis (id:1041127)

塔丽·梅德尔 Tallie Medel (id:1353816)

珍妮·斯蕾特 Jenny Slate (id:1230973)

岑勇康 Harry Shum Jr. (id:1044718)

比夫·威夫 Biff Wiff (id:1469370)

布莱恩·勒 Brian Le (id:1456759)

安迪·黎 Andy Le (id:1456768)

李静 Li Jing (id:1472047)

苏妮特·玛尼 Sunita Mani (id:1366880)

阿隆·拉扎尔 Aaron Lazar (id:1343713)

切尔西·戈德史密斯 Chelsey Goldsmith (id:1469371)

克雷格·亨宁森 Craig Henningsen (id:1229199)

安东尼·莫利纳利 Anthony Molinari (id:1045545)

丹·布朗 Dan Brown (id:1181319)

帕努瓦特·安东尼·纳纳肯帕诺姆 Panuvat Anthony Nanakornpanom (id:1309119)

卡拉·玛丽·乔尔简 Cara Marie Chooljian (id:1469372)

兰达尔·阿切尔 Randall Archer (id:1351135)

埃夫卡·科瓦拉西尤斯 Efka Kvaraciejus (id:1331229)

奥德丽·瓦西莱夫斯基 Audrey Wasilewski (id:1328955)

布恩·平考 Boon Pin Koh (id:1377199)

蒂莫西·尤里齐 Timothy Eulich (id:1356398)

丹尼尔·施纳特 Daniel Scheinert (id:1356397)

西协美智子 Michiko Nishiwaki (id:1041987)

蒂莫西·斯科特·拉尔斯顿 Timothy Scott Ralston (id:1148643)

兰迪·纽曼 Randy Newman (id:1036596)

纳拉亚纳·卡布拉尔 Narayana Cabral (id:1471986)

D.Y. Sao D.Y. Sao (id:1239718)

关家永 Dan Kwan (id:1356396)

安东尼·罗素 Anthony Russo (id:1321812)

乔·罗素 Joe Russo (id:1320870)

迈克·拉罗卡 Mike Larocca (id:1452625)

关家永 Dan Kwan (id:1356396)

丹尼尔·施纳特 Daniel Scheinert (id:1356397)

杨紫琼 Michelle Yeoh (id:1022664)

萨拉·芬兰 Sarah Finn (id:1283741)

托德·马库拉思 Todd Makurath (id:1452633)

王庆 Jonathan Wang (id:1472372)

Son Lux (id:1472333)

拉金·赛普尔 Larkin Seiple (id:1472371)

萨拉·芬兰 Sarah Finn (id:1283741)

Shirley Kurata (id:1472399)

◎简 介

55岁的美国华裔移民伊芙琳(杨紫琼 饰)家庭事业两崩溃。在老父亲生日大寿这天,除了要阻止女儿(许玮伦 饰)暴走出柜、替无用丈夫(关继威 饰)擦屁股,还得去税务局向古板大婶(杰米·李·柯蒂斯 饰)解释不太妙的税务问题。才踏进大楼电梯,软烂丈夫竟摇身一变演起黑客帝国,声称自己是另一个宇宙的版本,而秀莲也是千万宇宙里的其中一个。还来不及理解,邪恶势力已在多元宇宙中蔓延,世界即将毁灭,只有在这个宇宙里,“一无是处”的伊芙琳才能拯救世界……

  1. Video

  2. ID : 1

  3. ID in the original source medium : 4113 (0x1011)

  4. Format : AVC

  5. Format/Info : Advanced Video Codec

  6. Format profile : [email protected]

  7. Format settings : CABAC / 4 Ref Frames

  8. Format settings, CABAC : Yes

  9. Format settings, Reference frames : 4 frames

  10. Codec ID : V_MPEG4/ISO/AVC

  11. Duration : 2 h 19 min

  12. Bit rate mode : Variable

  13. Bit rate : 26.3 Mb/s

  14. Maximum bit rate : 37.0 Mb/s

  15. Width : 1 920 pixels

  16. Height : 1 080 pixels

  17. Display aspect ratio : 16:9

  18. Frame rate mode : Constant

  19. Frame rate : 23.976 (24000/1001/53354) FPS

  20. Color space : YUV

  21. Chroma subsampling : 4:2:0

  22. Bit depth : 8 bits

  23. Scan type : Progressive

  24. Bits/(Pixel*Frame) : 0.528

  25. Stream size : 25.6 GiB (74%)

  26. Language : English

  27. Default : No

  28. Forced : No

  29. Original source medium : Blu-ray


  30. Audio #1

  31. ID : 2

  32. ID in the original source medium : 4352 (0x1100)

  33. Format : MLP FBA 16-ch

  34. Format/Info : Meridian Lossless Packing FBA with 16-channel presentation

  35. Commercial name : Dolby TrueHD with Dolby Atmos

  36. Codec ID : A_TRUEHD

  37. Duration : 2 h 19 min

  38. Bit rate mode : Variable

  39. Bit rate : 4 006 kb/s

  40. Maximum bit rate : 6 843 kb/s

  41. Channel(s) : 8 channels

  42. Channel layout : L R C LFE Ls Rs Lb Rb

  43. Sampling rate : 48.0 kHz

  44. Frame rate : 1 200.000 FPS (40 SPF)

  45. Bit depth : 24 bits

  46. Compression mode : Lossless

  47. Stream size : 3.90 GiB (11%)

  48. Title : TrueHD 7.1 Atmos

  49. Language : English

  50. Default : Yes

  51. Forced : No

  52. Original source medium : Blu-ray

  53. Number of dynamic objects : 11

  54. Bed channel count : 1 channel

  55. Bed channel configuration : LFE


  56. Audio #2

  57. ID : 3

  58. Format : DTS XLL

  59. Format/Info : Digital Theater Systems

  60. Commercial name : DTS-HD Master Audio

  61. Codec ID : A_DTS

  62. Duration : 2 h 19 min

  63. Bit rate mode : Variable

  64. Bit rate : 4 087 kb/s

  65. Channel(s) : 8 channels

  66. Channel layout : C L R LFE Lb Rb Lss Rss

  67. Sampling rate : 48.0 kHz

  68. Frame rate : 93.750 FPS (512 SPF)

  69. Bit depth : 24 bits

  70. Compression mode : Lossless

  71. Stream size : 3.98 GiB (12%)

  72. Title : DTS-HD MA 7.1

  73. Language : English

  74. Default : No

  75. Forced : No


  76. Audio #3

  77. ID : 4

  78. ID in the original source medium : 4352 (0x1100)

  79. Format : AC-3

  80. Format/Info : Audio Coding 3

  81. Commercial name : Dolby Digital

  82. Codec ID : A_AC3

  83. Duration : 2 h 19 min

  84. Bit rate mode : Constant

  85. Bit rate : 640 kb/s

  86. Channel(s) : 6 channels

  87. Channel layout : L R C LFE Ls Rs

  88. Sampling rate : 48.0 kHz

  89. Frame rate : 31.250 FPS (1536 SPF)

  90. Compression mode : Lossy

  91. Stream size : 638 MiB (2%)

  92. Title : DD 5.1

  93. Language : English

  94. Service kind : Complete Main

  95. Default : No

  96. Forced : No

  97. Original source medium : Blu-ray


  98. Audio #4

  99. ID : 5

  100. ID in the original source medium : 4353 (0x1101)

  101. Format : AC-3

  102. Format/Info : Audio Coding 3

  103. Commercial name : Dolby Digital

  104. Codec ID : A_AC3

  105. Duration : 2 h 19 min

  106. Bit rate mode : Constant

  107. Bit rate : 192 kb/s

  108. Channel(s) : 2 channels

  109. Channel layout : L R

  110. Sampling rate : 48.0 kHz

  111. Frame rate : 31.250 FPS (1536 SPF)

  112. Compression mode : Lossy

  113. Stream size : 191 MiB (0%)

  114. Title : DD 2.0

  115. Language : English

  116. Service kind : Complete Main

  117. Default : No

  118. Forced : No

  119. Original source medium : Blu-ray


  120. Text #1

  121. ID : 6

  122. Format : UTF-8

  123. Codec ID : S_TEXT/UTF8

  124. Codec ID/Info : UTF-8 Plain Text

  125. Duration : 2 h 10 min

  126. Bit rate : 43 b/s

  127. Count of elements : 1442

  128. Stream size : 41.4 KiB (0%)

  129. Language : English

  130. Default : Yes

  131. Forced : No


  132. Text #2

  133. ID : 7

  134. Format : UTF-8

  135. Codec ID : S_TEXT/UTF8

  136. Codec ID/Info : UTF-8 Plain Text

  137. Duration : 2 h 15 min

  138. Bit rate : 60 b/s

  139. Count of elements : 2093

  140. Stream size : 60.4 KiB (0%)

  141. Title : SDH

  142. Language : English

  143. Default : No

  144. Forced : No


  145. Text #3

  146. ID : 8

  147. ID in the original source medium : 4608 (0x1200)

  148. Format : PGS

  149. Muxing mode : zlib

  150. Codec ID : S_HDMV/PGS

  151. Codec ID/Info : Picture based subtitle format used on BDs/HD-DVDs

  152. Duration : 2 h 15 min

  153. Bit rate : 39.2 kb/s

  154. Count of elements : 4244

  155. Stream size : 38.0 MiB (0%)

  156. Language : English

  157. Default : No

  158. Forced : No

  159. Original source medium : Blu-ray


  160. Text #4

  161. ID : 9

  162. ID in the original source medium : 4609 (0x1201)

  163. Format : PGS

  164. Muxing mode : zlib

  165. Codec ID : S_HDMV/PGS

  166. Codec ID/Info : Picture based subtitle format used on BDs/HD-DVDs

  167. Duration : 2 h 17 min

  168. Bit rate : 31.0 kb/s

  169. Count of elements : 3428

  170. Stream size : 30.5 MiB (0%)

  171. Language : Spanish

  172. Default : No

  173. Forced : No

  174. Original source medium : Blu-ray


  175. Text #5

  176. ID : 10

  177. ID in the original source medium : 4610 (0x1202)

  178. Format : PGS

  179. Muxing mode : zlib

  180. Codec ID : S_HDMV/PGS

  181. Codec ID/Info : Picture based subtitle format used on BDs/HD-DVDs

  182. Duration : 2 h 17 min

  183. Bit rate : 27.5 kb/s

  184. Count of elements : 3446

  185. Stream size : 27.1 MiB (0%)

  186. Language : Chinese

  187. Default : No

  188. Forced : No

  189. Original source medium : Blu-ray


  190. Menu

  191. 00:00:00.000 : en:Chapter 01

  192. 00:07:05.049 : en:Chapter 02

  193. 00:11:45.705 : en:Chapter 03

  194. 00:24:55.327 : en:Chapter 04

  195. 00:32:52.261 : en:Chapter 05

  196. 00:42:08.108 : en:Chapter 06

  197. 00:52:26.601 : en:Chapter 07

  198. 01:01:51.624 : en:Chapter 08

  199. 01:10:27.973 : en:Chapter 09

  200. 01:17:09.041 : en:Chapter 10

  201. 01:25:09.104 : en:Chapter 11

  202. 01:31:54.509 : en:Chapter 12

  203. 01:39:50.818 : en:Chapter 13

  204. 01:51:25.679 : en:Chapter 14

  205. 01:59:09.142 : en:Chapter 15

  206. 02:10:08.467 : en:Chapter 16

复制代码

瞬息全宇宙[中文字幕].Everything.Everywhere.All.at.Once.2022.1080p.BluRay.REMUX.AVC.DTS HD.MA.TrueHD.7.1.Atmos  欧美电影  第3张 瞬息全宇宙[中文字幕].Everything.Everywhere.All.at.Once.2022.1080p.BluRay.REMUX.AVC.DTS HD.MA.TrueHD.7.1.Atmos  欧美电影  第4张 瞬息全宇宙[中文字幕].Everything.Everywhere.All.at.Once.2022.1080p.BluRay.REMUX.AVC.DTS HD.MA.TrueHD.7.1.Atmos  欧美电影  第5张



文件下载


除非特别注明,本文『瞬息全宇宙[中文字幕].Everything.Everywhere.All.at.Once.2022.1080p.BluRay.REMUX.AVC.DTS-HD.MA.TrueHD.7.1.Atmos』来源于互联网机器人自动抓取,非本站原创。 浮游电影网不对本文拥有版权,如有侵犯,请联系邮箱:fuyouu#yandex.com[#换成@]投诉。我们会在15个工作日内删除。 但烦请转载时请标明出处:“本文转载于『浮游电影网』,原文地址:https://www.fuyouu.com/22568.html

评论吧骚年!

发表你的见解   

昵称*

E-mail*(建议输入,以便收到博主回复的提示邮件)

验证码*

您可以使用eMule或eMule Mod(Windows)、aMule(Win、Linux、Mac)等软件下载eD2k链接。。
eMule收藏集(.emulecollection)文件是您选中的所有链接的列表文件。eMule可以直接下载它们。
按住SHIFT键选择可以选中多个选择框。
可用文件名和大小选择器来选择文件。
文件名选择器帮您根据文件名称或后缀来选择文件。不分大小写。
符号使用:
和:空格( )、+
不包含:-
或:|
转义:一对英文引号("");
匹配开头:^
匹配结尾:$
例如:
选中所有名称中包含有“eMule”或“0.49c”字眼,但不包含有“exe”字眼的:emule|0.49c -exe
选中所有名称的开头是“eMule”,结尾是“0.49c”的:^emule 0.49c$
选中所有名称中带有“eMule 0.49c”的(必须是“eMule 0.49c”,中间没有别的字符,不能是“eMule fake 0.49c”),需要转义:"emule 0.49c"
大小选择器帮您根据文件大小选择文件。