当前位置: 首页 >> 欧美电影 >> 奇异博士2[IMAX满屏版][杜比视界版本][简繁英特效字幕].Doctor.Strange.2022.2160p.WEB-DL.DDP5.1.Atmos.HDR.DV.HEVC-CHDBits 22 >> 正文

奇异博士2[IMAX满屏版][杜比视界版本][简繁英特效字幕].Doctor.Strange.2022.2160p.WEB-DL.DDP5.1.Atmos.HDR.DV.HEVC-CHDBits 22

2022年06月25日 08:18:00     电影发布:来源于网络     电影分类:欧美电影     评论(0)    

奇异博士2[IMAX满屏版][杜比视界版本][简繁英特效字幕].Doctor.Strange.2022.2160p.WEB-DL.DDP5.1.Atmos.HDR.DV.HEVC-CHDBits 22.37GB

◎标 题 奇异博士2:疯狂多元宇宙

◎译 名 奇异博士2 / 斯特兰奇博士2 / 奇异博士2:失控多重宇宙(港 / 台) / 奇异博士2: 失控多元宇宙(港) / Doctor Strange 2 / Doctor Strange: in the Multiverse of Madness

◎片 名 Doctor Strange in the Multiverse of Madness

◎年 代 2022

◎产 地 美国

◎类 别 动作 / 恐怖 / 奇幻 / 冒险

◎语 言 英语

◎上映日期 2022-05-04(中国台湾) / 2022-05-06(美国)

◎IMDb评分 7.3/10 (192714人评价)

◎IMDb链接 https://www.imdb.com/title/tt9419884/

◎豆瓣链接 https://movie.douban.com/subject/30304994/

◎片 长 126分钟

◎导 演 山姆·雷米 Sam Raimi

◎编 剧 迈克尔·沃尔德伦 Michael Waldron

杰德·哈雷·巴特利特 Jade Halley Bartlett

史蒂夫·迪特寇 Steve Ditko

斯坦·李 Stan Lee

◎演 员 本尼迪克特·康伯巴奇 Benedict Cumberbatch

伊丽莎白·奥尔森 Elizabeth Olsen

切瓦特·埃加福 Chiwetel Ejiofor

本尼迪克特·王 Benedict Wong

克索斯利尔·戈麦斯 Xochitl Gomez

瑞秋·麦克亚当斯 Rachel McAdams

迈克尔·斯图巴 Michael Stuhlbarg

帕特里克·斯图尔特 Patrick Stewart

海莉·阿特维尔 Hayley Atwell

约翰·卡拉辛斯基 John Krasinski

拉什纳·林奇 Lashana Lynch

安松·蒙特 Anson Mount

查理兹·塞隆 Charlize Theron

希拉·阿蒂姆 Sheila Atim

亚当·赫吉尔 Adam Hugill

亚子·米切尔 Ako Mitchell

杨沫沫 Momo Yeung

丹尼尔·斯温 Daniel Swain

多波·雷斯尼怀罗 Topo Wresniwiro

伊登·纳森森 Eden Nathenson

维尼·莫利 Vinny Moli

大卫·谢 David Tse

乔丹·亚历桑德拉 Jordan Alexandra

迈克尔·沃尔德伦 Michael Waldron

朱利安·希威德 Julian Hilliard

杰特·克莱恩 Jett Klyne

布鲁斯·坎贝尔 Bruce Campbell

马里安·洛伦西克 Marian Lorencik

凯文·费奇 Kevin Feige

丹尼·艾夫曼 Danny Elfman

格雷厄姆·丘彻亚德 Graham Churchyard

◎简 介

充满无限未知的疯狂多元宇宙即将展开,一切皆有可能。

  1. ##### MediaInfo ######

  2. General

  3. Unique ID : 38211159172424618754347316473407412532 (0x1CBF3399D42F702C535A83E6C8DF1934)

  4. Complete name : Doctor.Strange.in.the.Multiverse.of.Madness.2022.V2.2160p.WEB-DL.DDP5.1.Atmos.HDR.DV.HEVC-CHDBits.mkv

  5. Format : Matroska

  6. Format version : Version 4

  7. File size : 22.4 GiB

  8. Duration : 2 h 6 min

  9. Overall bit rate : 25.3 Mb/s

  10. Movie name : Doctor.Strange.in.the.Multiverse.of.Madness.2022.CMRG

  11. Encoded date : UTC 2022-06-23 04:36:22

  12. Writing application : mkvmerge v64.0.0 ('Willows') 64-bit

  13. Writing library : libebml v1.4.2 + libmatroska v1.6.4

  14. Video

  15. ID : 1

  16. Format : HEVC

  17. Format/Info : High Efficiency Video Coding

  18. Format profile : Main [email protected]@High

  19. HDR format : SMPTE ST 2086, HDR10 compatible

  20. Codec ID : V_MPEGH/ISO/HEVC

  21. Duration : 2 h 6 min

  22. Bit rate : 24.5 Mb/s

  23. Width : 3 840 pixels

  24. Height : 2 160 pixels

  25. Display aspect ratio : 16:9

  26. Frame rate mode : Constant

  27. Frame rate : 23.976 (24000/1001/53354) FPS

  28. Color space : YUV

  29. Chroma subsampling : 4:2:0 (Type 2)

  30. Bit depth : 10 bits

  31. Bits/(Pixel*Frame) : 0.123

  32. Stream size : 21.7 GiB (97%)

  33. Language : English

  34. Default : Yes

  35. Forced : No

  36. Color range : Limited

  37. Color primaries : BT.2020

  38. Transfer characteristics : PQ

  39. Matrix coefficients : BT.2020 non-constant

  40. Mastering display color primaries : BT.2020

  41. Mastering display luminance : min: 0.0001 cd/m2, max: 1000 cd/m2

  42. Maximum Content Light Level : 1000 cd/m2

  43. Maximum Frame-Average Light Level : 901 cd/m2

  44. Audio

  45. ID : 2

  46. Format : E-AC-3 JOC

  47. Format/Info : Enhanced AC-3 with Joint Object Coding

  48. Commercial name : Dolby Digital Plus with Dolby Atmos

  49. Codec ID : A_EAC3

  50. Duration : 2 h 6 min

  51. Bit rate mode : Constant

  52. Bit rate : 768 kb/s

  53. Channel(s) : 6 channels

  54. Channel layout : L R C LFE Ls Rs

  55. Sampling rate : 48.0 kHz

  56. Frame rate : 31.250 FPS (1536 SPF)

  57. Compression mode : Lossy

  58. Stream size : 695 MiB (3%)

  59. Language : English

  60. Service kind : Complete Main

  61. Default : Yes

  62. Forced : No

  63. Complexity index : 16

  64. Number of dynamic objects : 15

  65. Bed channel count : 1 channel

  66. Bed channel configuration : LFE

  67. Text #1

  68. ID : 3

  69. Format : PGS

  70. Muxing mode : zlib

  71. Codec ID : S_HDMV/PGS

  72. Codec ID/Info : Picture based subtitle format used on BDs/HD-DVDs

  73. Duration : 2 h 5 min

  74. Bit rate : 35.4 kb/s

  75. Count of elements : 3554

  76. Stream size : 31.8 MiB (0%)

  77. Title : 中英特效.by.AQLJ

  78. Language : Chinese

  79. Default : Yes

  80. Forced : Yes

  81. Text #2

  82. ID : 4

  83. Format : PGS

  84. Muxing mode : zlib

  85. Codec ID : S_HDMV/PGS

  86. Codec ID/Info : Picture based subtitle format used on BDs/HD-DVDs

  87. Duration : 2 h 5 min

  88. Bit rate : 27.1 kb/s

  89. Count of elements : 3554

  90. Stream size : 24.3 MiB (0%)

  91. Title : 简中特效.by.AQLJ

  92. Language : Chinese

  93. Default : No

  94. Forced : No

  95. Text #3

  96. ID : 5

  97. Format : UTF-8

  98. Codec ID : S_TEXT/UTF8

  99. Codec ID/Info : UTF-8 Plain Text

  100. Duration : 2 h 5 min

  101. Bit rate : 36 b/s

  102. Count of elements : 1249

  103. Stream size : 33.8 KiB (0%)

  104. Language : English

  105. Default : No

  106. Forced : No

  107. Text #4

  108. ID : 6

  109. Format : UTF-8

  110. Codec ID : S_TEXT/UTF8

  111. Codec ID/Info : UTF-8 Plain Text

  112. Duration : 55 min 41 s

  113. Bit rate : 60 b/s

  114. Count of elements : 992

  115. Stream size : 24.9 KiB (0%)

  116. Title : SDH

  117. Language : English

  118. Default : No

  119. Forced : No

  120. Text #5

  121. ID : 7

  122. Format : UTF-8

  123. Codec ID : S_TEXT/UTF8

  124. Codec ID/Info : UTF-8 Plain Text

  125. Duration : 25 min 8 s

  126. Bit rate : 1 b/s

  127. Count of elements : 10

  128. Stream size : 265 Bytes (0%)

  129. Title : Forced

  130. Language : English

  131. Default : No

  132. Forced : No

  133. Text #6

  134. ID : 8

  135. Format : UTF-8

  136. Codec ID : S_TEXT/UTF8

  137. Codec ID/Info : UTF-8 Plain Text

  138. Duration : 2 h 5 min

  139. Bit rate : 56 b/s

  140. Count of elements : 1261

  141. Stream size : 52.1 KiB (0%)

  142. Language : Arabic

  143. Default : No

  144. Forced : No

  145. Text #7

  146. ID : 9

  147. Format : UTF-8

  148. Codec ID : S_TEXT/UTF8

  149. Codec ID/Info : UTF-8 Plain Text

  150. Duration : 2 h 5 min

  151. Bit rate : 55 b/s

  152. Count of elements : 1259

  153. Stream size : 51.0 KiB (0%)

  154. Language : Bulgarian

  155. Default : No

  156. Forced : No

  157. Text #8

  158. ID : 10

  159. Format : UTF-8

  160. Codec ID : S_TEXT/UTF8

  161. Codec ID/Info : UTF-8 Plain Text

  162. Duration : 2 h 5 min

  163. Bit rate : 30 b/s

  164. Count of elements : 1273

  165. Stream size : 27.6 KiB (0%)

  166. Title : Traditional

  167. Language : Chinese

  168. Default : No

  169. Forced : No

  170. Text #9

  171. ID : 11

  172. Format : UTF-8

  173. Codec ID : S_TEXT/UTF8

  174. Codec ID/Info : UTF-8 Plain Text

  175. Duration : 2 h 5 min

  176. Bit rate : 35 b/s

  177. Count of elements : 1256

  178. Stream size : 32.1 KiB (0%)

  179. Language : Czech

  180. Default : No

  181. Forced : No

  182. Text #10

  183. ID : 12

  184. Format : UTF-8

  185. Codec ID : S_TEXT/UTF8

  186. Codec ID/Info : UTF-8 Plain Text

  187. Duration : 2 h 5 min

  188. Bit rate : 32 b/s

  189. Count of elements : 815

  190. Stream size : 29.5 KiB (0%)

  191. Language : Danish

  192. Default : No

  193. Forced : No

  194. Text #11

  195. ID : 13

  196. Format : UTF-8

  197. Codec ID : S_TEXT/UTF8

  198. Codec ID/Info : UTF-8 Plain Text

  199. Duration : 2 h 5 min

  200. Bit rate : 62 b/s

  201. Count of elements : 1244

  202. Stream size : 57.1 KiB (0%)

  203. Language : Greek

  204. Default : No

  205. Forced : No

  206. Text #12

  207. ID : 14

  208. Format : UTF-8

  209. Codec ID : S_TEXT/UTF8

  210. Codec ID/Info : UTF-8 Plain Text

  211. Duration : 2 h 5 min

  212. Bit rate : 37 b/s

  213. Count of elements : 1262

  214. Stream size : 34.7 KiB (0%)

  215. Language : Estonian

  216. Default : No

  217. Forced : No

  218. Text #13

  219. ID : 15

  220. Format : UTF-8

  221. Codec ID : S_TEXT/UTF8

  222. Codec ID/Info : UTF-8 Plain Text

  223. Duration : 2 h 5 min

  224. Bit rate : 37 b/s

  225. Count of elements : 1246

  226. Stream size : 34.1 KiB (0%)

  227. Language : Finnish

  228. Default : No

  229. Forced : No

  230. Text #14

  231. ID : 16

  232. Format : UTF-8

  233. Codec ID : S_TEXT/UTF8

  234. Codec ID/Info : UTF-8 Plain Text

  235. Duration : 2 h 5 min

  236. Bit rate : 35 b/s

  237. Count of elements : 1226

  238. Stream size : 32.6 KiB (0%)

  239. Language : Croatian

  240. Default : No

  241. Forced : No

  242. Text #15

  243. ID : 17

  244. Format : UTF-8

  245. Codec ID : S_TEXT/UTF8

  246. Codec ID/Info : UTF-8 Plain Text

  247. Duration : 2 h 5 min

  248. Bit rate : 33 b/s

  249. Count of elements : 1256

  250. Stream size : 30.6 KiB (0%)

  251. Language : Hungarian

  252. Default : No

  253. Forced : No

  254. Text #16

  255. ID : 18

  256. Format : UTF-8

  257. Codec ID : S_TEXT/UTF8

  258. Codec ID/Info : UTF-8 Plain Text

  259. Duration : 2 h 5 min

  260. Bit rate : 35 b/s

  261. Count of elements : 1258

  262. Stream size : 32.3 KiB (0%)

  263. Language : Indonesian

  264. Default : No

  265. Forced : No

  266. Text #17

  267. ID : 19

  268. Format : UTF-8

  269. Codec ID : S_TEXT/UTF8

  270. Codec ID/Info : UTF-8 Plain Text

  271. Duration : 2 h 5 min

  272. Bit rate : 36 b/s

  273. Count of elements : 1258

  274. Stream size : 33.9 KiB (0%)

  275. Language : Icelandic

  276. Default : No

  277. Forced : No

  278. Text #18

  279. ID : 20

  280. Format : UTF-8

  281. Codec ID : S_TEXT/UTF8

  282. Codec ID/Info : UTF-8 Plain Text

  283. Duration : 2 h 5 min

  284. Bit rate : 38 b/s

  285. Count of elements : 1255

  286. Stream size : 35.0 KiB (0%)

  287. Language : Korean

  288. Default : No

  289. Forced : No

  290. Text #19

  291. ID : 21

  292. Format : UTF-8

  293. Codec ID : S_TEXT/UTF8

  294. Codec ID/Info : UTF-8 Plain Text

  295. Duration : 2 h 5 min

  296. Bit rate : 34 b/s

  297. Count of elements : 1252

  298. Stream size : 31.2 KiB (0%)

  299. Language : Lithuanian

  300. Default : No

  301. Forced : No

  302. Text #20

  303. ID : 22

  304. Format : UTF-8

  305. Codec ID : S_TEXT/UTF8

  306. Codec ID/Info : UTF-8 Plain Text

  307. Duration : 2 h 5 min

  308. Bit rate : 36 b/s

  309. Count of elements : 1262

  310. Stream size : 33.1 KiB (0%)

  311. Language : Latvian

  312. Default : No

  313. Forced : No

  314. Text #21

  315. ID : 23

  316. Format : UTF-8

  317. Codec ID : S_TEXT/UTF8

  318. Codec ID/Info : UTF-8 Plain Text

  319. Duration : 2 h 5 min

  320. Bit rate : 36 b/s

  321. Count of elements : 1261

  322. Stream size : 33.8 KiB (0%)

  323. Language : Malay

  324. Default : No

  325. Forced : No

  326. Text #22

  327. ID : 24

  328. Format : UTF-8

  329. Codec ID : S_TEXT/UTF8

  330. Codec ID/Info : UTF-8 Plain Text

  331. Duration : 2 h 5 min

  332. Bit rate : 35 b/s

  333. Count of elements : 1011

  334. Stream size : 32.8 KiB (0%)

  335. Language : Dutch

  336. Default : No

  337. Forced : No

  338. Text #23

  339. ID : 25

  340. Format : UTF-8

  341. Codec ID : S_TEXT/UTF8

  342. Codec ID/Info : UTF-8 Plain Text

  343. Duration : 2 h 5 min

  344. Bit rate : 33 b/s

  345. Count of elements : 1261

  346. Stream size : 31.1 KiB (0%)

  347. Language : Norwegian

  348. Default : No

  349. Forced : No

  350. Text #24

  351. ID : 26

  352. Format : UTF-8

  353. Codec ID : S_TEXT/UTF8

  354. Codec ID/Info : UTF-8 Plain Text

  355. Duration : 2 h 5 min

  356. Bit rate : 30 b/s

  357. Count of elements : 1249

  358. Stream size : 27.8 KiB (0%)

  359. Language : Polish

  360. Default : No

  361. Forced : No

  362. Text #25

  363. ID : 27

  364. Format : UTF-8

  365. Codec ID : S_TEXT/UTF8

  366. Codec ID/Info : UTF-8 Plain Text

  367. Duration : 2 h 6 min

  368. Bit rate : 36 b/s

  369. Count of elements : 1246

  370. Stream size : 33.8 KiB (0%)

  371. Language : Portuguese

  372. Default : No

  373. Forced : No

  374. Text #26

  375. ID : 28

  376. Format : UTF-8

  377. Codec ID : S_TEXT/UTF8

  378. Codec ID/Info : UTF-8 Plain Text

  379. Duration : 2 h 5 min

  380. Bit rate : 32 b/s

  381. Count of elements : 1257

  382. Stream size : 29.4 KiB (0%)

  383. Language : Slovak

  384. Default : No

  385. Forced : No

  386. Text #27

  387. ID : 29

  388. Format : UTF-8

  389. Codec ID : S_TEXT/UTF8

  390. Codec ID/Info : UTF-8 Plain Text

  391. Duration : 2 h 5 min

  392. Bit rate : 33 b/s

  393. Count of elements : 961

  394. Stream size : 30.4 KiB (0%)

  395. Language : Slovenian

  396. Default : No

  397. Forced : No

  398. Text #28

  399. ID : 30

  400. Format : UTF-8

  401. Codec ID : S_TEXT/UTF8

  402. Codec ID/Info : UTF-8 Plain Text

  403. Duration : 2 h 5 min

  404. Bit rate : 37 b/s

  405. Count of elements : 1252

  406. Stream size : 34.5 KiB (0%)

  407. Title : Latin America

  408. Language : Spanish

  409. Default : No

  410. Forced : No

  411. Text #29

  412. ID : 31

  413. Format : UTF-8

  414. Codec ID : S_TEXT/UTF8

  415. Codec ID/Info : UTF-8 Plain Text

  416. Duration : 2 h 5 min

  417. Bit rate : 35 b/s

  418. Count of elements : 949

  419. Stream size : 32.3 KiB (0%)

  420. Language : Swedish

  421. Default : No

  422. Forced : No

  423. Text #30

  424. ID : 32

  425. Format : UTF-8

  426. Codec ID : S_TEXT/UTF8

  427. Codec ID/Info : UTF-8 Plain Text

  428. Duration : 2 h 5 min

  429. Bit rate : 74 b/s

  430. Count of elements : 1262

  431. Stream size : 68.1 KiB (0%)

  432. Language : Thai

  433. Default : No

  434. Forced : No

  435. Text #31

  436. ID : 33

  437. Format : UTF-8

  438. Codec ID : S_TEXT/UTF8

  439. Codec ID/Info : UTF-8 Plain Text

  440. Duration : 2 h 5 min

  441. Bit rate : 36 b/s

  442. Count of elements : 1254

  443. Stream size : 33.4 KiB (0%)

  444. Language : Turkish

  445. Default : No

  446. Forced : No

  447. Text #32

  448. ID : 34

  449. Format : UTF-8

  450. Codec ID : S_TEXT/UTF8

  451. Codec ID/Info : UTF-8 Plain Text

  452. Duration : 2 h 5 min

  453. Bit rate : 47 b/s

  454. Count of elements : 1260

  455. Stream size : 43.2 KiB (0%)

  456. Language : Vietnamese

  457. Default : No

  458. Forced : No


复制代码




文件下载


除非特别注明,本文『奇异博士2[IMAX满屏版][杜比视界版本][简繁英特效字幕].Doctor.Strange.2022.2160p.WEB-DL.DDP5.1.Atmos.HDR.DV.HEVC-CHDBits 22』来源于互联网机器人自动抓取,非本站原创。 浮游电影网不对本文拥有版权,如有侵犯,请联系邮箱:fuyouu#yandex.com[#换成@]投诉。我们会在15个工作日内删除。 但烦请转载时请标明出处:“本文转载于『浮游电影网』,原文地址:https://www.fuyouu.com/22565.html

评论吧骚年!

发表你的见解   

昵称*

E-mail*(建议输入,以便收到博主回复的提示邮件)

验证码*

您可以使用eMule或eMule Mod(Windows)、aMule(Win、Linux、Mac)等软件下载eD2k链接。。
eMule收藏集(.emulecollection)文件是您选中的所有链接的列表文件。eMule可以直接下载它们。
按住SHIFT键选择可以选中多个选择框。
可用文件名和大小选择器来选择文件。
文件名选择器帮您根据文件名称或后缀来选择文件。不分大小写。
符号使用:
和:空格( )、+
不包含:-
或:|
转义:一对英文引号("");
匹配开头:^
匹配结尾:$
例如:
选中所有名称中包含有“eMule”或“0.49c”字眼,但不包含有“exe”字眼的:emule|0.49c -exe
选中所有名称的开头是“eMule”,结尾是“0.49c”的:^emule 0.49c$
选中所有名称中带有“eMule 0.49c”的(必须是“eMule 0.49c”,中间没有别的字符,不能是“eMule fake 0.49c”),需要转义:"emule 0.49c"
大小选择器帮您根据文件大小选择文件。