当前位置: 首页 >> 海外电影 >> 吸血女伯爵[简繁英字幕].Bathory.2008.BluRay.1080p.DTS-HD.MA.5.1.x265.10bit-ALT 16.74GB >> 正文

吸血女伯爵[简繁英字幕].Bathory.2008.BluRay.1080p.DTS-HD.MA.5.1.x265.10bit-ALT 16.74GB

2022年06月25日 08:13:37     电影发布:来源于网络     电影分类:海外电影     评论(0)    

◎标 题 吸血女伯爵

◎译 名 女伯爵巴托里

◎片 名 Bathory

◎年 代 2008

◎产 地 捷克斯洛伐克 / 捷克 / 英国 / 匈牙利 / 美国

◎类 别 剧情 / 历史 / 奇幻

◎语 言 英语

◎上映日期 2008-07-10

◎IMDb评分 5.8/10 (4388人评价)

◎IMDb链接 https://www.imdb.com/title/tt0469640/

◎豆瓣评分 6.6/10 (4138人评价)

◎豆瓣链接 https://movie.douban.com/subject/2303817/

◎片 长 141 分钟

◎导 演 朱拉·亚库比斯克 Juraj Jakubisko

◎编 剧 朱拉·亚库比斯克 Juraj Jakubisko

◎演 员 安娜·弗莱尔 Anna Friel

卡瑞尔·罗登 Karel Roden

文森特·里根 Vincent Regan

迪娜·霍瓦索瓦 Deana Horváthová

克里丝提娜·玛洛娃 Kristyna Malérová

Ladislav Ondrej Ladislav Ondrej

伊里·马德尔 Jirí Mádl

彼得·雅克尔 Petr Jákl

Sandra Pogodová Sandra Pogodová

Derek Dimir Pavelcik

Michaela Drotárová

罗比·凯 Robbie Kay

Vladimír T. Gottwald

Marian Roden

卡雷尔·多布雷 Karel Dobrý

波莱克·波利夫卡 Bolek Polívka

露西·冯德拉科娃 Lucie Vondrácková

莫妮卡·希尔梅罗娃 Monika Hilmerová

安德烈·赫里科 Andrej Hryc

安德鲁·蒂曼 Andrew Tiernan

弗兰科·内罗 Franco Nero

汉斯·麦瑟逊 Hans Matheson

Jirí Krytinár Jirí Krytinár

Jirí Korn Jirí Korn

马雷克·瓦苏特 Marek Vasut

Ilona Svobodová Ilona Svobodová

Zdenek Podhurský Zdenek Podhurský

‎蒂姆·普雷斯‎ Tim Preece

雅罗米尔·诺塞克 Jaromír Nosek

Tatjana Medvecká Tatjana Medvecká

Zdenek Maryska Zdenek Maryska

扬·弗拉萨克 Jan Vlasák

◎标 签 吸血鬼 / 匈牙利 / 捷克 / 欧洲电影 / 剧情 / 电影 / 2008 / Vampire

◎简 介

天真可爱的伊丽莎白(安娜·弗莱尔 Anna Friel 饰)自幼嫁入贵族,肩负着振兴家世的的重任。适时战争不断,匈牙利的土地上未见安宁之地,伊丽莎白的夫家弗伦茨·纳达斯第(文森特·瑞根 Vincent Regan 饰)则在战争中愈加强大。弗伦茨连年征战在外,伊丽莎白则体验着孤独与无聊,她沉湎黑魔法、不伦之爱、蕾丝之情,更成为百姓谈及色变的吸血鬼女伯爵。真相在历史的长河中早已扑朔迷离,真正的伊丽莎白究竟如何无人得知……

本片根据中世纪匈牙利臭名昭著的“吸血女伯爵”伊丽莎白·巴瑟(Elizabeth Bathory)的故事改编,并荣获2009年捷克金狮奖最佳艺术指导奖。

  1. ##### MediaInfo ######

  2. General

  3. Unique ID : 213621063296612781183909660618655374741 (0xA0B5EB95DCF141FF85BB6D5113B99D95)

  4. Complete name : Bathory.2008.BluRay.1080p.DTS-HD.MA.5.1.x265.10bit-ALT.mkv

  5. Format : Matroska

  6. Format version : Version 4

  7. File size : 16.7 GiB

  8. Duration : 2 h 20 min

  9. Overall bit rate : 17.0 Mb/s

  10. Encoded date : UTC 2022-06-22 10:44:04

  11. Writing application : mkvmerge v49.0.0 ('Sick Of Losing Soulmates') 64-bit

  12. Writing library : libebml v1.4.0 + libmatroska v1.6.1

  13. Video

  14. ID : 1

  15. Format : HEVC

  16. Format/Info : High Efficiency Video Coding

  17. Format profile : Main [email protected]@High

  18. Codec ID : V_MPEGH/ISO/HEVC

  19. Duration : 2 h 20 min

  20. Bit rate : 13.1 Mb/s

  21. Width : 1 920 pixels

  22. Height : 870 pixels

  23. Display aspect ratio : 2.2:1

  24. Frame rate mode : Constant

  25. Frame rate : 23.976 (24000/1001/53354) FPS

  26. Color space : YUV

  27. Chroma subsampling : 4:2:0

  28. Bit depth : 10 bits

  29. Bits/(Pixel*Frame) : 0.328

  30. Stream size : 12.9 GiB (77%)

  31. Title : HEVC, [email protected]@High, 24/1.001 fps @ 13124 kbps

  32. Writing library : x265 3.5+36-1f2c8da77:[Windows][GCC 11.2.0][64 bit] 10bit

  33. Encoding settings : cpuid=533541111039 / frame-threads=4 / numa-pools=16 / wpp / no-pmode / no-pme / no-psnr / no-ssim / log-level=2 / input-csp=1 / input-res=1920x870 / interlace=0 / total-frames=202306 / level-idc=51 / high-tier=1 / uhd-bd=0 / ref=5 / no-allow-non-conformance / no-repeat-headers / annexb / no-aud / no-eob / no-eos / no-hrd / info / hash=0 / no-temporal-layers / open-gop / min-keyint=24 / keyint=240 / gop-lookahead=0 / bframes=6 / b-adapt=2 / b-pyramid / bframe-bias=0 / rc-lookahead=40 / lookahead-slices=0 / NTMzNTQ=uuDQuD2mJt9fsCf / scenecut=40 / no-hist-scenecut / radl=0 / no-splice / no-intra-refresh / ctu=32 / min-cu-size=8 / no-rect / no-amp / max-tu-size=32 / tu-inter-depth=3 / tu-intra-depth=3 / limit-tu=4 / rdoq-level=2 / dynamic-rd=0.00 / no-ssim-rd / signhide / no-tskip / nr-intra=0 / nr-inter=0 / no-constrained-intra / no-strong-intra-smoothing / max-merge=4 / limit-refs=1 / limit-modes / me=3 / subme=4 / merange=25 / temporal-mvp / no-frame-dup / no-hme / weightp / weightb / no-analyze-src-pics / deblock=-3:-3 / no-sao / no-sao-non-deblock / rd=6 / selective-sao=0 / no-early-skip / rskip / no-fast-intra / no-tskip-fast / no-cu-lossless / b-intra / no-splitrd-skip / rdpenalty=0 / psy-rd=2.00 / psy-rdoq=1.00 / no-rd-refine / no-lossless / cbqpoffs=-2 / crqpoffs=-2 / rc=crf / crf=18.5 / qcomp=0.65 / qpstep=4 / stats-write=0 / stats-read=0 / vbv-maxrate=80000 / vbv-bufsize=80000 / vbv-init=0.9 / min-vbv-fullness=50.0 / max-vbv-fullness=80.0 / crf-max=0.0 / crf-min=0.0 / ipratio=1.40 / pbratio=1.30 / aq-mode=2 / aq-strength=0.85 / cutree / zone-count=0 / no-strict-cbr / qg-size=32 / no-rc-grain / qpmax=69 / qpmin=0 / no-const-vbv / sar=1 / overscan=0 / videoformat=5 / range=0 / colorprim=1 / transfer=1 / colormatrix=1 / chromaloc=0 / display-window=0 / cll=0,0 / min-luma=0 / max-luma=1023 / log2-max-poc-lsb=8 / vui-timing-info / vui-hrd-info / slices=1 / no-opt-qp-pps / no-opt-ref-list-length-pps / no-multi-pass-opt-rps / scenecut-bias=0.05 / hist-threshold=0.03 / no-opt-cu-delta-qp / no-aq-motion / no-hdr10 / no-hdr10-opt / no-dhdr10-opt / no-idr-recovery-sei / analysis-reuse-level=0 / analysis-save-reuse-level=0 / analysis-load-reuse-level=0 / scale-factor=0 / refine-intra=0 / refine-inter=0 / refine-mv=1 / refine-ctu-distortion=0 / no-limit-sao / ctu-info=0 / no-lowpass-dct / refine-analysis-type=0 / copy-pic=1 / max-ausize-factor=1.0 / no-dynamic-refine / no-single-sei / no-hevc-aq / no-svt / no-field / qp-adaptation-range=1.00 / scenecut-aware-qp=0conformance-window-offsets / right=0 / bottom=0 / NTMzNTQ= / decoder-max-rate=0 / no-vbv-live-multi-pass

  34. Language : English

  35. Default : Yes

  36. Forced : No

  37. Color range : Limited

  38. Color primaries : BT.709

  39. Transfer characteristics : BT.709

  40. Matrix coefficients : BT.709

  41. Audio

  42. ID : 2

  43. Format : DTS XBR

  44. Format/Info : Digital Theater Systems

  45. Commercial name : DTS-HD High Resolution Audio

  46. Codec ID : A_DTS

  47. Duration : 2 h 20 min

  48. Bit rate mode : Constant

  49. Bit rate : 3 840 kb/s

  50. Channel(s) : 6 channels

  51. Channel layout : C L R Ls Rs LFE

  52. Sampling rate : 48.0 kHz

  53. Frame rate : 93.750 FPS (512 SPF)

  54. Bit depth : 24 bits

  55. Compression mode : Lossy

  56. Stream size : 3.77 GiB (23%)

  57. Title : Czech DTS-HD Hi-Res 5.1 @ 3840 kbps

  58. Language : Czech

  59. Default : Yes

  60. Forced : No

  61. Text #1

  62. ID : 3

  63. Format : PGS

  64. Codec ID : S_HDMV/PGS

  65. Codec ID/Info : Picture based subtitle format used on BDs/HD-DVDs

  66. Duration : 2 h 14 min

  67. Bit rate : 28.0 kb/s

  68. Count of elements : 2762

  69. Stream size : 27.0 MiB (0%)

  70. Title : Eng/SUP

  71. Language : English

  72. Default : No

  73. Forced : No

  74. Text #2

  75. ID : 4

  76. Format : PGS

  77. Codec ID : S_HDMV/PGS

  78. Codec ID/Info : Picture based subtitle format used on BDs/HD-DVDs

  79. Duration : 2 h 15 min

  80. Bit rate : 25.9 kb/s

  81. Count of elements : 2685

  82. Stream size : 25.2 MiB (0%)

  83. Title : Chs/SUP 简体

  84. Language : Chinese

  85. Default : Yes

  86. Forced : No

  87. Text #3

  88. ID : 5

  89. Format : PGS

  90. Codec ID : S_HDMV/PGS

  91. Codec ID/Info : Picture based subtitle format used on BDs/HD-DVDs

  92. Duration : 2 h 15 min

  93. Bit rate : 26.5 kb/s

  94. Count of elements : 2685

  95. Stream size : 25.8 MiB (0%)

  96. Title : Cht/SUP 繁体

  97. Language : Chinese

  98. Default : No

  99. Forced : No

  100. Menu

  101. 00:00:00.000 : en:第 01 章

  102. 00:02:10.127 : en:第 02 章

  103. 00:06:52.911 : en:第 03 章

  104. 00:25:31.192 : en:第 04 章

  105. 00:31:49.240 : en:第 05 章

  106. 00:36:30.646 : en:第 06 章

  107. 00:43:21.891 : en:第 07 章

  108. 00:47:55.081 : en:第 08 章

  109. 00:52:21.764 : en:第 09 章

  110. 00:58:19.371 : en:第 10 章

  111. 01:07:07.231 : en:第 11 章

  112. 01:18:28.412 : en:第 12 章

  113. 01:24:58.969 : en:第 13 章

  114. 01:28:06.279 : en:第 14 章

  115. 01:37:18.166 : en:第 15 章

  116. 01:44:56.122 : en:第 16 章

  117. 01:50:46.974 : en:第 17 章

  118. 01:53:35.809 : en:第 18 章

  119. 01:57:19.863 : en:第 19 章

  120. 02:04:48.479 : en:第 20 章

  121. 02:07:58.212 : en:第 21 章

  122. 02:16:27.595 : en:第 22 章


复制代码



文件下载


除非特别注明,本文『吸血女伯爵[简繁英字幕].Bathory.2008.BluRay.1080p.DTS-HD.MA.5.1.x265.10bit-ALT 16.74GB』来源于互联网机器人自动抓取,非本站原创。 浮游电影网不对本文拥有版权,如有侵犯,请联系邮箱:fuyouu#yandex.com[#换成@]投诉。我们会在15个工作日内删除。 但烦请转载时请标明出处:“本文转载于『浮游电影网』,原文地址:https://www.fuyouu.com/22562.html

评论吧骚年!

发表你的见解   

昵称*

E-mail*(建议输入,以便收到博主回复的提示邮件)

验证码*

您可以使用eMule或eMule Mod(Windows)、aMule(Win、Linux、Mac)等软件下载eD2k链接。。
eMule收藏集(.emulecollection)文件是您选中的所有链接的列表文件。eMule可以直接下载它们。
按住SHIFT键选择可以选中多个选择框。
可用文件名和大小选择器来选择文件。
文件名选择器帮您根据文件名称或后缀来选择文件。不分大小写。
符号使用:
和:空格( )、+
不包含:-
或:|
转义:一对英文引号("");
匹配开头:^
匹配结尾:$
例如:
选中所有名称中包含有“eMule”或“0.49c”字眼,但不包含有“exe”字眼的:emule|0.49c -exe
选中所有名称的开头是“eMule”,结尾是“0.49c”的:^emule 0.49c$
选中所有名称中带有“eMule 0.49c”的(必须是“eMule 0.49c”,中间没有别的字符,不能是“eMule fake 0.49c”),需要转义:"emule 0.49c"
大小选择器帮您根据文件大小选择文件。