当前位置: 首页 >> 欧美电影 >> 奇异博士2[杜比视界版本][IMAX满屏版][简繁英字幕].Doctor.Strange.in.the.Multiverse.of.Madness.2022.IMAX.DSNP.WEB-DL.4k.H >> 正文

奇异博士2[杜比视界版本][IMAX满屏版][简繁英字幕].Doctor.Strange.in.the.Multiverse.of.Madness.2022.IMAX.DSNP.WEB-DL.4k.H

2022年06月23日 11:12:24     电影发布:来源于网络     电影分类:欧美电影     评论(0)    

奇异博士2[杜比视界版本][IMAX满屏版][简繁英字幕].Doctor.Strange.in.the.Multiverse.of.Madness.2022.IMAX.DSNP.WEB-DL.4k.HEVC.DV.DDP-CTRLHD 15.43GB

◎标 题 奇异博士2:疯狂多元宇宙

◎译 名 奇异博士2 / 斯特兰奇博士2 / 奇异博士2:失控多重宇宙(港 / 台) / 奇异博士2: 失控多元宇宙(港) / Doctor Strange 2 / Doctor Strange: in the Multiverse of Madness

◎片 名 Doctor Strange in the Multiverse of Madness

◎年 代 2022

◎产 地 美国

◎类 别 动作 / 恐怖 / 奇幻 / 冒险

◎语 言 英语

◎上映日期 2022-05-04(中国台湾) / 2022-05-06(美国)

◎IMDb评分 7.3/10 (192714人评价)

◎IMDb链接 https://www.imdb.com/title/tt9419884/

◎豆瓣链接 https://movie.douban.com/subject/30304994/

◎片 长 126分钟

◎导 演 山姆·雷米 Sam Raimi

◎编 剧 迈克尔·沃尔德伦 Michael Waldron

杰德·哈雷·巴特利特 Jade Halley Bartlett

史蒂夫·迪特寇 Steve Ditko

斯坦·李 Stan Lee

◎演 员 本尼迪克特·康伯巴奇 Benedict Cumberbatch

伊丽莎白·奥尔森 Elizabeth Olsen

切瓦特·埃加福 Chiwetel Ejiofor

本尼迪克特·王 Benedict Wong

克索斯利尔·戈麦斯 Xochitl Gomez

瑞秋·麦克亚当斯 Rachel McAdams

迈克尔·斯图巴 Michael Stuhlbarg

帕特里克·斯图尔特 Patrick Stewart

海莉·阿特维尔 Hayley Atwell

约翰·卡拉辛斯基 John Krasinski

拉什纳·林奇 Lashana Lynch

安松·蒙特 Anson Mount

查理兹·塞隆 Charlize Theron

希拉·阿蒂姆 Sheila Atim

亚当·赫吉尔 Adam Hugill

亚子·米切尔 Ako Mitchell

杨沫沫 Momo Yeung

丹尼尔·斯温 Daniel Swain

多波·雷斯尼怀罗 Topo Wresniwiro

伊登·纳森森 Eden Nathenson

维尼·莫利 Vinny Moli

大卫·谢 David Tse

乔丹·亚历桑德拉 Jordan Alexandra

迈克尔·沃尔德伦 Michael Waldron

朱利安·希威德 Julian Hilliard

杰特·克莱恩 Jett Klyne

布鲁斯·坎贝尔 Bruce Campbell

马里安·洛伦西克 Marian Lorencik

凯文·费奇 Kevin Feige

丹尼·艾夫曼 Danny Elfman

格雷厄姆·丘彻亚德 Graham Churchyard

◎简 介

充满无限未知的疯狂多元宇宙即将展开,一切皆有可能。

  1. ##### MediaInfo ######

  2. General

  3. Complete name : Doctor.Strange.in.the.Multiverse.of.Madness.2022.IMAX.DSNP.WEB-DL.4k.HEVC.DV.DDP-CTRLHD.mp4

  4. Format : MPEG-4

  5. Format profile : Base Media

  6. Codec ID : isom (isom)

  7. File size : 15.4 GiB

  8. Duration : 2 h 6 min

  9. Overall bit rate mode : Variable

  10. Overall bit rate : 17.5 Mb/s

  11. Encoded date : UTC 2022-06-22 07:25:02

  12. Tagged date : UTC 2022-06-22 07:25:02

  13. Writing application : GPAC-1.1.0-DEV-revUNKNOWN_REV

  14. Video

  15. ID : 1

  16. Format : HEVC

  17. Format/Info : High Efficiency Video Coding

  18. Format profile : Main [email protected]@High

  19. HDR format : Dolby Vision, Version 1.0, dvhe.05.06, BL+RPU

  20. Codec ID : dvhe

  21. Codec ID/Info : High Efficiency Video Coding with Dolby Vision

  22. Duration : 2 h 6 min

  23. Bit rate : 16.7 Mb/s

  24. Width : 3 840 pixels

  25. Height : 2 160 pixels

  26. Display aspect ratio : 16:9

  27. Frame rate mode : Constant

  28. Frame rate : 23.976 (24000/1001/53354) FPS

  29. Color space : YUV

  30. Chroma subsampling : 4:2:0

  31. Bit depth : 10 bits

  32. Bits/(Pixel*Frame) : 0.084

  33. Stream size : 14.7 GiB (96%)

  34. Default : Yes

  35. Alternate group : 1

  36. Encoded date : UTC 2022-06-22 07:07:11

  37. Tagged date : UTC 2022-06-22 07:26:03

  38. Color range : Full

  39. Codec configuration box : hvcC+dvcC

  40. Audio

  41. ID : 2

  42. Format : E-AC-3 JOC

  43. Format/Info : Enhanced AC-3 with Joint Object Coding

  44. Commercial name : Dolby Digital Plus with Dolby Atmos

  45. Codec ID : ec-3

  46. Duration : 2 h 6 min

  47. Bit rate mode : Constant

  48. Bit rate : 768 kb/s

  49. Maximum bit rate : 811 kb/s

  50. Channel(s) : 6 channels

  51. Channel layout : L R C LFE Ls Rs

  52. Sampling rate : 48.0 kHz

  53. Frame rate : 31.250 FPS (1536 SPF)

  54. Compression mode : Lossy

  55. Stream size : 695 MiB (4%)

  56. Title : English

  57. Language : English

  58. Service kind : Complete Main

  59. Encoded date : UTC 2022-05-19 06:51:42

  60. Tagged date : UTC 2022-06-22 07:26:03

  61. Complexity index : Not present / 16

  62. Number of dynamic objects : 15

  63. Bed channel count : 1 channel

  64. Bed channel configuration : LFE

  65. Text #1

  66. ID : 3

  67. Format : Timed Text

  68. Codec ID : tx3g

  69. Duration : 2 h 6 min

  70. Bit rate mode : Variable

  71. Bit rate : 40 b/s

  72. Stream size : 37.4 KiB (0%)

  73. Title : ?e?tina

  74. Language : Czech

  75. Forced : No

  76. Encoded date : UTC 2022-06-22 07:25:53

  77. Tagged date : UTC 2022-06-22 07:26:03

  78. Text #2

  79. ID : 4

  80. Format : Timed Text

  81. Codec ID : tx3g

  82. Duration : 2 h 6 min

  83. Bit rate mode : Variable

  84. Bit rate : 42 b/s

  85. Stream size : 39.1 KiB (0%)

  86. Title : íslenska

  87. Language : Icelandic

  88. Forced : No

  89. Encoded date : UTC 2022-06-22 07:25:53

  90. Tagged date : UTC 2022-06-22 07:26:03

  91. Text #3

  92. ID : 5

  93. Format : Timed Text

  94. Codec ID : tx3g

  95. Duration : 2 h 6 min

  96. Bit rate mode : Variable

  97. Bit rate : 42 b/s

  98. Stream size : 38.7 KiB (0%)

  99. Title : Türk?e

  100. Language : Turkish

  101. Forced : No

  102. Encoded date : UTC 2022-06-22 07:25:53

  103. Tagged date : UTC 2022-06-22 07:26:03

  104. Text #4

  105. ID : 6

  106. Format : Timed Text

  107. Codec ID : tx3g

  108. Duration : 2 h 6 min

  109. Bit rate mode : Variable

  110. Bit rate : 39 b/s

  111. Stream size : 36.4 KiB (0%)

  112. Title : Svenska

  113. Language : Swedish

  114. Forced : No

  115. Encoded date : UTC 2022-06-22 07:25:54

  116. Tagged date : UTC 2022-06-22 07:26:03

  117. Text #5

  118. ID : 7

  119. Format : Timed Text

  120. Codec ID : tx3g

  121. Duration : 2 h 6 min

  122. Bit rate mode : Variable

  123. Bit rate : 43 b/s

  124. Stream size : 39.6 KiB (0%)

  125. Title : Suomi

  126. Language : Finnish

  127. Forced : No

  128. Encoded date : UTC 2022-06-22 07:25:54

  129. Tagged date : UTC 2022-06-22 07:26:03

  130. Text #6

  131. ID : 8

  132. Format : Timed Text

  133. Codec ID : tx3g

  134. Duration : 2 h 6 min

  135. Bit rate mode : Variable

  136. Bit rate : 38 b/s

  137. Stream size : 34.8 KiB (0%)

  138. Title : Sloven?ina

  139. Language : Slovak

  140. Forced : No

  141. Encoded date : UTC 2022-06-22 07:25:54

  142. Tagged date : UTC 2022-06-22 07:26:03

  143. Text #7

  144. ID : 9

  145. Format : Timed Text

  146. Codec ID : tx3g

  147. Duration : 2 h 6 min

  148. Bit rate mode : Variable

  149. Bit rate : 44 b/s

  150. Stream size : 40.4 KiB (0%)

  151. Title : Roman?

  152. Language : Romanian

  153. Forced : No

  154. Encoded date : UTC 2022-06-22 07:25:54

  155. Tagged date : UTC 2022-06-22 07:26:03

  156. Text #8

  157. ID : 10

  158. Format : Timed Text

  159. Codec ID : tx3g

  160. Duration : 2 h 6 min

  161. Bit rate mode : Variable

  162. Bit rate : 55 b/s

  163. Stream size : 50.5 KiB (0%)

  164. Title : Português (Brasil) [CC]

  165. Language : Portuguese

  166. Forced : No

  167. Encoded date : UTC 2022-06-22 07:25:55

  168. Tagged date : UTC 2022-06-22 07:26:03

  169. Text #9

  170. ID : 11

  171. Format : Timed Text

  172. Codec ID : tx3g

  173. Duration : 2 h 6 min

  174. Bit rate mode : Variable

  175. Bit rate : 42 b/s

  176. Stream size : 38.7 KiB (0%)

  177. Title : Português (Brasil)

  178. Language : Portuguese

  179. Forced : No

  180. Encoded date : UTC 2022-06-22 07:25:55

  181. Tagged date : UTC 2022-06-22 07:26:03

  182. Text #10

  183. ID : 12

  184. Format : Timed Text

  185. Codec ID : tx3g

  186. Duration : 2 h 6 min

  187. Bit rate mode : Variable

  188. Bit rate : 42 b/s

  189. Stream size : 39.1 KiB (0%)

  190. Title : Português

  191. Language : Portuguese

  192. Forced : No

  193. Encoded date : UTC 2022-06-22 07:25:55

  194. Tagged date : UTC 2022-06-22 07:26:03

  195. Text #11

  196. ID : 13

  197. Format : Timed Text

  198. Codec ID : tx3g

  199. Duration : 2 h 6 min

  200. Bit rate mode : Variable

  201. Bit rate : 36 b/s

  202. Stream size : 33.4 KiB (0%)

  203. Title : Polski

  204. Language : Polish

  205. Forced : No

  206. Encoded date : UTC 2022-06-22 07:25:55

  207. Tagged date : UTC 2022-06-22 07:26:03

  208. Text #12

  209. ID : 14

  210. Format : Timed Text

  211. Codec ID : tx3g

  212. Duration : 2 h 6 min

  213. Bit rate mode : Variable

  214. Bit rate : 39 b/s

  215. Stream size : 36.2 KiB (0%)

  216. Title : Norsk

  217. Language : Norwegian

  218. Forced : No

  219. Encoded date : UTC 2022-06-22 07:25:56

  220. Tagged date : UTC 2022-06-22 07:26:03

  221. Text #13

  222. ID : 15

  223. Format : Timed Text

  224. Codec ID : tx3g

  225. Duration : 2 h 6 min

  226. Bit rate mode : Variable

  227. Bit rate : 39 b/s

  228. Stream size : 36.3 KiB (0%)

  229. Title : Nederlands

  230. Language : Dutch

  231. Forced : No

  232. Encoded date : UTC 2022-06-22 07:25:56

  233. Tagged date : UTC 2022-06-22 07:26:03

  234. Text #14

  235. ID : 16

  236. Format : Timed Text

  237. Codec ID : tx3g

  238. Duration : 2 h 6 min

  239. Bit rate mode : Variable

  240. Bit rate : 39 b/s

  241. Stream size : 35.9 KiB (0%)

  242. Title : Magyar

  243. Language : Hungarian

  244. Forced : No

  245. Encoded date : UTC 2022-06-22 07:25:56

  246. Tagged date : UTC 2022-06-22 07:26:03

  247. Text #15

  248. ID : 17

  249. Format : Timed Text

  250. Codec ID : tx3g

  251. Duration : 2 h 6 min

  252. Bit rate mode : Variable

  253. Bit rate : 43 b/s

  254. Stream size : 39.4 KiB (0%)

  255. Title : Korean

  256. Language : Korean

  257. Forced : No

  258. Encoded date : UTC 2022-06-22 07:25:57

  259. Tagged date : UTC 2022-06-22 07:26:03

  260. Text #16

  261. ID : 18

  262. Format : Timed Text

  263. Codec ID : tx3g

  264. Duration : 2 h 6 min

  265. Bit rate mode : Variable

  266. Bit rate : 36 b/s

  267. Stream size : 33.6 KiB (0%)

  268. Title : Japanese

  269. Language : Japanese

  270. Forced : No

  271. Encoded date : UTC 2022-06-22 07:25:57

  272. Tagged date : UTC 2022-06-22 07:26:03

  273. Text #17

  274. ID : 19

  275. Format : Timed Text

  276. Codec ID : tx3g

  277. Duration : 2 h 6 min

  278. Bit rate mode : Variable

  279. Bit rate : 44 b/s

  280. Stream size : 40.6 KiB (0%)

  281. Title : Italiano

  282. Language : Italian

  283. Forced : No

  284. Encoded date : UTC 2022-06-22 07:25:57

  285. Tagged date : UTC 2022-06-22 07:26:03

  286. Text #18

  287. ID : 20

  288. Format : Timed Text

  289. Codec ID : tx3g

  290. Duration : 2 h 6 min

  291. Bit rate mode : Variable

  292. Bit rate : 67 b/s

  293. Stream size : 62.4 KiB (0%)

  294. Title : Greek

  295. Language : Greek

  296. Forced : No

  297. Encoded date : UTC 2022-06-22 07:25:57

  298. Tagged date : UTC 2022-06-22 07:26:03

  299. Text #19

  300. ID : 21

  301. Format : Timed Text

  302. Codec ID : tx3g

  303. Duration : 2 h 6 min

  304. Bit rate mode : Variable

  305. Bit rate : 50 b/s

  306. Stream size : 46.1 KiB (0%)

  307. Title : Fran?ais [CC]

  308. Language : French

  309. Forced : No

  310. Encoded date : UTC 2022-06-22 07:25:58

  311. Tagged date : UTC 2022-06-22 07:26:03

  312. Text #20

  313. ID : 22

  314. Format : Timed Text

  315. Codec ID : tx3g

  316. Duration : 2 h 6 min

  317. Bit rate mode : Variable

  318. Bit rate : 67 b/s

  319. Stream size : 61.6 KiB (0%)

  320. Title : Fran?ais (Canadien) [CC]

  321. Language : French

  322. Forced : No

  323. Encoded date : UTC 2022-06-22 07:25:59

  324. Tagged date : UTC 2022-06-22 07:26:03

  325. Text #21

  326. ID : 23

  327. Format : Timed Text

  328. Codec ID : tx3g

  329. Duration : 2 h 6 min

  330. Bit rate mode : Variable

  331. Bit rate : 46 b/s

  332. Stream size : 42.1 KiB (0%)

  333. Title : Fran?ais (Canadien)

  334. Language : French

  335. Forced : No

  336. Encoded date : UTC 2022-06-22 07:25:59

  337. Tagged date : UTC 2022-06-22 07:26:03

  338. Text #22

  339. ID : 24

  340. Format : Timed Text

  341. Codec ID : tx3g

  342. Duration : 2 h 6 min

  343. Bit rate mode : Variable

  344. Bit rate : 39 b/s

  345. Stream size : 35.8 KiB (0%)

  346. Title : Fran?ais

  347. Language : French

  348. Forced : No

  349. Encoded date : UTC 2022-06-22 07:25:59

  350. Tagged date : UTC 2022-06-22 07:26:03

  351. Text #23

  352. ID : 25

  353. Format : Timed Text

  354. Codec ID : tx3g

  355. Duration : 2 h 6 min

  356. Bit rate mode : Variable

  357. Bit rate : 43 b/s

  358. Stream size : 40.1 KiB (0%)

  359. Title : Espa?ol (Latinoamericano) [CC]

  360. Language : Spanish

  361. Forced : No

  362. Encoded date : UTC 2022-06-22 07:26:00

  363. Tagged date : UTC 2022-06-22 07:26:03

  364. Text #24

  365. ID : 26

  366. Format : Timed Text

  367. Codec ID : tx3g

  368. Duration : 2 h 6 min

  369. Bit rate mode : Variable

  370. Bit rate : 43 b/s

  371. Stream size : 39.7 KiB (0%)

  372. Title : Espa?ol (Latinoamericano)

  373. Language : Spanish

  374. Forced : No

  375. Encoded date : UTC 2022-06-22 07:26:00

  376. Tagged date : UTC 2022-06-22 07:26:03

  377. Text #25

  378. ID : 27

  379. Format : Timed Text

  380. Codec ID : tx3g

  381. Duration : 2 h 6 min

  382. Bit rate mode : Variable

  383. Bit rate : 41 b/s

  384. Stream size : 37.9 KiB (0%)

  385. Title : Espa?ol

  386. Language : Spanish

  387. Forced : No

  388. Encoded date : UTC 2022-06-22 07:26:00

  389. Tagged date : UTC 2022-06-22 07:26:03

  390. Text #26

  391. ID : 28

  392. Format : Timed Text

  393. Codec ID : tx3g

  394. Duration : 2 h 6 min

  395. Bit rate mode : Variable

  396. Bit rate : 58 b/s

  397. Stream size : 54.0 KiB (0%)

  398. Title : English [CC]

  399. Language : English

  400. Forced : No

  401. Encoded date : UTC 2022-06-22 07:26:01

  402. Tagged date : UTC 2022-06-22 07:26:03

  403. Text #27

  404. ID : 29

  405. Format : Timed Text

  406. Codec ID : tx3g

  407. Duration : 2 h 6 min

  408. Bit rate mode : Variable

  409. Bit rate : 51 b/s

  410. Stream size : 46.9 KiB (0%)

  411. Title : Deutsch [CC]

  412. Language : German

  413. Forced : No

  414. Encoded date : UTC 2022-06-22 07:26:01

  415. Tagged date : UTC 2022-06-22 07:26:03

  416. Text #28

  417. ID : 30

  418. Format : Timed Text

  419. Codec ID : tx3g

  420. Duration : 2 h 6 min

  421. Bit rate mode : Variable

  422. Bit rate : 39 b/s

  423. Stream size : 36.0 KiB (0%)

  424. Title : Deutsch

  425. Language : German

  426. Forced : No

  427. Encoded date : UTC 2022-06-22 07:26:01

  428. Tagged date : UTC 2022-06-22 07:26:03

  429. Text #29

  430. ID : 31

  431. Format : Timed Text

  432. Codec ID : tx3g

  433. Duration : 2 h 6 min

  434. Bit rate mode : Variable

  435. Bit rate : 35 b/s

  436. Stream size : 32.8 KiB (0%)

  437. Title : Dansk

  438. Language : Danish

  439. Forced : No

  440. Encoded date : UTC 2022-06-22 07:26:02

  441. Tagged date : UTC 2022-06-22 07:26:03

  442. Text #30

  443. ID : 32

  444. Format : Timed Text

  445. Codec ID : tx3g

  446. Duration : 2 h 6 min

  447. Bit rate mode : Variable

  448. Bit rate : 35 b/s

  449. Stream size : 32.6 KiB (0%)

  450. Title : Chinese (Traditional)

  451. Language : Chinese

  452. Forced : No

  453. Encoded date : UTC 2022-06-22 07:26:02

  454. Tagged date : UTC 2022-06-22 07:26:03

  455. Text #31

  456. ID : 33

  457. Format : Timed Text

  458. Codec ID : tx3g

  459. Duration : 2 h 6 min

  460. Bit rate mode : Variable

  461. Bit rate : 40 b/s

  462. Stream size : 36.8 KiB (0%)

  463. Title : Chinese (Simplified)

  464. Language : Chinese

  465. Forced : No

  466. Encoded date : UTC 2022-06-22 07:26:02

  467. Tagged date : UTC 2022-06-22 07:26:03

  468. Text #32

  469. ID : 34

  470. Format : Timed Text

  471. Codec ID : tx3g

  472. Duration : 2 h 6 min

  473. Bit rate mode : Variable

  474. Bit rate : 35 b/s

  475. Stream size : 32.8 KiB (0%)

  476. Title : Chinese (Hong Kong)

  477. Language : Chinese

  478. Forced : No

  479. Encoded date : UTC 2022-06-22 07:26:03

  480. Tagged date : UTC 2022-06-22 07:26:03


复制代码



文件下载



除非特别注明,本文『奇异博士2[杜比视界版本][IMAX满屏版][简繁英字幕].Doctor.Strange.in.the.Multiverse.of.Madness.2022.IMAX.DSNP.WEB-DL.4k.H』来源于互联网机器人自动抓取,非本站原创。 浮游电影网不对本文拥有版权,如有侵犯,请联系邮箱:fuyouu#yandex.com[#换成@]投诉。我们会在15个工作日内删除。 但烦请转载时请标明出处:“本文转载于『浮游电影网』,原文地址:https://www.fuyouu.com/22550.html

评论吧骚年!

发表你的见解   

昵称*

E-mail*(建议输入,以便收到博主回复的提示邮件)

验证码*

您可以使用eMule或eMule Mod(Windows)、aMule(Win、Linux、Mac)等软件下载eD2k链接。。
eMule收藏集(.emulecollection)文件是您选中的所有链接的列表文件。eMule可以直接下载它们。
按住SHIFT键选择可以选中多个选择框。
可用文件名和大小选择器来选择文件。
文件名选择器帮您根据文件名称或后缀来选择文件。不分大小写。
符号使用:
和:空格( )、+
不包含:-
或:|
转义:一对英文引号("");
匹配开头:^
匹配结尾:$
例如:
选中所有名称中包含有“eMule”或“0.49c”字眼,但不包含有“exe”字眼的:emule|0.49c -exe
选中所有名称的开头是“eMule”,结尾是“0.49c”的:^emule 0.49c$
选中所有名称中带有“eMule 0.49c”的(必须是“eMule 0.49c”,中间没有别的字符,不能是“eMule fake 0.49c”),需要转义:"emule 0.49c"
大小选择器帮您根据文件大小选择文件。