当前位置: 首页 >> 欧美电影 >> 奇异博士2:疯狂多元宇宙[简繁英字幕].Doctor.Strange.in.the.Multiverse.of.Madness.2022.2160p.WEB-DL.SDR.HEVC.Atmos.DDP >> 正文

奇异博士2:疯狂多元宇宙[简繁英字幕].Doctor.Strange.in.the.Multiverse.of.Madness.2022.2160p.WEB-DL.SDR.HEVC.Atmos.DDP

2022年06月23日 11:11:37     电影发布:来源于网络     电影分类:欧美电影     评论(0)    

奇异博士2:疯狂多元宇宙[简繁英字幕].Doctor.Strange.in.the.Multiverse.of.Madness.2022.2160p.WEB-DL.SDR.HEVC.Atmos.DDP5.1-OPT 18.41GB

◎标 题 奇异博士2:疯狂多元宇宙

◎译 名 奇异博士2 / 斯特兰奇博士2 / 奇异博士2:失控多重宇宙(港 / 台) / 奇异博士2: 失控多元宇宙(港) / Doctor Strange 2 / Doctor Strange: in the Multiverse of Madness

◎片 名 Doctor Strange in the Multiverse of Madness

◎年 代 2022

◎产 地 美国

◎类 别 动作 / 恐怖 / 奇幻 / 冒险

◎语 言 英语

◎上映日期 2022-05-04(中国台湾) / 2022-05-06(美国)

◎IMDb评分 7.3/10 (192714人评价)

◎IMDb链接 https://www.imdb.com/title/tt9419884/

◎豆瓣链接 https://movie.douban.com/subject/30304994/

◎片 长 126分钟

◎导 演 山姆·雷米 Sam Raimi

◎编 剧 迈克尔·沃尔德伦 Michael Waldron

杰德·哈雷·巴特利特 Jade Halley Bartlett

史蒂夫·迪特寇 Steve Ditko

斯坦·李 Stan Lee

◎演 员 本尼迪克特·康伯巴奇 Benedict Cumberbatch

伊丽莎白·奥尔森 Elizabeth Olsen

切瓦特·埃加福 Chiwetel Ejiofor

本尼迪克特·王 Benedict Wong

克索斯利尔·戈麦斯 Xochitl Gomez

瑞秋·麦克亚当斯 Rachel McAdams

迈克尔·斯图巴 Michael Stuhlbarg

帕特里克·斯图尔特 Patrick Stewart

海莉·阿特维尔 Hayley Atwell

约翰·卡拉辛斯基 John Krasinski

拉什纳·林奇 Lashana Lynch

安松·蒙特 Anson Mount

查理兹·塞隆 Charlize Theron

希拉·阿蒂姆 Sheila Atim

亚当·赫吉尔 Adam Hugill

亚子·米切尔 Ako Mitchell

杨沫沫 Momo Yeung

丹尼尔·斯温 Daniel Swain

多波·雷斯尼怀罗 Topo Wresniwiro

伊登·纳森森 Eden Nathenson

维尼·莫利 Vinny Moli

大卫·谢 David Tse

乔丹·亚历桑德拉 Jordan Alexandra

迈克尔·沃尔德伦 Michael Waldron

朱利安·希威德 Julian Hilliard

杰特·克莱恩 Jett Klyne

布鲁斯·坎贝尔 Bruce Campbell

马里安·洛伦西克 Marian Lorencik

凯文·费奇 Kevin Feige

丹尼·艾夫曼 Danny Elfman

格雷厄姆·丘彻亚德 Graham Churchyard

◎简 介

充满无限未知的疯狂多元宇宙即将展开,一切皆有可能。

  1. ##### MediaInfo ######

  2. General

  3. Unique ID : 333460836322958929955162189101868212525 (0xFADE389328E6117C5733FDFC9DF7612D)

  4. Complete name : Doctor.Strange.in.the.Multiverse.of.Madness.2022.2160p.WEB-DL.SDR.HEVC.Atmos.DDP5.1-OPT.mkv

  5. Format : Matroska

  6. Format version : Version 4

  7. File size : 18.4 GiB

  8. Duration : 2 h 6 min

  9. Overall bit rate : 20.8 Mb/s

  10. Movie name : Doctor Strange in the Multiverse of Madness

  11. Encoded date : UTC 2022-06-21 23:03:57

  12. Writing application : mkvmerge v61.0.0 ('So') 64-bit

  13. Writing library : libebml v1.4.2 + libmatroska v1.6.4

  14. Cover : Yes

  15. Attachments : Cover.jpg

  16. Video

  17. ID : 1

  18. Format : HEVC

  19. Format/Info : High Efficiency Video Coding

  20. Format profile : Main [email protected]@High

  21. Codec ID : V_MPEGH/ISO/HEVC

  22. Duration : 2 h 6 min

  23. Bit rate : 20.1 Mb/s

  24. Width : 3 840 pixels

  25. Height : 1 608 pixels

  26. Display aspect ratio : 2.40:1

  27. Frame rate mode : Constant

  28. Frame rate : 23.976 FPS

  29. Color space : YUV

  30. Chroma subsampling : 4:2:0

  31. Bit depth : 10 bits

  32. Bits/(Pixel*Frame) : 0.136

  33. Stream size : 17.7 GiB (96%)

  34. Language : English

  35. Default : Yes

  36. Forced : No

  37. Color range : Limited

  38. Color primaries : BT.709

  39. Transfer characteristics : BT.709

  40. Matrix coefficients : BT.709

  41. Audio

  42. ID : 2

  43. Format : E-AC-3 JOC

  44. Format/Info : Enhanced AC-3 with Joint Object Coding

  45. Commercial name : Dolby Digital Plus with Dolby Atmos

  46. Codec ID : A_EAC3

  47. Duration : 2 h 6 min

  48. Bit rate mode : Constant

  49. Bit rate : 768 kb/s

  50. Channel(s) : 6 channels

  51. Channel layout : L R C LFE Ls Rs

  52. Sampling rate : 48.0 kHz

  53. Frame rate : 31.250 FPS (1536 SPF)

  54. Compression mode : Lossy

  55. Stream size : 695 MiB (4%)

  56. Language : English

  57. Service kind : Complete Main

  58. Default : Yes

  59. Forced : No

  60. Complexity index : 16

  61. Number of dynamic objects : 15

  62. Bed channel count : 1 channel

  63. Bed channel configuration : LFE

  64. Text #1

  65. ID : 3

  66. Format : UTF-8

  67. Codec ID : S_TEXT/UTF8

  68. Codec ID/Info : UTF-8 Plain Text

  69. Duration : 25 min 8 s

  70. Bit rate : 1 b/s

  71. Count of elements : 10

  72. Stream size : 265 Bytes (0%)

  73. Title : Forced

  74. Language : English

  75. Default : Yes

  76. Forced : Yes

  77. Text #2

  78. ID : 4

  79. Format : UTF-8

  80. Codec ID : S_TEXT/UTF8

  81. Codec ID/Info : UTF-8 Plain Text

  82. Duration : 2 h 5 min

  83. Bit rate : 36 b/s

  84. Count of elements : 1249

  85. Stream size : 33.8 KiB (0%)

  86. Language : English

  87. Default : No

  88. Forced : No

  89. Text #3

  90. ID : 5

  91. Format : UTF-8

  92. Codec ID : S_TEXT/UTF8

  93. Codec ID/Info : UTF-8 Plain Text

  94. Duration : 26 min 6 s

  95. Bit rate : 60 b/s

  96. Count of elements : 467

  97. Stream size : 11.6 KiB (0%)

  98. Title : SDH

  99. Language : English

  100. Default : No

  101. Forced : No

  102. Text #4

  103. ID : 6

  104. Format : UTF-8

  105. Codec ID : S_TEXT/UTF8

  106. Codec ID/Info : UTF-8 Plain Text

  107. Duration : 2 h 5 min

  108. Bit rate : 37 b/s

  109. Count of elements : 1252

  110. Stream size : 34.5 KiB (0%)

  111. Title : Latin American

  112. Language : Spanish

  113. Default : No

  114. Forced : No

  115. Text #5

  116. ID : 7

  117. Format : UTF-8

  118. Codec ID : S_TEXT/UTF8

  119. Codec ID/Info : UTF-8 Plain Text

  120. Duration : 2 h 5 min

  121. Bit rate : 29 b/s

  122. Count of elements : 1272

  123. Stream size : 26.8 KiB (0%)

  124. Title : 简体中字

  125. Language : Chinese

  126. Default : Yes

  127. Forced : No

  128. Text #6

  129. ID : 8

  130. Format : UTF-8

  131. Codec ID : S_TEXT/UTF8

  132. Codec ID/Info : UTF-8 Plain Text

  133. Duration : 2 h 5 min

  134. Bit rate : 29 b/s

  135. Count of elements : 1272

  136. Stream size : 26.8 KiB (0%)

  137. Title : 繁体中字

  138. Language : Chinese

  139. Default : Yes

  140. Forced : No

  141. Text #7

  142. ID : 9

  143. Format : ASS

  144. Codec ID : S_TEXT/ASS

  145. Codec ID/Info : Advanced Sub Station Alpha

  146. Duration : 2 h 5 min

  147. Bit rate : 71 b/s

  148. Count of elements : 1272

  149. Compression mode : Lossless

  150. Stream size : 65.4 KiB (0%)

  151. Title : 简体中字

  152. Language : Chinese

  153. Default : Yes

  154. Forced : No

  155. Text #8

  156. ID : 10

  157. Format : ASS

  158. Codec ID : S_TEXT/ASS

  159. Codec ID/Info : Advanced Sub Station Alpha

  160. Duration : 2 h 5 min

  161. Bit rate : 71 b/s

  162. Count of elements : 1272

  163. Compression mode : Lossless

  164. Stream size : 65.4 KiB (0%)

  165. Title : 繁体中字

  166. Language : Chinese

  167. Default : Yes

  168. Forced : No

  169. Menu

  170. 00:00:00.000 : Chapter 01

  171. 00:03:51.398 : Chapter 02

  172. 00:08:26.506 : Chapter 03

  173. 00:14:19.442 : Chapter 04

  174. 00:18:23.061 : Chapter 05

  175. 00:24:37.602 : Chapter 06

  176. 00:37:58.153 : Chapter 07

  177. 00:47:15.502 : Chapter 08

  178. 00:50:03.545 : Chapter 09

  179. 00:55:51.059 : Chapter 10

  180. 00:59:46.336 : Chapter 11

  181. 01:02:19.656 : Chapter 12

  182. 01:05:18.418 : Chapter 13

  183. 01:07:20.790 : Chapter 14

  184. 01:15:03.586 : Chapter 15

  185. 01:17:01.871 : Chapter 16

  186. 01:19:18.383 : Chapter 17

  187. 01:23:29.342 : Chapter 18

  188. 01:26:34.194 : Chapter 19

  189. 01:28:51.206 : Chapter 20

  190. 01:34:47.270 : Chapter 21

  191. 01:37:38.650 : Chapter 22

  192. 01:41:27.629 : Chapter 23

  193. 01:51:03.288 : Chapter 24

  194. 01:53:26.473 : Chapter 25

  195. 01:55:38.855 : Chapter 26

  196. 01:56:32.075 : Chapter 27

  197. 01:58:48.378 : Chapter 28

  198. 01:59:25.665 : Chapter 29



DP

文件下载



除非特别注明,本文『奇异博士2:疯狂多元宇宙[简繁英字幕].Doctor.Strange.in.the.Multiverse.of.Madness.2022.2160p.WEB-DL.SDR.HEVC.Atmos.DDP』来源于互联网机器人自动抓取,非本站原创。 浮游电影网不对本文拥有版权,如有侵犯,请联系邮箱:fuyouu#yandex.com[#换成@]投诉。我们会在15个工作日内删除。 但烦请转载时请标明出处:“本文转载于『浮游电影网』,原文地址:https://www.fuyouu.com/22549.html

评论吧骚年!

发表你的见解   

昵称*

E-mail*(建议输入,以便收到博主回复的提示邮件)

验证码*

您可以使用eMule或eMule Mod(Windows)、aMule(Win、Linux、Mac)等软件下载eD2k链接。。
eMule收藏集(.emulecollection)文件是您选中的所有链接的列表文件。eMule可以直接下载它们。
按住SHIFT键选择可以选中多个选择框。
可用文件名和大小选择器来选择文件。
文件名选择器帮您根据文件名称或后缀来选择文件。不分大小写。
符号使用:
和:空格( )、+
不包含:-
或:|
转义:一对英文引号("");
匹配开头:^
匹配结尾:$
例如:
选中所有名称中包含有“eMule”或“0.49c”字眼,但不包含有“exe”字眼的:emule|0.49c -exe
选中所有名称的开头是“eMule”,结尾是“0.49c”的:^emule 0.49c$
选中所有名称中带有“eMule 0.49c”的(必须是“eMule 0.49c”,中间没有别的字符,不能是“eMule fake 0.49c”),需要转义:"emule 0.49c"
大小选择器帮您根据文件大小选择文件。