当前位置: 首页 >> 欧美电影 >> 使徒[中文字幕].Apostle.2018.2160p.NF.WEB-DL.x265.10bit.SDR.DDP5.1-Cinefright 11.19GB >> 正文

使徒[中文字幕].Apostle.2018.2160p.NF.WEB-DL.x265.10bit.SDR.DDP5.1-Cinefright 11.19GB

2022年06月21日 18:56:14     电影发布:来源于网络     电影分类:欧美电影     评论(0)    

使徒[中文字幕].Apostle.2018.2160p.NF.WEB DL.x265.10bit.SDR.DDP5.1 Cinefright 11.19GB  欧美电影  第1张

使徒[中文字幕].Apostle.2018.2160p.NF.WEB DL.x265.10bit.SDR.DDP5.1 Cinefright 11.19GB  欧美电影  第2张

◎译 名 使徒

◎片 名 Apostle

◎年 代 2018

◎产 地 美国

◎类 别 悬疑 / 惊悚 / 恐怖

◎语 言 英语

◎上映日期 2018-10-12(美国)

◎IMDb链接 https://www.imdb.com/title/tt6217306/

◎豆瓣评分 6.3/10 (6153人评价)

◎豆瓣链接 https://movie.douban.com/subject/26908051/

◎片 长 130分钟

◎导 演 加雷斯·埃文斯 Gareth Evans (id:1320029)

◎编 剧 加雷斯·埃文斯 Gareth Evans (id:1320029)

◎演 员 丹·史蒂文斯 Dan Stevens (id:1027527)

麦克·辛 Michael Sheen (id:1004566)

露西·宝通 Lucy Boynton (id:1310841)

比尔·米尔纳 Bill Milner (id:1032360)

理查德·艾尔芬 Richard Elfyn (id:1402647)

克里斯汀·弗劳赛斯 Kristine Froseth (id:1366509)

马克·路易斯·琼斯 Mark Lewis Jones (id:1339389)

埃伦·里斯 Elen Rhys (id:1372629)

保罗·希金斯 Paul Higgins (id:1322154)

罗斯·奥亨尼西 Ross O'Hennessey (id:1274321)

斯图尔特·麦克尼尔 Stuart McNeil (id:1366878)

安妮斯·埃尔维 Annes Elwy (id:1386511)

瑞斯·梅雷迪思 Rhys Meredith (id:1392816)

爵克·哈迪 Juke Hardy (id:1381994)

加雷斯·埃文斯 Gareth Evans (id:1320029)

加雷斯·埃文斯 Gareth Evans (id:1320029)

加雷斯·埃文斯 Gareth Evans (id:1320029)

◎简 介

麦克·辛加盟加雷斯·埃文斯自编自导的惊悚片[使徒],同时加盟的演员还包括露西·宝通、比尔·米尔纳、克里斯汀·弗劳赛斯,此前“大表哥”丹·史蒂文斯已确定参演。故事讲述一个男人因妹妹被邪教份子绑架,决定独闯龙潭、实施复仇计划的故事。

  1. Video

  2. ID : 1

  3. Format : HEVC

  4. Format/Info : High Efficiency Video Coding

  5. Format profile : Main [email protected]@Main

  6. Codec ID : V_MPEGH/ISO/HEVC

  7. Duration : 2 h 10 min

  8. Bit rate : 11.7 Mb/s

  9. Width : 3 840 pixels

  10. Height : 2 160 pixels

  11. Display aspect ratio : 16:9

  12. Frame rate mode : Constant

  13. Frame rate : 24.000 FPS

  14. Color space : YUV

  15. Chroma subsampling : 4:2:0

  16. Bit depth : 10 bits

  17. Bits/(Pixel*Frame) : 0.059

  18. Stream size : 10.6 GiB (95%)

  19. Default : Yes

  20. Forced : No

  21. Color range : Limited

  22. Color primaries : BT.709

  23. Transfer characteristics : BT.709

  24. Matrix coefficients : BT.709


  25. Audio

  26. ID : 2

  27. Format : E-AC-3

  28. Format/Info : Enhanced AC-3

  29. Commercial name : Dolby Digital Plus

  30. Codec ID : A_EAC3

  31. Duration : 2 h 10 min

  32. Bit rate mode : Constant

  33. Bit rate : 640 kb/s

  34. Channel(s) : 6 channels

  35. Channel layout : L R C LFE Ls Rs

  36. Sampling rate : 48.0 kHz

  37. Frame rate : 31.250 FPS (1536 SPF)

  38. Compression mode : Lossy

  39. Stream size : 595 MiB (5%)

  40. Language : English

  41. Service kind : Complete Main

  42. Default : Yes

  43. Forced : No


  44. Text #1

  45. ID : 3

  46. Format : UTF-8

  47. Codec ID : S_TEXT/UTF8

  48. Codec ID/Info : UTF-8 Plain Text

  49. Duration : 2 min 58 s

  50. Bit rate : 2 b/s

  51. Count of elements : 2

  52. Stream size : 51.0 Bytes (0%)

  53. Title : Forced

  54. Language : English

  55. Default : Yes

  56. Forced : Yes


  57. Text #2

  58. ID : 4

  59. Format : UTF-8

  60. Codec ID : S_TEXT/UTF8

  61. Codec ID/Info : UTF-8 Plain Text

  62. Duration : 2 h 8 min

  63. Bit rate : 29 b/s

  64. Count of elements : 1147

  65. Stream size : 27.8 KiB (0%)

  66. Title : SDH

  67. Language : English

  68. Default : No

  69. Forced : No


  70. Text #3

  71. ID : 5

  72. Format : UTF-8

  73. Codec ID : S_TEXT/UTF8

  74. Codec ID/Info : UTF-8 Plain Text

  75. Duration : 2 h 9 min

  76. Bit rate : 36 b/s

  77. Count of elements : 830

  78. Stream size : 34.2 KiB (0%)

  79. Language : Arabic

  80. Default : No

  81. Forced : No


  82. Text #4

  83. ID : 6

  84. Format : UTF-8

  85. Codec ID : S_TEXT/UTF8

  86. Codec ID/Info : UTF-8 Plain Text

  87. Duration : 2 h 9 min

  88. Bit rate : 20 b/s

  89. Count of elements : 830

  90. Stream size : 19.8 KiB (0%)

  91. Language : Czech

  92. Default : No

  93. Forced : No


  94. Text #5

  95. ID : 7

  96. Format : UTF-8

  97. Codec ID : S_TEXT/UTF8

  98. Codec ID/Info : UTF-8 Plain Text

  99. Duration : 2 h 9 min

  100. Bit rate : 22 b/s

  101. Count of elements : 824

  102. Stream size : 21.5 KiB (0%)

  103. Language : Danish

  104. Default : No

  105. Forced : No


  106. Text #6

  107. ID : 8

  108. Format : UTF-8

  109. Codec ID : S_TEXT/UTF8

  110. Codec ID/Info : UTF-8 Plain Text

  111. Duration : 2 h 9 min

  112. Bit rate : 25 b/s

  113. Count of elements : 824

  114. Stream size : 23.8 KiB (0%)

  115. Language : German

  116. Default : No

  117. Forced : No


  118. Text #7

  119. ID : 9

  120. Format : UTF-8

  121. Codec ID : S_TEXT/UTF8

  122. Codec ID/Info : UTF-8 Plain Text

  123. Duration : 2 h 9 min

  124. Bit rate : 39 b/s

  125. Count of elements : 891

  126. Stream size : 37.0 KiB (0%)

  127. Language : Greek

  128. Default : No

  129. Forced : No


  130. Text #8

  131. ID : 10

  132. Format : UTF-8

  133. Codec ID : S_TEXT/UTF8

  134. Codec ID/Info : UTF-8 Plain Text

  135. Duration : 2 h 9 min

  136. Bit rate : 22 b/s

  137. Count of elements : 831

  138. Stream size : 21.3 KiB (0%)

  139. Title : Latin American

  140. Language : Spanish

  141. Default : No

  142. Forced : No


  143. Text #9

  144. ID : 11

  145. Format : UTF-8

  146. Codec ID : S_TEXT/UTF8

  147. Codec ID/Info : UTF-8 Plain Text

  148. Duration : 2 h 9 min

  149. Bit rate : 22 b/s

  150. Count of elements : 828

  151. Stream size : 21.6 KiB (0%)

  152. Title : European

  153. Language : Spanish

  154. Default : No

  155. Forced : No


  156. Text #10

  157. ID : 12

  158. Format : UTF-8

  159. Codec ID : S_TEXT/UTF8

  160. Codec ID/Info : UTF-8 Plain Text

  161. Duration : 2 h 9 min

  162. Bit rate : 21 b/s

  163. Count of elements : 761

  164. Stream size : 19.9 KiB (0%)

  165. Language : Finnish

  166. Default : No

  167. Forced : No


  168. Text #11

  169. ID : 13

  170. Format : UTF-8

  171. Codec ID : S_TEXT/UTF8

  172. Codec ID/Info : UTF-8 Plain Text

  173. Duration : 2 h 9 min

  174. Bit rate : 23 b/s

  175. Count of elements : 809

  176. Stream size : 22.4 KiB (0%)

  177. Language : French

  178. Default : No

  179. Forced : No


  180. Text #12

  181. ID : 14

  182. Format : UTF-8

  183. Codec ID : S_TEXT/UTF8

  184. Codec ID/Info : UTF-8 Plain Text

  185. Duration : 2 h 9 min

  186. Bit rate : 35 b/s

  187. Count of elements : 830

  188. Stream size : 33.9 KiB (0%)

  189. Language : Hebrew

  190. Default : No

  191. Forced : No


  192. Text #13

  193. ID : 15

  194. Format : UTF-8

  195. Codec ID : S_TEXT/UTF8

  196. Codec ID/Info : UTF-8 Plain Text

  197. Duration : 2 h 9 min

  198. Bit rate : 23 b/s

  199. Count of elements : 830

  200. Stream size : 22.1 KiB (0%)

  201. Language : Hungarian

  202. Default : No

  203. Forced : No


  204. Text #14

  205. ID : 16

  206. Format : UTF-8

  207. Codec ID : S_TEXT/UTF8

  208. Codec ID/Info : UTF-8 Plain Text

  209. Duration : 2 h 9 min

  210. Bit rate : 24 b/s

  211. Count of elements : 824

  212. Stream size : 23.0 KiB (0%)

  213. Language : Indonesian

  214. Default : No

  215. Forced : No


  216. Text #15

  217. ID : 17

  218. Format : UTF-8

  219. Codec ID : S_TEXT/UTF8

  220. Codec ID/Info : UTF-8 Plain Text

  221. Duration : 2 h 9 min

  222. Bit rate : 24 b/s

  223. Count of elements : 819

  224. Stream size : 22.9 KiB (0%)

  225. Language : Italian

  226. Default : No

  227. Forced : No


  228. Text #16

  229. ID : 18

  230. Format : UTF-8

  231. Codec ID : S_TEXT/UTF8

  232. Codec ID/Info : UTF-8 Plain Text

  233. Duration : 2 h 9 min

  234. Bit rate : 20 b/s

  235. Count of elements : 849

  236. Stream size : 19.0 KiB (0%)

  237. Language : Japanese

  238. Default : No

  239. Forced : No


  240. Text #17

  241. ID : 19

  242. Format : UTF-8

  243. Codec ID : S_TEXT/UTF8

  244. Codec ID/Info : UTF-8 Plain Text

  245. Duration : 2 h 9 min

  246. Bit rate : 23 b/s

  247. Count of elements : 834

  248. Stream size : 22.4 KiB (0%)

  249. Language : Korean

  250. Default : No

  251. Forced : No


  252. Text #18

  253. ID : 20

  254. Format : UTF-8

  255. Codec ID : S_TEXT/UTF8

  256. Codec ID/Info : UTF-8 Plain Text

  257. Duration : 2 h 9 min

  258. Bit rate : 21 b/s

  259. Count of elements : 805

  260. Stream size : 20.2 KiB (0%)

  261. Language : Norwegian Bokmal

  262. Default : No

  263. Forced : No


  264. Text #19

  265. ID : 21

  266. Format : UTF-8

  267. Codec ID : S_TEXT/UTF8

  268. Codec ID/Info : UTF-8 Plain Text

  269. Duration : 2 h 9 min

  270. Bit rate : 21 b/s

  271. Count of elements : 796

  272. Stream size : 20.5 KiB (0%)

  273. Language : Dutch

  274. Default : No

  275. Forced : No


  276. Text #20

  277. ID : 22

  278. Format : UTF-8

  279. Codec ID : S_TEXT/UTF8

  280. Codec ID/Info : UTF-8 Plain Text

  281. Duration : 2 h 9 min

  282. Bit rate : 20 b/s

  283. Count of elements : 811

  284. Stream size : 19.8 KiB (0%)

  285. Language : Polish

  286. Default : No

  287. Forced : No


  288. Text #21

  289. ID : 23

  290. Format : UTF-8

  291. Codec ID : S_TEXT/UTF8

  292. Codec ID/Info : UTF-8 Plain Text

  293. Duration : 2 h 9 min

  294. Bit rate : 21 b/s

  295. Count of elements : 835

  296. Stream size : 20.4 KiB (0%)

  297. Title : Brazilian

  298. Language : Portuguese

  299. Default : No

  300. Forced : No


  301. Text #22

  302. ID : 24

  303. Format : UTF-8

  304. Codec ID : S_TEXT/UTF8

  305. Codec ID/Info : UTF-8 Plain Text

  306. Duration : 2 h 9 min

  307. Bit rate : 23 b/s

  308. Count of elements : 816

  309. Stream size : 22.0 KiB (0%)

  310. Title : European

  311. Language : Portuguese

  312. Default : No

  313. Forced : No


  314. Text #23

  315. ID : 25

  316. Format : UTF-8

  317. Codec ID : S_TEXT/UTF8

  318. Codec ID/Info : UTF-8 Plain Text

  319. Duration : 2 h 9 min

  320. Bit rate : 23 b/s

  321. Count of elements : 827

  322. Stream size : 21.9 KiB (0%)

  323. Language : Romanian

  324. Default : No

  325. Forced : No


  326. Text #24

  327. ID : 26

  328. Format : UTF-8

  329. Codec ID : S_TEXT/UTF8

  330. Codec ID/Info : UTF-8 Plain Text

  331. Duration : 2 h 9 min

  332. Bit rate : 38 b/s

  333. Count of elements : 815

  334. Stream size : 36.8 KiB (0%)

  335. Language : Russian

  336. Default : No

  337. Forced : No


  338. Text #25

  339. ID : 27

  340. Format : UTF-8

  341. Codec ID : S_TEXT/UTF8

  342. Codec ID/Info : UTF-8 Plain Text

  343. Duration : 2 h 9 min

  344. Bit rate : 22 b/s

  345. Count of elements : 777

  346. Stream size : 21.1 KiB (0%)

  347. Language : Swedish

  348. Default : No

  349. Forced : No


  350. Text #26

  351. ID : 28

  352. Format : UTF-8

  353. Codec ID : S_TEXT/UTF8

  354. Codec ID/Info : UTF-8 Plain Text

  355. Duration : 2 h 9 min

  356. Bit rate : 58 b/s

  357. Count of elements : 830

  358. Stream size : 55.3 KiB (0%)

  359. Language : Thai

  360. Default : No

  361. Forced : No


  362. Text #27

  363. ID : 29

  364. Format : UTF-8

  365. Codec ID : S_TEXT/UTF8

  366. Codec ID/Info : UTF-8 Plain Text

  367. Duration : 2 h 9 min

  368. Bit rate : 23 b/s

  369. Count of elements : 775

  370. Stream size : 22.1 KiB (0%)

  371. Language : Turkish

  372. Default : No

  373. Forced : No


  374. Text #28

  375. ID : 30

  376. Format : UTF-8

  377. Codec ID : S_TEXT/UTF8

  378. Codec ID/Info : UTF-8 Plain Text

  379. Duration : 2 h 9 min

  380. Bit rate : 28 b/s

  381. Count of elements : 830

  382. Stream size : 26.9 KiB (0%)

  383. Language : Vietnamese

  384. Default : No

  385. Forced : No


  386. Text #29

  387. ID : 31

  388. Format : UTF-8

  389. Codec ID : S_TEXT/UTF8

  390. Codec ID/Info : UTF-8 Plain Text

  391. Duration : 2 h 9 min

  392. Bit rate : 20 b/s

  393. Count of elements : 830

  394. Stream size : 19.2 KiB (0%)

  395. Title : Simplified

  396. Language : Chinese

  397. Default : No

  398. Forced : No


  399. Text #30

  400. ID : 32

  401. Format : UTF-8

  402. Codec ID : S_TEXT/UTF8

  403. Codec ID/Info : UTF-8 Plain Text

  404. Duration : 2 h 9 min

  405. Bit rate : 21 b/s

  406. Count of elements : 830

  407. Stream size : 20.4 KiB (0%)

  408. Title : Traditional

  409. Language : Chinese

  410. Default : No

  411. Forced : No


  412. Menu

  413. 00:00:00.000 : en:Part 01

  414. 02:05:26.450 : en:Credits

复制代码

使徒[中文字幕].Apostle.2018.2160p.NF.WEB DL.x265.10bit.SDR.DDP5.1 Cinefright 11.19GB  欧美电影  第3张 使徒[中文字幕].Apostle.2018.2160p.NF.WEB DL.x265.10bit.SDR.DDP5.1 Cinefright 11.19GB  欧美电影  第4张 使徒[中文字幕].Apostle.2018.2160p.NF.WEB DL.x265.10bit.SDR.DDP5.1 Cinefright 11.19GB  欧美电影  第5张



文件下载


除非特别注明,本文『使徒[中文字幕].Apostle.2018.2160p.NF.WEB-DL.x265.10bit.SDR.DDP5.1-Cinefright 11.19GB』来源于互联网机器人自动抓取,非本站原创。 浮游电影网不对本文拥有版权,如有侵犯,请联系邮箱:fuyouu#yandex.com[#换成@]投诉。我们会在15个工作日内删除。 但烦请转载时请标明出处:“本文转载于『浮游电影网』,原文地址:https://www.fuyouu.com/22546.html

评论吧骚年!

发表你的见解   

昵称*

E-mail*(建议输入,以便收到博主回复的提示邮件)

验证码*

您可以使用eMule或eMule Mod(Windows)、aMule(Win、Linux、Mac)等软件下载eD2k链接。。
eMule收藏集(.emulecollection)文件是您选中的所有链接的列表文件。eMule可以直接下载它们。
按住SHIFT键选择可以选中多个选择框。
可用文件名和大小选择器来选择文件。
文件名选择器帮您根据文件名称或后缀来选择文件。不分大小写。
符号使用:
和:空格( )、+
不包含:-
或:|
转义:一对英文引号("");
匹配开头:^
匹配结尾:$
例如:
选中所有名称中包含有“eMule”或“0.49c”字眼,但不包含有“exe”字眼的:emule|0.49c -exe
选中所有名称的开头是“eMule”,结尾是“0.49c”的:^emule 0.49c$
选中所有名称中带有“eMule 0.49c”的(必须是“eMule 0.49c”,中间没有别的字符,不能是“eMule fake 0.49c”),需要转义:"emule 0.49c"
大小选择器帮您根据文件大小选择文件。