当前位置: 首页 >> 日韩电影 >> 时尚地狱[中文字幕].Fashion.Hell.2010.1080p.BluRay.DTS.x265-10bit-ENTHD 4.52GB >> 正文

时尚地狱[中文字幕].Fashion.Hell.2010.1080p.BluRay.DTS.x265-10bit-ENTHD 4.52GB

2022年06月21日 15:42:00     电影发布:来源于网络     电影分类:日韩电影     评论(0)    

◎译 名 时尚地狱 / Fashion Hell / ファッション?ヘル

◎片 名 ファッション?ヘル

◎年 代 2010

◎产 地 日本

◎类 别 恐怖

◎语 言 日语

◎上映日期 2010-12-03(日本)

◎IMDb链接 https://www.imdb.com/title/tt1806906/

◎豆瓣评分 3.9/10 (741人评价)

◎豆瓣链接 https://movie.douban.com/subject/5995540/

◎片 长 75分钟

◎导 演 継田淳 Jun Tsugita (id:1358620)

◎编 剧 継田淳 Jun Tsugita (id:1358620)

◎演 员 松野井雅 Matsunoi Miyavi (id:1274532)

新井美穗 Miho Arai (id:1322000)

亚纱美 Asami (id:1023245)

铃木薄荷 Minto Suzuki (id:1368658)

◎简 介

這一天,三偼耆珱]有嫖過妓的男生想為其中即將要結婚的朋友慶祝,因此找了間風俗店要來當作告別他的單身派對,一進去他們馬上都選好自已想要的風俗女,殊不知接下來等著他們是將是瘋狂且血腥的性愛派對!

Softcore porn collides with castration anxieties in the Japanese grindhouse quickie “Horny House of Horror.” Writer-cum-debutant helmer Jun Tsugita (“Mutant Girls Squad” teams here with f/x maestro Yoshino Nishimura to deliver the gory goods, the cathouse setting giving Tsugita ample...

  1. ##### MediaInfo ######

  2. General

  3. Unique ID : 4529254491331020000848043235440889678 (0x3684D7CC4A3BEB1B58F04AF62208F4E)

  4. Complete name : Fashion.Hell.2010.1080p.BluRay.DTS.x265-10bit-ENTHD.mkv

  5. Format : Matroska

  6. Format version : Version 4

  7. File size : 4.52 GiB

  8. Duration : 1 h 8 min

  9. Overall bit rate : 9 390 kb/s

  10. Movie name : Fashion Hell 2010 1080p BluRay DTS x265-10bit-HDS

  11. Encoded date : UTC 2022-06-18 03:52:19

  12. Writing application : mkvmerge v68.0.0 ('The Curtain') 64-bit

  13. Writing library : libebml v1.4.2 + libmatroska v1.6.4 / Lavf59.17.101

  14. Video

  15. ID : 1

  16. Format : HEVC

  17. Format/Info : High Efficiency Video Coding

  18. Format profile : Main [email protected]@High

  19. Codec ID : V_MPEGH/ISO/HEVC

  20. Duration : 1 h 8 min

  21. Bit rate : 7 872 kb/s

  22. Width : 1 920 pixels

  23. Height : 1 080 pixels

  24. Display aspect ratio : 16:9

  25. Frame rate mode : Constant

  26. Frame rate : 25.000 FPS

  27. Color space : YUV

  28. Chroma subsampling : 4:2:0

  29. Bit depth : 10 bits

  30. Bits/(Pixel*Frame) : 0.152

  31. Stream size : 3.79 GiB (84%)

  32. Title : [email protected]

  33. Default : No

  34. Forced : No

  35. Audio

  36. ID : 2

  37. Format : DTS

  38. Format/Info : Digital Theater Systems

  39. Codec ID : A_DTS

  40. Duration : 1 h 8 min

  41. Bit rate mode : Constant

  42. Bit rate : 1 509 kb/s

  43. Channel(s) : 6 channels

  44. Channel layout : C L R Ls Rs LFE

  45. Sampling rate : 48.0 kHz

  46. Frame rate : 93.750 FPS (512 SPF)

  47. Bit depth : 24 bits

  48. Compression mode : Lossy

  49. Stream size : 744 MiB (16%)

  50. Title : Japanese

  51. Language : Japanese

  52. Default : Yes

  53. Forced : No

  54. Text

  55. ID : 3

  56. Format : PGS

  57. Muxing mode : zlib

  58. Codec ID : S_HDMV/PGS

  59. Codec ID/Info : Picture based subtitle format used on BDs/HD-DVDs

  60. Duration : 1 h 4 min

  61. Bit rate : 12.4 kb/s

  62. Count of elements : 1146

  63. Stream size : 5.75 MiB (0%)

  64. Title : CHS

  65. Language : Chinese

  66. Default : Yes

  67. Forced : No

  68. Menu

  69. 00:00:00.000 : en:第 01 章

  70. 00:05:35.080 : en:第 02 章

  71. 00:10:50.800 : en:第 03 章

  72. 00:18:10.760 : en:第 04 章

  73. 00:22:44.800 : en:第 05 章

  74. 00:29:48.560 : en:第 06 章

  75. 00:34:27.360 : en:第 07 章

  76. 00:41:24.960 : en:第 08 章

  77. 00:49:31.680 : en:第 09 章

  78. 00:53:30.920 : en:第 10 章

  79. 01:00:01.520 : en:第 11 章

  80. 01:05:37.240 : en:第 12 章


复制代码



文件下载





除非特别注明,本文『时尚地狱[中文字幕].Fashion.Hell.2010.1080p.BluRay.DTS.x265-10bit-ENTHD 4.52GB』来源于互联网机器人自动抓取,非本站原创。 浮游电影网不对本文拥有版权,如有侵犯,请联系邮箱:fuyouu#yandex.com[#换成@]投诉。我们会在15个工作日内删除。 但烦请转载时请标明出处:“本文转载于『浮游电影网』,原文地址:https://www.fuyouu.com/22544.html

评论吧骚年!

发表你的见解   

昵称*

E-mail*(建议输入,以便收到博主回复的提示邮件)

验证码*

您可以使用eMule或eMule Mod(Windows)、aMule(Win、Linux、Mac)等软件下载eD2k链接。。
eMule收藏集(.emulecollection)文件是您选中的所有链接的列表文件。eMule可以直接下载它们。
按住SHIFT键选择可以选中多个选择框。
可用文件名和大小选择器来选择文件。
文件名选择器帮您根据文件名称或后缀来选择文件。不分大小写。
符号使用:
和:空格( )、+
不包含:-
或:|
转义:一对英文引号("");
匹配开头:^
匹配结尾:$
例如:
选中所有名称中包含有“eMule”或“0.49c”字眼,但不包含有“exe”字眼的:emule|0.49c -exe
选中所有名称的开头是“eMule”,结尾是“0.49c”的:^emule 0.49c$
选中所有名称中带有“eMule 0.49c”的(必须是“eMule 0.49c”,中间没有别的字符,不能是“eMule fake 0.49c”),需要转义:"emule 0.49c"
大小选择器帮您根据文件大小选择文件。