当前位置: 首页 >> 港台电影 >> 军中乐园[国语音轨/简繁英字幕].Paradise.in.Service.2014.BluRay.1080p.x265.10bit-MiniHD 6.06GB >> 正文

军中乐园[国语音轨/简繁英字幕].Paradise.in.Service.2014.BluRay.1080p.x265.10bit-MiniHD 6.06GB

2022年06月21日 15:41:13     电影发布:来源于网络     电影分类:港台电影     评论(0)    

◎译 名 军中乐园 / Paradise in Service

◎片 名 軍中樂園

◎年 代 2014

◎产 地 中国台湾 / 中国大陆

◎类 别 剧情 / 爱情 / 历史

◎语 言 汉语普通话

◎上映日期 2014-09-05(中国台湾)

◎IMDb链接 https://www.imdb.com/title/tt4012914/

◎豆瓣评分 7.4/10 (82414人评价)

◎豆瓣链接 https://movie.douban.com/subject/20515070/

◎片 长 133分钟

◎导 演 钮承泽 Doze Niu Chen-Zer (id:1274411)

◎编 剧 曾莉婷 Li-ting Tseng (id:1407460)

钮承泽 Doze Niu Chen-Zer (id:1274411)

◎演 员 阮经天 Ethan Juan (id:1259866)

万茜 Qian Wan (id:1315477)

陈意涵 Ivy Chen (id:1274316)

陈建斌 Jianbin Chen (id:1274626)

王柏杰 Bo-Chieh Wang (id:1275038)

苗可丽 Keli Miao (id:1335843)

陈道贤 Daniel Chen (id:1355521)

洪胜德 Honduras (id:1324552)

吴志庆 McFly Wu (id:1355810)

廖启智 Kai Chi Liu (id:1274268)

石知田 Chih Tian Shih (id:1350154)

尚国伟 Guowei Shang (id:1322814)

项洪 Hong Xiang (id:1367657)

王锐 Rui Wang (id:1379029)

王淮仲 Huai-Chung Wang (id:1372427)

梁以辰 Yi-Chan Liang (id:1411896)

叶良财 Steve Yap (id:1340716)

王博玄 Bo-Syuan Wang (id:1406921)

张哲豪 Che-hao Chang (id:1375369)

施名帅 Ming-Shuai Shih (id:1358341)

雷婕熙 J.C Lei (id:1359267)

王千航 Qianhang Wang (id:1330865)

余月如 Yue-Ru Yu (id:1379044)

林子熙 Phoebe Lin (id:1358999)

陈以文 Yiwen Chen (id:1280584)

黄健玮 Chien-wei Huang (id:1274687)

脱一然 Yiran Tuo (id:1326047)

饶星星 Cincin Jao (id:1370487)

谢俊慧 Eugene Hsieh (id:1344257)

程相银 Xiangyin Cheng (id:1321172)

李迪恩 Deyn Lee (id:1372405)

萧子墨 Eric Hsiao (id:1391982)

钮承泽 Doze Niu Chen-Zer (id:1274411)

黄志明 Chih-ming Huang (id:1325051)

张大军 Dajun Zhang (id:1412558)

王中军 Zhongjun Wang (id:1276036)

刘蔚然 Wei-Jan Liu (id:1378366)

王中磊 Zhonglei Wang (id:1276037)

杨庭恺 Bernard Yang (id:1443208)

魏伯勤 Boqin Wei (id:1421694)

李欣芸 Cincin Lee (id:1331258)

曹郁 Yu Cao (id:1304904)

刘三郎 Saburo Liu (id:1401856)

林志坚 Charlie Lam (id:1304405)

袁绪虎 HsuHu Yuan (id:1379420)

侯孝贤 Hsiao-hsien Hou (id:1093843)

陈俊宏 Chun-Hung Chen (id:1405906)

苏珮仪 Milk Su (id:1446044)

黄美清 Max Huang (id:1331964)

高佳霖 Chia-Lin Kao (id:1378380)

方绮伦 Chi-Lun Fang (id:1378381)

许力文 Li Wen Hsu (id:1362886)

林书宇 Tom Lin (id:1314067)

杜笃之 Du-Che Tu (id:1275159)

汤湘竹 Shiang-Chu Tang (id:1298902)

◎简 介

海龙菜鸟小宝(阮经天 饰)来到海天一色的金门,欢迎他的却是魔鬼士官长老张(陈建斌 饰)带来的铁血磨练。惨遭退训后,他被分发到有“军中乐园”之称的特约茶室,却在这里遇到了新训中心的好友华兴(王柏杰 饰),也发现了老张对阿娇(陈意涵 饰)情有独钟的秘密,坚守忠贞的他这时也被侍应生妮妮(万茜 饰)吸引,展开了一段幽微的情愫……

就当一切看似美好之际,茶室出了意外,风声鹤唳下,小宝偶然间又得知了妮妮深藏心底的秘密!他的世界开始动摇之际,变化接踵而至……

◎获奖情况 (共17项)

第51届台北金马影展 (2014)

金马奖 最佳男配角

└──陈建斌 (id:1274626)

金马奖 最佳女配角

└──万茜 (id:1315477)

金马奖 最佳女配角(提名)

└──陈意涵 (id:1274316)

金马奖 最佳美术设计(提名)

└──黄美清 (id:1331964)

金马奖 最佳造型设计(提名)

金马奖 最佳音效(提名)

第34届香港电影金像奖 (2015)

最佳两岸华语电影(提名)

第9届亚洲电影大奖 (2015)

最佳男主角(提名)

└──阮经天 (id:1259866)

最佳男配角(提名)

└──陈建斌 (id:1274626)

最佳女配角(提名)

└──万茜 (id:1315477)

第17届台北电影节 (2015)

台北电影奖 最佳剧情长片(提名)

└──钮承泽 (id:1274411)

台北电影奖 最佳编剧奖

台北电影奖 最佳美术设计

└──黄美清 (id:1331964)

第15届华语电影传媒大奖 (2015)

百家传媒年度致敬电影

观众票选最受瞩目表现(提名)

最佳男配角

└──陈建斌 (id:1274626)

最佳女配角(提名)

└──万茜 (id:1315477)

  1. ##### MediaInfo ######

  2. General

  3. Unique ID : 220137790199241096695401684330238601680 (0xA59CFF0732E6247F285373BC7D3269D0)

  4. Complete name : Paradise.in.Service.2014.BluRay.1080p.x265.10bit-MiniHD.mkv

  5. Format : Matroska

  6. Format version : Version 4

  7. File size : 6.06 GiB

  8. Duration : 2 h 13 min

  9. Overall bit rate : 6 479 kb/s

  10. Movie name : RARBG.COM - Paradise.in.Service.2014.1080p.BluRay.REMUX.AVC.TrueHD.5.1-RARBG

  11. Encoded date : UTC 2018-12-19 12:55:10

  12. Writing application : mkvmerge v20.0.0 ('I Am The Sun') 64-bit

  13. Writing library : libebml v1.3.5 + libmatroska v1.4.8

  14. Video

  15. ID : 1

  16. Format : HEVC

  17. Format/Info : High Efficiency Video Coding

  18. Format profile : Main [email protected]@Main

  19. Codec ID : V_MPEGH/ISO/HEVC

  20. Duration : 2 h 13 min

  21. Bit rate : 5 806 kb/s

  22. Width : 1 920 pixels

  23. Height : 804 pixels

  24. Display aspect ratio : 2.40:1

  25. Frame rate mode : Constant

  26. Frame rate : 24.000 FPS

  27. Color space : YUV

  28. Chroma subsampling : 4:2:0

  29. Bit depth : 10 bits

  30. Bits/(Pixel*Frame) : 0.157

  31. Stream size : 5.43 GiB (90%)

  32. Writing library : x265 2.9+4-471726d3a046:[Windows][GCC 8.2.0][64 bit] 10bit

  33. Encoding settings : cpuid=533541111039 / frame-threads=4 / numa-pools=16 / wpp / no-pmode / no-pme / no-psnr / no-ssim / log-level=2 / csv / csv-log-level=0 / input-csp=1 / input-res=1920x804 / interlace=0 / total-frames=192853 / level-idc=0 / high-tier=1 / uhd-bd=0 / ref=5 / no-allow-non-conformance / no-repeat-headers / annexb / no-aud / no-hrd / info / hash=0 / no-temporal-layers / no-open-gop / min-keyint=1 / keyint=360 / gop-lookahead=0 / bframes=9 / b-adapt=2 / b-pyramid / bframe-bias=0 / rc-lookahead=60 / lookahead-slices=4 / NTMzNTQ=uuDQuD2mJt9fsCf / scenecut=40 / radl=0 / no-intra-refresh / ctu=32 / min-cu-size=8 / rect / no-amp / max-tu-size=16 / tu-inter-depth=2 / tu-intra-depth=2 / limit-tu=4 / rdoq-level=1 / dynamic-rd=0.00 / ssim-rd / signhide / no-tskip / nr-intra=0 / nr-inter=0 / no-constrained-intra / no-strong-intra-smoothing / max-merge=3 / limit-refs=2 / limit-modes / me=3 / subme=5 / merange=25 / temporal-mvp / weightp / weightb / no-analyze-src-pics / deblock=-1:-1 / no-sao / no-sao-non-deblock / rd=4 / no-early-skip / rskip / no-fast-intra / no-tskip-fast / no-cu-lossless / b-intra / no-splitrd-skip / rdpenalty=1 / psy-rd=0.00 / psy-rdoq=5.00 / no-rd-refine / no-lossless / cbqpoffs=-2 / crqpoffs=-2 / rc=crf / crf=15.0 / qcomp=0.70 / qpstep=4 / stats-write=0 / stats-read=0 / ipratio=1.40 / pbratio=1.30 / aq-mode=1 / aq-strength=0.80 / cutree / zone-count=0 / no-strict-cbr / qg-size=16 / no-rc-grain / qpmax=69 / qpmin=0 / no-const-vbv / sar=0 / overscan=0 / videoformat=5 / range=0 / colorprim=1 / transfer=2 / colormatrix=2 / chromaloc=0 / display-window=0 / max-cll=0,0 / min-luma=0 / max-luma=1023 / log2-max-poc-lsb=8 / vui-timing-info / vui-hrd-info / slices=1 / no-opt-qp-pps / no-opt-ref-list-length-pps / no-multi-pass-opt-rps / scenecut-bias=0.05 / no-opt-cu-delta-qp / no-aq-motion / no-hdr / no-hdr-opt / no-dhdr10-opt / no-idr-recovery-sei / analysis-reuse-level=5 / scale-factor=0 / refine-intra=0 / refine-inter=0 / refine-mv=0 / no-limit-sao / ctu-info=0 / no-lowpass-dct / refine-mv-type=0 / copy-pic=1 / max-ausize-factor=1.0 / no-dynamic-refine / no-single-sei

  34. Language : Chinese

  35. Default : Yes

  36. Forced : No

  37. Color range : Limited

  38. Color primaries : BT.709

  39. Audio

  40. ID : 2

  41. Format : AC-3

  42. Format/Info : Audio Coding 3

  43. Commercial name : Dolby Digital

  44. Codec ID : A_AC3

  45. Duration : 2 h 13 min

  46. Bit rate mode : Constant

  47. Bit rate : 640 kb/s

  48. Channel(s) : 6 channels

  49. Channel layout : L R C LFE Ls Rs

  50. Sampling rate : 48.0 kHz

  51. Frame rate : 31.250 FPS (1536 SPF)

  52. Compression mode : Lossy

  53. Stream size : 613 MiB (10%)

  54. Language : Chinese

  55. Service kind : Complete Main

  56. Default : Yes

  57. Forced : No

  58. Text #1

  59. ID : 3

  60. Format : PGS

  61. Muxing mode : zlib

  62. Codec ID : S_HDMV/PGS

  63. Codec ID/Info : Picture based subtitle format used on BDs/HD-DVDs

  64. Duration : 2 h 6 min

  65. Bit rate : 25.8 kb/s

  66. Count of elements : 2228

  67. Stream size : 23.4 MiB (0%)

  68. Title : 英文

  69. Language : English

  70. Default : No

  71. Forced : Yes

  72. Text #2

  73. ID : 4

  74. Format : PGS

  75. Muxing mode : zlib

  76. Codec ID : S_HDMV/PGS

  77. Codec ID/Info : Picture based subtitle format used on BDs/HD-DVDs

  78. Duration : 2 h 5 min

  79. Bit rate : 23.8 kb/s

  80. Count of elements : 2434

  81. Stream size : 21.4 MiB (0%)

  82. Title : 简体

  83. Language : Chinese

  84. Default : No

  85. Forced : No

  86. Text #3

  87. ID : 5

  88. Format : PGS

  89. Muxing mode : zlib

  90. Codec ID : S_HDMV/PGS

  91. Codec ID/Info : Picture based subtitle format used on BDs/HD-DVDs

  92. Duration : 2 h 5 min

  93. Bit rate : 24.5 kb/s

  94. Count of elements : 2434

  95. Stream size : 22.0 MiB (0%)

  96. Title : 繁体

  97. Language : Chinese

  98. Default : Yes

  99. Forced : No

  100. Menu

  101. 00:00:00.000 : en:Chapter 01

  102. 00:11:09.916 : en:Chapter 02

  103. 00:22:52.458 : en:Chapter 03

  104. 00:32:44.458 : en:Chapter 04

  105. 00:42:22.666 : en:Chapter 05

  106. 00:55:35.750 : en:Chapter 06

  107. 01:07:03.666 : en:Chapter 07

  108. 01:16:16.916 : en:Chapter 08

  109. 01:29:49.125 : en:Chapter 09

  110. 01:38:53.541 : en:Chapter 10

  111. 01:55:53.291 : en:Chapter 11

  112. 02:07:36.291 : en:Chapter 12


复制代码



文件下载


除非特别注明,本文『军中乐园[国语音轨/简繁英字幕].Paradise.in.Service.2014.BluRay.1080p.x265.10bit-MiniHD 6.06GB』来源于互联网机器人自动抓取,非本站原创。 浮游电影网不对本文拥有版权,如有侵犯,请联系邮箱:fuyouu#yandex.com[#换成@]投诉。我们会在15个工作日内删除。 但烦请转载时请标明出处:“本文转载于『浮游电影网』,原文地址:https://www.fuyouu.com/22543.html

评论吧骚年!

发表你的见解   

昵称*

E-mail*(建议输入,以便收到博主回复的提示邮件)

验证码*

您可以使用eMule或eMule Mod(Windows)、aMule(Win、Linux、Mac)等软件下载eD2k链接。。
eMule收藏集(.emulecollection)文件是您选中的所有链接的列表文件。eMule可以直接下载它们。
按住SHIFT键选择可以选中多个选择框。
可用文件名和大小选择器来选择文件。
文件名选择器帮您根据文件名称或后缀来选择文件。不分大小写。
符号使用:
和:空格( )、+
不包含:-
或:|
转义:一对英文引号("");
匹配开头:^
匹配结尾:$
例如:
选中所有名称中包含有“eMule”或“0.49c”字眼,但不包含有“exe”字眼的:emule|0.49c -exe
选中所有名称的开头是“eMule”,结尾是“0.49c”的:^emule 0.49c$
选中所有名称中带有“eMule 0.49c”的(必须是“eMule 0.49c”,中间没有别的字符,不能是“eMule fake 0.49c”),需要转义:"emule 0.49c"
大小选择器帮您根据文件大小选择文件。